#TITLE:Rhinestone Cowboy;
#SUBTITLE:(Giddy Up Giddy Up);
#ARTIST:Rikki & Daz;
#TITLETRANSLIT:;
#SUBTITLETRANSLIT:;
#ARTISTTRANSLIT:;
#CREDIT:Pop"nKO;
#BANNER:rhinestone-banner.png;
#SONGINFO:rhinestone-songinfo.png;
#BACKGROUND:rhinestone-bg.png;
#LYRICSPATH:;
#CDTITLE:;
#CHARACTER:./SongCharacters/rikkindaz;
#MUSIC:Rhinestone Cowboy.ogg;
#OFFSET:-0.040;
#SAMPLESTART:28.020;
#SAMPLELENGTH:12.000;
#SELECTABLE:YES;
#BPMS:0.000=130.020;
#STOPS:;
#BGCHANGES:;
// cache tags:
#FIRSTBEAT:8.000;
#LASTBEAT:240.000;
#SONGFILENAME:Songs/Neon FM/Rhinestone Cowboy/rhinestone.sm;
#HASMUSIC:1;
#HASBANNER:1;
#MUSICLENGTH:119.076;
// end cache tags

//---------------pump-single - ----------------
#NOTES:
     pump-single:
     :
     Hard:
     80:
     0.505,0.453,0.034,0.160,0.525,398.000,4.000,19.000,0.000,0.000:
00000
00000
00000
00000
,
00000
00000
00000
00000
,
10000
10000
10000
10000
,
00010
00000
00001
00000
01000
00000
00100
00000
10000
00001
00000
00001
10000
00000
00000
00000
,
00100
00000
00000
10000
00100
00000
00000
10000
00100
00000
01000
00000
00010
00000
00000
00000
,
00100
00000
00000
00001
00100
00000
00000
00001
00100
00000
00010
00000
01000
00000
00100
00000
,
00100
00000
00000
10000
00100
00000
00000
10000
00100
00000
01000
00000
00010
00000
00000
00000
,
00100
00000
00000
00001
00100
00000
00000
00001
00100
00000
00010
00000
01000
00000
00010
00000
,
10000
00000
00000
00010
10000
00000
00000
00010
10000
00000
00100
00000
01000
00000
00000
00000
,
00001
00000
00000
01000
00001
00000
00000
01000
00001
00000
00100
00000
00010
00000
00010
00000
,
10000
00000
00000
00010
10000
00000
00000
00010
10000
00000
00100
00000
01000
00000
00000
00000
,
00001
00000
00000
01000
00001
00000
00000
01000
00001
00000
00100
00000
00010
00000
00100
00000
,
00002
00100
00100
00100
,
00203
00010
00010
00010
,
02300
00001
00001
00001
,
03001
00000
10000
00100
01000
00000
01100
00000
,
00010
00000
00000
00010
10000
00000
00000
10000
00001
00000
00000
00001
01000
00000
00000
01000
,
00100
00000
00000
00100
10000
00000
00000
10000
00001
00000
00000
00001
01000
00000
00000
01000
,
00001
00000
00000
00001
00100
00000
00000
00100
00010
00000
00000
00010
01000
00000
00000
01000
,
00100
00000
00000
00100
10000
00000
00000
10000
00100
00000
00000
00100
01000
00000
00000
01000
,
00001
00000
00000
00001
00100
00000
00000
00100
00010
00000
00000
00010
00100
00000
00000
00100
,
00001
00000
00000
00001
01000
00000
00100
00000
10000
00000
00000
00000
10001
00000
00000
00000
,
01000
00000
00000
01000
00010
00000
00000
00010
10000
00000
00000
10000
00001
00000
00000
00001
,
00100
00000
00000
00100
00010
00000
00000
00010
10000
00000
00000
10000
00100
00000
00000
00100
,
01000
00000
00000
01000
00010
00000
00000
00010
01000
00000
00000
01000
00100
00000
00000
00100
,
10000
00000
00000
10000
00010
00000
00000
00010
10000
00000
00000
10000
00001
00000
00000
00001
,
10000
00000
00000
10000
00100
00000
00000
00100
01000
00000
00000
01000
00010
00000
00000
00010
,
00100
00000
00000
00100
00001
00000
00000
00001
10000
00000
00000
10000
00010
00000
00000
00010
,
20000
00000
00000
30020
00000
00000
02030
00000
,
03002
00000
00000
20003
00000
00000
30020
00000
,
01030
00000
00000
01000
00001
00000
00000
00001
00100
00000
00000
00100
00001
00000
00000
00001
,
10000
00000
00000
10000
00100
00000
00000
00100
10000
00000
00000
10000
00010
00000
01000
00000
,
00001
00100
00010
00000
10000
01000
00100
00000
,
00100
01000
00100
00010
00100
01000
00100
00000
,
00001
10000
00100
00000
01000
00010
00100
00000
,
00001
00100
00010
00100
01000
00100
10000
00000
,
00001
00000
00100
00010
00100
00000
00000
00000
00001
00000
01000
00100
01000
00000
00000
00000
,
00001
00000
10000
00100
10000
00000
00010
00000
01000
00000
00100
00000
00100
00000
00000
00000
,
10000
00100
01000
00100
10000
00100
01000
00000
,
00001
00100
00010
00100
00001
00100
00010
00000
,
02000
00010
00010
00000
00001
00000
00100
00000
,
23000
00010
00010
00000
00100
00000
00001
00000
,
30200
00010
00010
00000
01000
00000
00001
00000
,
02300
00000
00001
00001
00100
00000
03100
00000
,
01000
00000
00000
01000
00001
00000
00000
00001
10000
00000
00000
10000
00010
00000
00000
00010
,
00100
00000
00000
00100
00001
00000
00000
00001
10000
00000
00000
10000
00010
00000
00000
00010
,
10000
00000
00000
10000
00100
00000
00000
00100
01000
00000
00000
01000
00010
00000
00000
00010
,
00100
00000
00000
00100
00001
00000
00000
00001
00100
00000
00000
00100
00010
00000
00000
00010
,
10000
00000
00000
10000
00100
00000
00000
00100
01000
00000
00000
01000
00100
00000
00000
00100
,
10000
00000
00000
10000
00010
00000
00100
00000
00001
00000
00000
00000
10001
00000
00000
00000
,
00010
00000
00000
00010
01000
00000
00000
01000
00001
00000
00000
00001
10000
00000
00000
10000
,
00100
00000
00000
00100
01000
00000
00000
01000
00001
00000
00000
00001
00100
00000
00000
00100
,
00010
00000
00000
00010
01000
00000
00000
01000
00010
00000
00000
00010
00100
00000
00000
00100
,
00001
00000
00000
00001
01000
00000
00000
01000
00001
00000
00000
00001
10000
00000
00000
10000
,
00001
00000
00000
00001
00100
00000
00000
00100
00010
00000
00000
00010
01000
00000
00000
01000
,
00100
00000
00000
00100
10000
00000
00000
10000
00001
00000
00000
00001
01000
00000
00000
01000
,
00002
00000
00000
02003
00000
00000
03020
00000
,
20030
00000
00000
30002
00000
00000
02003
00000
,
03010
00000
00000
00010
10000
00000
00000
10000
00100
00000
00000
00100
10000
00000
00000
10000
,
00001
00000
00000
00001
00100
00000
00000
00100
00001
00000
00000
00001
01000
00000
00010
00000
,
10010
00000
00000
00000
;

//---------------pump-single - ----------------
#NOTES:
     pump-single:
     :
     Medium:
     48:
     0.317,0.328,0.092,0.101,0.000,241.000,11.000,12.000,0.000,0.000:
00000
00000
00000
00000
,
00000
00000
00000
00000
,
00000
00000
00000
00000
,
00000
00000
00000
00000
,
10000
00100
10000
00001
,
00001
10000
00200
20300
,
30010
01000
00100
01000
,
00001
00100
00020
02030
,
03001
00100
00100
00010
,
01000
00001
00200
00320
,
10030
00001
00100
00010
,
01000
00010
20000
30200
,
01300
00010
01000
00010
,
01000
00010
01000
00010
,
10000
00001
10000
00001
,
10000
00000
00001
00100
00001
00000
00100
00000
,
00101
00101
01000
00010
,
10000
00000
00100
01000
00100
00000
01000
00100
,
01000
00000
00010
00100
00010
00000
10000
00100
,
10000
00000
00001
00100
00002
00000
10003
00100
,
00000
00010
10000
00100
,
01000
00000
00001
00100
00010
00000
00110
00000
,
00101
00101
01000
00100
,
10000
00000
01000
00100
00010
00000
00001
00010
,
00100
00000
00010
00001
00000
00001
01000
00000
,
00100
00100
10000
10000
00020
00000
00130
00001
,
00000
10000
00100
00100
,
01000
00010
00100
00001
,
10000
00000
00000
00001
00000
00000
01000
00000
,
00010
00000
00000
10000
00000
00000
00001
00000
,
00000
00100
00000
00100
,
00000
00010
01000
00010
,
00100
00000
00100
00000
00001
10000
00001
00000
,
00100
00000
00010
00000
01000
00010
01000
00000
,
00001
00001
10000
10000
,
00100
00000
01000
00000
00010
00100
00010
00000
,
00100
00001
10000
00100
,
01000
00000
00010
00000
00100
00001
01000
00000
,
00010
00100
00001
01000
,
00100
00000
10000
00000
00001
10000
00001
00000
,
01000
00000
01000
00000
,
00010
00000
00010
00000
,
01000
00000
00010
00000
,
01000
00000
00010
01000
00010
00000
01010
00000
,
10100
10100
00010
01000
,
00001
00000
00100
00010
00100
00000
00010
00100
,
00010
00000
01000
00100
01000
00000
00001
00100
,
00001
00000
10000
00100
20000
00000
30001
00100
,
00000
01000
00001
00100
,
00010
00000
10000
00100
01000
00000
01100
00000
,
10100
10100
00010
00100
,
00001
00000
00010
00100
01000
00000
10000
01000
,
00100
00000
01000
10000
00000
10000
00010
00000
,
00100
00100
00001
00001
02000
00000
03100
10000
,
00000
00001
00100
00100
,
00010
01000
00100
10000
,
00001
00000
00000
10000
00000
00000
00010
00000
,
01000
00000
00000
00001
00000
00000
10000
00000
,
00000
00100
00000
00100
,
10000
00000
00001
00000
01000
00010
01000
00010
,
01000
00000
00000
00000
;

//---------------pump-single - ----------------
#NOTES:
     pump-single:
     :
     Easy:
     11:
     0.071,0.101,0.000,0.000,0.000,59.000,0.000,0.000,0.000,0.000:
00000
00000
00000
00000
,
00000
00000
00000
00000
,
00000
00000
00000
00000
,
00000
00000
00000
00000
,
00001
00000
00000
00000
,
00000
00000
01000
00010
,
00100
00000
00000
00000
,
00000
00000
10000
00100
,
01000
00000
00000
00000
,
00000
00000
00001
10000
,
00100
00000
00000
00000
,
00000
00000
00010
00100
,
00001
00000
00000
00000
,
00000
00000
00000
00000
,
00100
00000
00000
00000
,
00000
00000
00001
10000
,
00001
00000
00000
00000
,
00100
00000
00000
00000
,
00000
00000
00000
00000
,
00010
00000
00000
00000
,
00000
00000
00000
00000
,
01000
00000
00000
00100
,
10000
00000
00000
00000
,
00001
00000
00000
00000
,
00100
00000
00000
00000
,
00010
00000
00000
00000
,
01000
00000
00000
00000
,
10000
00000
00000
00000
,
00001
00000
00000
00000
,
00100
00000
00000
00000
,
00100
00000
00000
00000
,
00100
00000
00000
00000
,
10000
00000
00000
00000
,
00000
00000
00000
00000
,
01000
00000
00000
00000
,
00000
00000
00000
00000
,
00100
00000
00000
00000
,
00000
00000
00000
00000
,
00010
00000
00000
00000
,
00000
00000
00000
00001
,
10000
00000
00000
00000
,
00000
00000
00000
10000
,
00001
00000
00000
00000
,
00000
00000
00100
00100
,
00010
00000
00000
00000
,
01000
00000
00000
00000
,
00010
00000
00000
00000
,
10000
00000
00000
00000
,
00001
00000
00000
00000
,
00100
00000
00000
00010
,
10000
00000
00000
00000
,
10000
00000
00000
00000
,
00100
00000
00000
00000
,
01000
00000
00000
00000
,
00001
00000
00000
00000
,
00010
00000
00000
00000
,
00100
00000
00000
00000
,
00000
00000
00000
00100
,
00100
00000
00000
00000
,
00000
00000
00000
00001
,
10000
00000
00000
00000
;

//---------------pump-single - Copied from----------------
#NOTES:
     pump-single:
     Copied from:
     Beginner:
     9:
     0.046,0.101,0.000,0.017,0.000,36.000,0.000,2.000,0.000,0.000:
00000
00000
00000
00000
,
00000
00000
00000
00000
,
00000
00000
00000
00000
,
00000
00000
00000
00000
,
00100
00000
00000
00000
,
00000
00000
00000
00000
,
00010
00000
00000
00000
,
00000
00000
00000
00000
,
00100
00000
00000
00000
,
00000
00000
00000
00000
,
00001
00000
00000
00000
,
00000
00000
00000
00000
,
00100
00000
00000
00000
,
00000
00000
00000
00000
,
00100
00000
00000
00000
,
00000
00000
00000
00000
,
00010
00000
00000
00000
,
00000
00000
00000
00000
,
01000
00000
00000
00000
,
00000
00000
00000
00000
,
00010
00000
00000
00000
,
01000
00000
00000
00000
,
00001
00000
00000
00000
,
00000
00000
00000
00000
,
10000
00000
00000
00000
,
00000
00000
00000
00000
,
00001
00000
00000
00000
,
01000
00000
00000
00000
,
00010
00000
00000
00000
,
00100
00000
00000
00000
,
00001
00000
00000
00000
,
20000
00000
00000
00000
,
30100
00000
00000
00000
,
00000
00000
00000
00000
,
00001
00000
00000
00000
,
00000
00000
00000
00000
,
10000
00000
00000
00000
,
00000
00000
00000
00000
,
00010
00000
00000
00000
,
00000
00000
00000
00000
,
01000
00000
00000
00000
,
00000
00000
00000
00000
,
00001
00000
00000
00000
,
00002
00000
00000
00000
,
00103
00000
00000
00000
,
00000
00000
00000
00000
,
00100
00000
00000
00000
,
00000
00000
00000
00000
,
00010
00000
00000
00000
,
01000
00000
00000
00000
,
00010
00000
00000
00000
,
00000
00000
00000
00000
,
10000
00000
00000
00000
,
00000
00000
00000
00000
,
00001
00000
00000
00000
,
00000
00000
00000
00000
,
00100
00000
00000
00000
,
00010
00000
00000
00000
,
01000
00000
00000
00000
,
00000
00000
00000
00000
,
00100
00000
00000
00000
;
