#TITLE:Turn It Upsidedown;
#SUBTITLE:;
#ARTIST:Red Pulse;
#TITLETRANSLIT:;
#SUBTITLETRANSLIT:;
#ARTISTTRANSLIT:;
#CREDIT:;
#BANNER:turnitupsidedown-banner.png;
#SONGINFO:turnitupsidedown-songinfo.png;
#BACKGROUND:turnitupsidedown-bg.png;
#LYRICSPATH:;
#CDTITLE:./CDTITLES/o2jam.png;
#CHARACTER:./SongCharacters/default;
#MUSIC:Turn It Upsidedown.mp3;
#OFFSET:-0.460;
#SAMPLESTART:41.200;
#SAMPLELENGTH:12.000;
#SELECTABLE:YES;
#BPMS:0.000=122.000;
#STOPS:;
#BGCHANGES:-2.000=visffd320.avi=1.000=1=1=0
;
// cache tags:
#FIRSTBEAT:4.000;
#LASTBEAT:219.500;
#SONGFILENAME:Songs/Neon FM/Turn It Upsidedown/Turn It Upsidedown.sm;
#HASMUSIC:1;
#HASBANNER:1;
#MUSICLENGTH:109.113;
// end cache tags

//---------------pump-single - ----------------
#NOTES:
     pump-single:
     :
     Hard:
     69:
     0.501,0.503,0.587,0.192,0.069,298.000,64.000,21.000,0.000,0.000:
00000
00000
00000
00000
,
02000
00000
03010
00000
00100
00001
01000
00010
,
10010
10001
10010
10001
,
00200
00000
00301
00000
01000
00100
10000
00010
,
01010
01001
01010
01001
,
10000
00100
01000
00000
01000
00000
00000
00000
,
00010
00100
00001
00000
00001
00000
00000
00000
,
01000
00010
00100
00000
00100
00000
00000
00000
,
00001
01000
00010
00000
00010
00100
00010
00100
,
00001
00000
10100
00000
00010
01000
00020
00000
,
10030
00000
00101
00000
10000
00100
02000
00000
,
03001
00000
01010
00000
10000
00010
20000
00000
,
30100
00000
01000
00000
00001
10000
00001
10000
,
00010
00100
00001
00100
00010
00100
00001
00000
,
10000
00100
01000
00100
10000
00100
01000
00000
,
00010
10000
00001
01000
00010
10000
00001
00000
,
10000
00100
01000
00000
11000
00000
01100
00000
,
01000
00100
10000
00100
01000
00100
10000
00000
,
00001
00100
00010
00100
00001
00100
00010
00000
,
01000
00001
10000
00010
01000
00001
10000
00000
,
00002
00103
00011
00110
,
10100
00000
01100
00000
10100
00000
00001
01000
,
00110
00000
00101
00000
00110
00000
00010
10000
,
01100
00000
01010
00000
01100
00000
01000
00100
,
00110
00000
01100
00000
00110
00000
00100
10000
,
11000
00000
10001
00000
10100
00000
00010
00100
,
01001
00000
00110
00000
10001
00000
01000
00010
,
01010
10001
01100
00010
,
10001
00000
00000
01000
00100
00000
00100
00000
01000
00000
00002
00000
00103
00000
00000
00000
,
01000
00000
00001
00000
10000
00000
01000
00000
10000
00000
00100
00000
00000
01000
00000
00000
,
00010
00000
00100
00000
00010
00000
10000
00000
00001
00000
00100
00000
00000
00010
00000
00000
,
00100
00000
00001
00000
01000
00000
00100
00000
01000
00000
00010
00000
00000
10000
00000
00000
,
00100
00000
10000
00000
00001
00000
00100
00000
00010
00000
01000
00010
01000
00000
00001
00000
,
00001
00000
01000
00000
00010
00000
00001
00000
00010
00000
00100
00000
00000
00001
00000
00000
,
10000
00000
00100
00000
10000
00000
00010
00000
01000
00000
00100
00000
00000
10000
00000
00000
,
00100
00000
01000
00000
00001
00000
00100
00000
00001
00000
10000
00000
00000
00010
00000
00000
,
20000
00000
00100
00000
,
30010
00000
00000
01000
00100
00000
10000
00000
00100
00000
00000
00000
01000
00000
00000
00000
,
00001
00000
00000
00100
00010
00000
01000
00000
00001
00000
10000
00000
00010
00000
00000
00000
,
01000
00000
00000
00100
10000
00000
00001
00000
01000
00000
00000
00000
00010
00000
00000
00000
,
01000
00000
00000
00010
01000
00000
00100
00000
10000
00000
00100
00000
01000
00000
00000
00000
,
00001
00000
00000
00100
00001
00000
00010
00000
00002
00000
00000
00000
01003
00000
00000
00000
,
00010
00000
00000
10000
00001
00000
01000
00000
00010
00000
01000
00000
00010
00000
00000
00000
,
10000
00000
00000
00100
01000
00000
00010
00000
00200
00000
00000
00000
00301
00000
00000
00000
,
20020
00000
00000
00000
00000
00000
30030
00100
,
00101
00000
00110
00000
00101
00000
20000
30010
,
01100
00000
10100
00000
01100
00000
02000
03001
,
00110
00000
01010
00000
00110
00000
00020
00130
,
01100
00000
00110
00000
01100
00000
00200
00301
,
00011
00000
10001
00000
00101
00000
02000
03100
,
10010
00000
01100
00000
10001
00000
00020
01030
,
01010
10001
00110
01000
,
00220
00000
00000
00330
,
20000
00000
30010
00000
00100
00001
01000
00100
,
10100
00000
10100
00000
10100
00000
10100
00100
;

//---------------pump-single - ----------------
#NOTES:
     pump-single:
     :
     Medium:
     53:
     0.374,0.377,0.266,0.092,0.000,247.000,29.000,10.000,0.000,0.000:
00000
00000
00000
00000
,
01000
00100
01000
00000
00010
00100
00010
00000
,
10000
00010
01000
00001
,
10000
00100
10000
00000
00001
00100
00001
00000
,
01000
00010
01000
00010
,
10000
11000
01000
00000
,
00001
00011
00010
00000
,
01000
01010
00010
00000
,
00010
01010
01000
00000
,
10000
00100
10000
01000
10000
00000
00000
00000
,
00001
00010
00001
00100
00001
00000
00000
00000
,
01000
00100
00010
00100
01000
00000
00000
00000
,
00010
10000
00010
01000
00001
00001
00001
00001
,
10000
00000
00010
00000
01000
00001
00100
00000
,
00010
00000
10000
00000
00100
01000
00010
00000
,
00100
00000
00001
00000
10000
00010
01000
00000
,
00010
00000
00100
00000
00010
01000
00001
00000
,
10000
00000
00010
00000
01000
00001
00100
00000
,
00010
00000
10000
00000
00100
01000
00010
00000
,
00100
00000
00001
00000
10000
00010
01000
00000
,
00020
10000
10000
00030
,
00100
00000
01010
00000
01010
00000
01000
00001
,
00010
00000
00101
00000
00101
00000
10000
00100
,
01000
00000
10100
00000
10100
00000
00010
10000
,
00001
01010
02020
03030
,
10000
00000
10010
00000
10010
00000
00100
01000
,
00001
01001
01001
00000
,
10000
00100
01000
00100
01000
00000
00010
00000
,
00020
00000
01000
01030
,
10000
00100
10000
00000
00010
01000
00010
00000
,
00100
00001
00100
00000
01000
00010
01000
00000
,
00100
10000
00001
00000
00100
00001
10000
00000
,
00010
10000
01000
00000
01000
10000
00010
00000
,
01000
01000
00010
00000
00100
00100
00001
00000
,
10000
10000
00100
00000
01000
01000
00010
00000
,
10000
10000
00010
00000
01000
01000
00001
00000
,
02100
00000
00000
03100
,
10000
00001
10000
00001
,
01000
00100
00010
00100
,
01000
00001
10000
00010
,
00100
00001
00100
00001
,
01000
00100
10000
00100
,
01000
00100
00010
00001
,
01000
00010
10000
00100
,
02000
00000
00000
03000
,
00100
00000
01010
00000
01010
00000
01000
00001
,
00010
00000
00101
00000
00101
00000
10000
00100
,
01000
00000
10100
00000
10100
00000
00010
10000
,
00001
01010
02020
03030
,
10000
00000
10010
00000
10010
00000
00100
01000
,
00001
01001
01001
00000
,
10000
00100
01000
00100
01000
00000
00010
00000
,
00020
00000
01000
01030
,
20000
00000
30010
00000
01000
00100
10000
00001
,
00100
00000
00100
00000
00100
00000
00100
00010
;

//---------------pump-single - ----------------
#NOTES:
     pump-single:
     :
     Easy:
     22:
     0.141,0.201,0.000,0.009,0.000,107.000,0.000,1.000,0.000,0.000:
00000
00000
00000
00000
,
00010
00000
00100
00000
,
00001
00000
00001
00000
,
01000
00000
00100
00000
,
10000
00000
10000
00000
,
00010
00000
00000
00000
,
00100
00000
00000
00000
,
00010
00000
00000
00000
,
00100
00000
00000
00000
,
00001
00000
00000
00000
,
10000
00000
00000
00000
,
00001
00000
00000
00000
,
10000
00000
00000
00000
,
00100
00000
01000
00000
,
00100
00000
10000
00000
,
00010
00000
00100
00000
,
00010
00000
01000
00000
,
00001
00000
10000
00000
,
00001
00000
00100
00000
,
00010
00000
01000
00000
,
00010
00000
10000
00000
,
00100
00100
00100
00000
,
01000
01000
01000
00000
,
00001
00001
00001
00000
,
10000
10000
10000
00000
,
00010
00010
00010
00000
,
01000
01000
01000
00000
,
00100
00100
00100
00100
,
00020
00000
00000
00000
,
01030
00000
00000
00001
,
10000
00000
00000
00010
,
00100
00000
00000
01000
,
00100
00000
00000
00000
,
00010
00000
00000
10000
,
00001
00000
00000
00000
,
00100
00000
00000
00010
,
00100
00100
00100
00000
,
10000
00000
00000
00000
,
00010
00000
00000
00000
,
01000
00000
00000
00000
,
00001
00000
00000
00000
,
00100
00000
00000
00000
,
00010
00000
00000
00000
,
00001
00000
00000
00000
,
00010
00000
00000
00010
,
01000
00000
01000
00000
,
00001
00000
00001
00000
,
10000
00000
10000
00000
,
00010
00000
00010
00000
,
01000
01000
01000
00000
,
00100
00100
00100
00000
,
10000
10000
10000
00000
,
00001
00001
00001
00001
,
00001
00000
10000
00010
,
01000
00100
01000
00100
;

//---------------pump-single - Copied from----------------
#NOTES:
     pump-single:
     Copied from:
     Beginner:
     17:
     0.115,0.176,0.000,0.018,0.000,86.000,0.000,2.000,0.000,0.000:
00000
00000
00000
00000
,
00100
00000
00000
00000
,
10000
00000
00000
00000
,
00010
00000
00000
00000
,
00200
00000
00000
00000
,
00301
00000
00000
00000
,
01000
00000
00000
00000
,
00100
00000
00000
00000
,
10000
00000
00000
00000
,
00010
00000
00000
00000
,
00100
00000
00000
00000
,
00010
00000
00000
00000
,
01000
00000
00000
00000
,
10000
00001
00000
00000
,
00100
01000
00100
00000
,
10000
00010
00000
00000
,
00100
10000
00100
00000
,
00001
01000
00001
00000
,
00100
00010
10000
00000
,
01000
00100
10000
00000
,
00001
00000
00000
00000
,
00001
00001
00001
00000
,
00000
10000
10000
00000
,
00010
00010
00010
00000
,
00000
01000
01000
00000
,
00100
00100
00100
00000
,
00000
10000
10000
00000
,
00000
00010
00000
00010
,
20000
00000
00000
00000
,
30001
00000
00100
00000
,
00000
00000
00000
00000
,
00010
00000
10000
00000
,
00000
00000
00000
00000
,
00100
00000
01000
00000
,
00000
00000
00000
00000
,
10000
00000
00010
00000
,
00000
00000
00000
00000
,
10000
00000
00000
00000
,
00000
00000
00000
00000
,
00001
00000
00000
00000
,
00000
00000
00000
00000
,
00100
00000
00000
00000
,
00000
00000
00000
00000
,
00010
00000
00000
00000
,
10000
00000
00000
00000
,
00010
00000
00000
00000
,
00000
00001
00001
00000
,
01000
01000
01000
00000
,
00000
00100
00100
00000
,
10000
10000
10000
00000
,
00000
00010
00010
00000
,
00000
00100
00000
00001
,
00000
00001
00001
00001
,
00001
00000
00000
00000
,
10000
00100
10000
00100
;
