#TITLE:Save The Floor;
#SUBTITLE:Hard House Mix;
#ARTIST:Phat Bros.;
#TITLETRANSLIT:;
#SUBTITLETRANSLIT:;
#ARTISTTRANSLIT:;
#CREDIT:;
#BANNER:;
#SONGINFO:savethefloor-songinfo.png;
#BACKGROUND:;
#LYRICSPATH:;
#CDTITLE:./CDTITLES/dpsc.png;
#CHARACTER:./SongCharacters/DJPotatoe;
#MUSIC:Save The Floor.mp3;
#OFFSET:-0.100;
#SAMPLESTART:55.600;
#SAMPLELENGTH:12.000;
#SELECTABLE:YES;
#BPMS:0.000=138.000,160.000=100.000,160.833=70.000,161.500=38.000,162.000=21.000,162.250=201.001,164.000=138.000,228.000=100.000,228.833=70.000,229.333=38.000,230.000=21.000;
#STOPS:163.500=0.400
;
#BGCHANGES:;
// cache tags:
#FIRSTBEAT:16.000;
#LASTBEAT:230.000;
#SONGFILENAME:Songs/Neon FM/Save The Floor/Save The Floor.sm;
#HASMUSIC:1;
#HASBANNER:0;
#MUSICLENGTH:104.358;
// end cache tags

//---------------pump-single - ----------------
#NOTES:
     pump-single:
     :
     Hard:
     78:
     0.590,0.606,0.259,0.498,0.053,352.000,27.000,52.000,0.000,0.000:
00000
00000
00000
00000
,
00000
00000
00000
00000
,
00000
00000
00000
00000
,
00000
00000
00000
00000
,
00200
00010
00310
02000
00001
00000
03001
00010
,
00002
10000
10003
00200
01000
00000
10300
00010
,
01000
00020
10000
00000
00100
00100
00130
00000
,
00020
10000
00000
10000
00030
10000
00100
00000
,
00200
01000
01300
00020
10000
00000
10030
01000
,
20000
00001
30001
00200
00010
00000
00301
01000
,
00010
02000
00001
00000
00100
00100
03100
00000
,
02000
00001
00000
00001
03000
00001
00100
00000
,
00001
01000
00010
00100
00010
00100
00010
00100
,
00001
01000
00010
00100
00010
00100
00010
00100
,
00001
01000
01001
00000
10000
00010
10010
00000
,
01000
00000
00100
00000
10000
00000
00000
00010
00100
00000
00001
00000
00100
00000
00000
00000
,
00001
00010
00100
01000
00001
00100
00010
00001
,
00010
10000
00100
01000
00100
00010
00100
10000
,
01000
00100
00010
00001
00010
01000
00100
00010
,
00100
10000
00001
00100
00010
00010
00010
00010
,
00100
01000
10000
00010
00100
01000
10000
00001
,
00010
00100
01000
00001
00010
00100
00010
00001
,
10000
01000
00100
00001
00010
00100
10000
01000
,
00200
00000
02300
00000
23000
00010
30010
00000
,
20200
00000
00000
30300
02200
00000
03300
10100
,
00000
10000
00010
00100
00010
10000
00010
00100
,
00001
00202
00000
00303
00220
00000
00330
00101
,
00101
01010
10100
10001
,
02020
00000
00000
03030
00220
00000
00330
01100
,
00000
00100
00001
00010
00001
10000
01000
10000
,
00000
20020
00000
30030
02020
00000
03030
10010
,
10010
00000
00000
00000
01001
00000
00000
10000
00100
00000
10000
00000
00001
00000
00001
00000
,
20000
00100
30100
02000
00001
03002
10000
10003
,
00020
00100
00130
00200
00001
00301
10000
01000
,
00100
02000
10000
00000
13000
00100
01000
00010
,
00000
01100
00000
00110
00000
10100
10000
00001
,
00002
00100
00103
00020
10000
20030
00001
30001
,
02000
00100
03100
00200
10000
10300
00001
00010
,
00100
00020
00001
00000
00031
00100
00010
01000
,
00000
00110
00000
01100
00000
00101
00100
00100
,
00020
00000
00000
00000
00000
00000
00000
00000
00000
00000
10000
00000
00000
00000
00000
00000
00000
00000
01000
00000
00000
00000
00000
00000
10030
00000
00000
00200
00000
00000
00000
00000
00000
00000
00000
00000
00000
00000
00000
00000
00000
00000
00300
00000
00000
00000
00000
00000
,
01000
00001
01000
00000
00010
10000
00010
00000
,
01000
00000
00000
00100
10000
00000
00100
00000
01000
00000
00010
00000
00100
00000
00000
00000
,
00010
10000
01000
00000
01000
10000
00100
00000
,
01000
00000
00000
00001
10000
00000
00010
00000
00100
00000
00001
00000
00100
00000
00000
00000
,
00010
00100
00001
00000
01000
00100
10000
00000
,
00100
00000
00000
01000
00010
00000
10000
00000
00001
00000
00100
00000
00010
00000
00000
00000
,
10000
01000
10000
01000
10000
01000
10000
00001
,
00010
00001
00010
00001
00020
00000
00032
00000
,
10003
00100
01000
00100
00010
00001
10000
01000
,
00100
00000
00100
00000
00010
00000
00000
10000
00001
00000
00010
00000
00200
00000
00000
00000
,
01300
00010
00001
00010
00100
01000
10000
00010
,
00100
00000
00100
00000
01000
00000
00000
01000
10000
00000
00100
00000
02000
00000
00000
00000
,
03001
00010
00100
10000
01000
00100
00001
00010
,
00100
00000
00100
00000
01000
00000
00000
00001
00100
00000
00010
00000
00002
00000
00000
00000
,
00013
00010
00100
00100
01000
01000
10000
10000
,
00002
00000
00000
00000
00103
00000
00000
00010
01000
00000
01000
00000
01010
00000
00000
00000
,
00200
00000
00300
00000
;

//---------------pump-single - ----------------
#NOTES:
     pump-single:
     :
     Medium:
     57:
     0.444,0.468,0.153,0.479,0.010,258.000,16.000,50.000,0.000,0.000:
00000
00000
00000
00000
,
00000
00000
00000
00000
,
00000
00000
00000
00000
,
00000
00000
00000
00000
,
00200
00000
00310
02000
00000
03001
10000
00010
,
00200
00000
00301
02000
00000
03100
10000
01000
,
20000
00200
00000
00000
00000
30300
00000
11000
,
00000
11000
00000
00011
00000
00022
00000
00033
,
02000
00000
03010
00002
00000
00013
01000
00100
,
20000
00000
30010
02000
00000
03100
10000
00001
,
00200
00020
00000
00000
00000
00330
00000
10100
,
00000
10100
00000
00101
00000
00101
00000
00000
,
10000
00000
00100
00000
01000
00010
01000
00000
,
00001
00000
01000
00000
00010
00100
00010
00000
,
10000
10000
00100
00000
01000
01000
00010
00000
,
00100
00100
00001
00001
00200
00000
00301
00000
,
01000
00000
00010
00000
01000
01000
00001
00100
,
00010
00000
10000
00000
00100
00100
02000
00000
,
03010
00100
00010
00000
10000
01000
10000
00000
,
00001
00100
00010
00100
00002
00000
01003
00000
,
00020
00000
20030
00000
30100
01000
00100
00000
,
02000
00000
03002
00000
10003
00100
10000
00000
,
00010
00010
00010
00000
00100
00100
00100
00000
,
00001
00001
20000
00000
30100
00100
02000
00000
,
03020
00000
00000
00000
20030
00000
00000
30100
,
01000
00001
01000
00001
,
01000
00020
00000
00000
20030
00000
00000
30100
,
00100
01000
00010
01000
,
00002
00000
00000
00000
00203
00000
00000
00301
,
10000
00010
01000
00001
,
01000
00200
00000
00000
20300
00000
00000
30010
,
00100
00000
00000
00000
00100
00000
00000
00010
00100
00000
00001
00000
10000
00000
00000
00000
,
00200
00000
01300
00020
00000
10030
00001
01000
,
00200
00000
10300
00020
00000
00130
00001
00010
,
00002
00200
00000
00000
00000
00303
00000
00011
,
00000
00011
00000
11000
00000
22000
00000
33000
,
00020
00000
01030
20000
00000
31000
00010
00100
,
00002
00000
01003
00020
00000
00130
00001
10000
,
00200
02000
00000
00000
00000
03300
00000
00101
,
00000
00101
00000
10100
00000
10100
00000
00000
,
00002
00000
00000
00000
00000
00000
00000
00000
00003
20000
00000
00000
00000
00000
30000
00000
,
00100
01000
00010
01000
,
00100
00000
10000
00000
00001
00100
00001
00000
,
01000
00100
10000
00010
,
00100
00000
00001
00000
01000
00100
01000
00000
,
00010
00100
00001
01000
,
00001
00000
10000
00000
00010
01000
00100
00000
,
10000
01000
10000
00001
,
00100
00010
02000
03002
,
00103
00010
01000
00000
01000
00010
00100
00000
,
00001
10000
00100
00000
00100
10000
00001
00000
,
01000
00010
10000
00000
10000
00010
01000
00000
,
00100
10000
00001
00000
00001
10000
00100
00000
,
10000
01000
00100
00000
00100
01000
10000
00000
,
00001
00010
00100
00000
00100
00010
00001
00000
,
01000
00100
00010
00000
00010
00100
01000
00000
,
00001
10000
00100
00000
01000
00001
10000
00010
,
00200
00000
00300
00000
;

//---------------pump-single - ----------------
#NOTES:
     pump-single:
     :
     Easy:
     34:
     0.251,0.275,0.000,0.038,0.000,179.000,0.000,4.000,0.000,0.000:
00000
00000
00000
00000
,
00000
00000
00000
00000
,
00000
00000
00000
00000
,
00000
00000
00000
00000
,
00001
00100
00010
01000
,
00100
10000
00001
00100
,
00001
00000
10000
00000
,
00010
01000
00010
01000
,
00100
10000
00001
01000
,
00100
00010
00100
01000
,
00001
00000
10000
00000
,
00010
00100
00010
00100
,
00010
00000
00000
00000
,
00010
00000
00000
00000
,
00010
00000
00010
00000
,
00010
00010
00010
00010
,
10000
00001
01000
00001
,
00100
00010
10000
00010
,
01000
00100
00010
00001
,
00010
00100
01000
01000
,
00100
10000
00010
00100
,
00010
00001
00010
00100
,
00001
01000
00100
00010
,
00001
00001
00010
00100
,
02000
00000
00010
00010
,
03010
00000
10000
00000
,
00002
01000
01000
01003
,
01000
00010
10000
00010
,
00100
00000
01000
00000
,
00001
00000
10000
00000
,
00010
01000
00100
10000
,
00010
00010
00010
00010
,
10000
00001
01000
00100
,
10000
00100
01000
00010
,
00100
00000
00001
00000
,
10000
01000
10000
01000
,
10000
00100
10000
00001
,
00100
00010
01000
00001
,
00100
00001
10000
00001
,
00100
00100
00100
00100
,
00020
00000
00030
00000
,
00100
00100
00100
00000
,
00001
00001
00001
00000
,
10000
10000
10000
00000
,
00010
00010
00010
00000
,
01000
01000
01000
00000
,
00100
00100
00100
00000
,
10000
10000
10000
00000
,
00001
00001
00001
00000
,
01000
00010
01000
00010
,
10000
00100
10000
00100
,
01000
00001
01000
00001
,
00100
00010
00100
00010
,
10000
00001
10000
00001
,
01000
00010
01000
00010
,
10000
00000
00001
00000
,
10000
00100
01000
00100
,
20000
00000
30000
00000
;

//---------------pump-single - Copied from----------------
#NOTES:
     pump-single:
     Copied from:
     Beginner:
     20:
     0.140,0.193,0.000,0.029,0.000,99.000,0.000,3.000,0.000,0.000:
00000
00000
00000
00000
,
00000
00000
00000
00000
,
00000
00000
00000
00000
,
00000
00000
00000
00000
,
01000
00100
10000
00000
,
00010
00000
00010
00000
,
01000
00100
10000
00000
,
00010
00000
00010
00000
,
01000
00001
00100
00000
,
00010
00000
00010
00000
,
01000
00001
00100
00000
,
00010
00000
00010
00000
,
10000
00000
00000
00000
,
00100
00000
00000
00000
,
10000
00000
00000
00000
,
00002
00000
00000
00000
,
01003
00000
00100
00000
,
01000
00000
00100
00000
,
10000
00000
00100
00000
,
10000
00000
00100
00000
,
01000
00000
00100
00000
,
01000
00000
00100
00000
,
10000
00000
00100
00000
,
10000
00100
10000
00100
,
01000
00000
00000
00000
,
00010
00000
00010
00000
,
00100
00000
00000
00000
,
00001
00000
00001
00000
,
10000
00000
00000
00000
,
00001
00000
00001
00000
,
01000
00000
00000
00000
,
00010
00000
00010
00000
,
00100
00000
00001
00000
,
10000
00000
00100
00000
,
01000
00000
00010
00000
,
10000
00000
00010
00000
,
01000
00000
00001
00000
,
00100
00000
00010
00000
,
00100
00000
00001
00000
,
01000
00000
00010
00000
,
20000
00000
30000
00000
,
00100
00001
10000
00001
,
00000
00000
00000
00000
,
00001
10000
00001
00000
,
00000
00000
00000
00000
,
00001
10000
00001
00000
,
00000
00000
00000
00000
,
00001
10000
00001
00000
,
00000
00000
00000
00000
,
01000
00010
01000
00000
,
00000
00000
00000
00000
,
01000
00010
01000
00000
,
00000
00000
00000
00000
,
01000
00010
01000
00000
,
00000
00000
00000
00000
,
01000
00010
01000
00000
,
00100
00000
00100
00000
,
00200
00000
00300
00000
;
