#TITLE:1981;
#SUBTITLE:;
#ARTIST:DJ Potatoe feat. Freda;
#TITLETRANSLIT:;
#SUBTITLETRANSLIT:;
#ARTISTTRANSLIT:;
#CREDIT:;
#BANNER:1981-banner.png;
#SONGINFO:1981-songinfo.png;
#BACKGROUND:1981-bg.png;
#LYRICSPATH:;
#CDTITLE:./CDTITLES/DPSC.png;
#CHARACTER:./SongCharacters/djpotatoe;
#MUSIC:1981.ogg;
#OFFSET:-0.460;
#SAMPLESTART:28.260;
#SAMPLELENGTH:12.000;
#SELECTABLE:YES;
#BPMS:0.000=155.020;
#STOPS:;
#BGCHANGES:-2.000=visffd320.avi=1.000=1=1=0
;
#REMIX:1981 remix;
// cache tags:
#FIRSTBEAT:0.000;
#LASTBEAT:271.000;
#SONGFILENAME:Songs/Neon FM/1981/1981.sm;
#HASMUSIC:1;
#HASBANNER:1;
#MUSICLENGTH:109.160;
// end cache tags

//---------------pump-single - ----------------
#NOTES:
     pump-single:
     :
     Hard:
     78:
     0.592,0.528,0.266,0.247,0.124,396.000,29.000,27.000,0.000,0.000:
00000
00000
00000
00000
,
00000
00000
00000
00000
,
00010
00000
00000
00000
10000
00000
00000
01000
00001
00000
10000
00000
00100
00000
00000
00000
,
01000
00000
00000
00000
00001
00000
00000
00010
10000
00000
00001
00000
00100
00000
00000
00000
,
00010
00000
00000
00000
01000
00000
00000
00100
00001
00000
10000
00000
00100
00000
00000
00000
,
01000
00000
00000
00000
00010
00000
00000
00100
10000
00000
00001
00000
10000
00000
00001
00000
,
00010
00000
00000
00000
10000
00000
00000
01000
00001
00000
10000
00000
00100
00000
00000
00000
,
01000
00000
00000
00000
00001
00000
00000
00010
10000
00000
00001
00000
00100
00000
00000
00000
,
00010
00000
00000
00000
01000
00000
00000
00100
00001
00000
10000
00000
00100
00000
00000
00000
,
01000
00000
00000
00000
00010
00000
00000
00100
10000
00000
00001
00000
10000
00000
00001
00000
,
01000
00010
00100
00000
00100
10000
00001
00000
,
00001
01000
00010
00000
10000
00010
01000
00000
,
00010
00000
00001
00000
10000
00000
01000
00000
10000
00000
00010
00100
00000
00000
00000
00000
,
01000
01000
00010
00000
00010
00010
01000
00000
,
00100
01000
00001
00000
00100
00010
10000
00000
,
01000
10000
00010
00000
00010
10000
01000
00000
,
00010
00000
01000
00000
00001
00000
10000
00000
00010
00000
01000
00100
00000
00000
00000
00000
,
00001
00000
00100
00000
00010
00000
01000
00000
00100
00000
10000
00001
00000
00000
00000
00000
,
10100
00000
00101
00000
00010
01000
00010
00000
,
00200
00000
00301
02000
00000
03010
00100
00000
,
01010
00000
00100
00010
10000
10000
10000
00000
,
00002
00000
10003
00020
00000
00130
00001
00000
,
00101
00000
10100
00000
01000
00010
01000
00000
,
00200
00000
10300
00020
00000
01030
00100
00000
,
01010
00000
00100
01000
00001
00001
00001
00000
,
20000
00000
30001
02000
00000
03100
10000
10000
,
00001
00000
00001
00000
10000
00000
10000
00000
00010
00000
00000
00010
00000
00000
00010
00000
,
10000
00000
10000
00000
00001
00000
00001
00000
01000
00000
00000
01000
00000
00000
01000
00000
,
00100
00000
00100
00000
10000
00000
00001
00000
01000
00000
00000
00010
00000
00000
01000
00000
,
00100
00000
00100
00000
01000
00000
00010
00000
10000
00000
00000
00001
00000
00000
10000
00000
,
00001
00000
00001
00000
10000
00000
10000
00000
00010
00000
00000
00010
00000
00000
00010
00000
,
10000
00000
10000
00000
00001
00000
00001
00000
01000
00000
00000
01000
00000
00000
01000
00000
,
00100
00000
00100
00000
10000
00000
00001
00000
01000
00000
00000
00010
00000
00000
01000
00000
,
00100
00000
00100
00000
01000
00000
00010
00000
10000
00000
00000
00001
00000
00000
10000
00000
,
00001
00000
00100
00000
00010
00000
01000
00000
00100
00000
00000
00100
00000
00000
00100
00000
,
10000
00000
01000
00000
10000
00000
00001
00000
00010
00000
00000
00010
00000
00000
00010
00000
,
00001
00000
00100
00000
00010
00000
01000
00000
00100
00000
00000
00100
00000
00000
00100
00000
,
10000
00000
00100
00000
01000
00000
00001
00000
10000
00000
00000
10000
00000
00000
10000
00000
,
00010
00000
00100
00000
00010
00000
01000
00000
00001
00000
00000
00001
00000
00000
00001
00000
,
00100
00000
00010
00000
01000
00000
00100
00000
01000
00000
00000
01000
00000
00000
01000
00000
,
00010
00000
00100
00000
00010
00000
10000
00000
00100
00000
00000
00100
00000
00000
00100
00000
,
10000
00001
10000
00000
01001
00000
10010
00000
,
00010
00100
00010
00000
10000
00100
10000
00000
,
01000
00100
01000
00000
00001
00100
00001
00000
,
00100
10000
00010
00000
00100
00001
01000
00000
,
00010
10000
00010
00000
01000
00001
01000
00000
,
10000
00010
01000
00001
01000
00010
01010
00000
,
00010
10000
00100
01000
00100
10000
10001
00000
,
00100
00010
01000
00100
01000
00001
10001
00000
,
00001
00100
00010
01000
00200
00000
10300
00000
,
10100
00000
00101
00000
00010
01000
00010
00000
,
00200
00000
00301
02000
00000
03010
00100
00000
,
01010
00000
00100
00010
10000
10000
10000
00000
,
00002
00000
10003
00020
00000
00130
00001
00000
,
00101
00000
10100
00000
01000
00010
01000
00000
,
00200
00000
10300
00020
00000
01030
00100
00000
,
01010
00000
00100
01000
00001
00001
00001
00000
,
20000
00000
30001
02000
00000
03100
10000
10000
,
10001
00000
02010
00010
00010
03010
00000
00000
,
00200
00000
10300
00020
00000
10030
00100
00000
,
00110
00000
01100
00000
00100
00001
00000
00000
,
00002
00000
01003
00200
00000
10300
00010
00000
,
10100
00000
00101
00000
00100
10000
00001
00000
,
20000
00000
30001
02000
00000
03010
00100
00000
,
10010
00000
01001
00000
00100
10000
00010
00000
,
02000
00000
03001
00002
00000
00103
00001
00000
,
00110
00101
00110
00102
,
01000
00000
00000
01000
00000
00000
01000
00000
00000
00000
10003
00000
00100
00000
00000
00000
;

//---------------pump-single - ----------------
#NOTES:
     pump-single:
     :
     Medium:
     55:
     0.378,0.372,0.009,0.128,0.041,274.000,1.000,14.000,0.000,0.000:
00000
00000
00000
00000
,
00000
00000
00000
00000
,
00100
00000
01000
00000
00001
00100
00001
00000
,
00100
00000
00010
00000
10000
00100
10000
00000
,
01000
00000
00010
00000
00001
10000
00001
00000
,
01000
00000
00010
00000
10000
00001
10000
00000
,
00100
00000
00100
00000
00010
10000
00010
00000
,
00100
00000
00100
00000
01000
00001
01000
00000
,
10000
00000
00001
00000
01000
00010
01000
00000
,
00001
00000
10000
00000
00010
01000
00010
00000
,
00100
10000
00010
01000
,
00100
10000
00001
10000
,
00010
00100
00001
01000
,
00010
00100
00100
01010
,
00001
00100
00100
10000
,
00010
01000
00001
00100
,
00001
10000
00100
01000
,
00010
10000
00002
00000
,
01003
00000
01000
00000
01000
01000
01000
00000
,
00001
01000
00001
01000
,
00001
00000
00001
00000
00001
00001
00001
00000
,
01000
00010
01000
00010
,
10000
00000
10000
00000
10000
10000
10000
00000
,
00100
00010
00100
00001
,
00100
00000
00100
00000
00100
00100
00100
00000
,
00010
00000
01000
00000
00010
00100
01000
00100
,
00020
00000
00000
00000
,
20030
00000
00000
00000
,
30002
00000
00203
00000
,
00320
00000
00000
01000
,
02030
00000
00000
00000
,
03020
00000
00000
00000
,
20030
00000
30002
00000
,
00203
00000
00000
00000
00000
00000
00010
00310
,
01000
00000
00000
00000
00010
00000
00000
00000
01000
00000
00000
01000
00000
00000
01000
00000
,
00001
00000
00000
00000
10000
00000
00000
00000
00001
00000
00000
00001
00000
00000
00001
00000
,
00100
00000
00000
00000
00010
00000
00000
00000
00100
00000
00000
00100
00000
00000
00100
00000
,
00010
00000
00000
00000
01000
00000
00000
00000
00010
00000
00000
00010
00000
00000
00010
00000
,
01000
00000
00000
00000
00010
00000
00000
00000
01000
00000
00000
01000
00000
00000
01000
00000
,
00001
00000
00000
00000
10000
00000
00000
00000
00001
00000
00000
00001
00000
00000
00001
00000
,
00100
00000
00000
00000
00010
00000
00000
00000
00100
00000
00000
00100
00000
00000
00100
00000
,
00010
00000
00000
00000
01000
00000
00000
00000
00010
00000
00000
00010
00000
00000
00010
00000
,
00100
00100
00010
00001
,
10000
01000
00100
10000
,
00010
00010
01000
01000
,
00001
00100
00001
00010
,
10000
01000
10000
00100
,
00010
01000
00010
10000
,
00100
00010
10000
00001
,
10000
10000
00002
00000
,
01003
00000
01000
00000
01000
01000
01000
00000
,
00001
01000
00001
01000
,
00001
00000
00001
00000
00001
00001
00001
00000
,
01000
00010
01000
00010
,
10000
00000
10000
00000
10000
10000
10000
00000
,
00100
00010
00100
00001
,
00100
00000
00100
00000
00100
00100
00100
00000
,
00010
00000
01000
00000
00010
00100
01000
00100
,
00020
00030
00000
00000
00000
00000
00000
00000
00000
00000
00000
00000
00000
00000
00000
00000
00000
00000
00000
00000
00000
00000
00000
00000
00000
00000
00000
00000
00000
00000
00000
00000
00000
00000
00000
00000
00000
00000
00000
00000
00000
00000
00000
00000
00000
00000
00000
00000
00010
00000
00000
00000
00000
00000
00000
00000
00000
00000
00000
00000
00000
00000
00000
00000
00000
00000
00000
00000
00000
00000
00000
00000
00000
00000
00000
00000
00000
00000
00000
00000
00000
00000
00000
00000
00000
00000
00000
00000
00000
00000
00000
00000
00000
00000
00000
00000
00010
00000
00000
00000
00000
00000
00000
00000
00000
00000
00000
00000
00000
00000
00000
00000
00000
00000
00000
00000
00000
00000
00000
00000
00010
00000
00000
00000
00000
00000
00000
00000
00000
00000
00000
00000
00000
00000
00000
00000
00000
00000
00000
00000
00000
00000
00000
00000
00010
00000
00000
00000
00000
00000
00000
00000
00000
00000
00000
00000
00000
00000
00000
00000
00000
00000
00000
00000
00000
00000
00000
00000
00000
00000
00000
00000
00000
00000
00000
00000
00000
00000
00000
00000
00000
00000
00000
00000
00000
00000
00000
00000
00000
00000
00000
00000
,
10000
01000
10000
01000
,
00100
00000
00100
00000
00100
00100
00100
00000
,
00001
00010
00001
00010
,
01000
00000
01000
00000
01000
01000
01000
00000
,
00100
10000
00100
10000
,
00010
00000
00010
00000
00010
00010
00010
00000
,
10000
00000
00001
00100
00000
00100
00001
02000
,
00000
00000
00000
00000
,
03010
00000
00000
00010
00000
00000
00010
00000
00000
00000
10000
00000
00001
00000
00000
00000
;

//---------------pump-single - ----------------
#NOTES:
     pump-single:
     :
     Easy:
     32:
     0.262,0.310,0.092,0.119,0.000,177.000,10.000,13.000,0.000,0.000:
00000
00000
00000
00000
,
00000
00000
00000
00000
,
10000
00001
10000
00001
,
01000
00010
01000
00010
,
10000
00001
10000
00001
,
01000
00000
00010
00000
01000
00010
01000
00000
,
10000
00010
10000
00010
,
01000
00001
01000
00001
,
10000
00001
01000
00010
,
00100
00100
00100
00100
,
10000
00000
00100
00000
,
00001
00000
00100
00000
,
01000
00000
00100
00000
,
00010
00000
00100
00000
,
10000
00000
00010
00000
,
01000
00000
00001
00000
,
00100
00000
00100
00000
,
10000
00001
20000
00000
,
30010
00100
00001
00100
,
00200
00000
00000
00000
,
01300
00100
10000
00100
,
00100
00010
01000
00010
,
10000
10000
00001
00001
,
00010
01000
00010
01000
,
00001
10000
00010
00100
,
01000
00100
00010
10000
,
00010
00000
00000
00000
,
01000
00000
00000
00000
,
10000
00000
00001
00000
,
10000
00000
00000
00000
,
00100
00000
00000
00000
,
10000
00000
00000
00000
,
00100
00000
00001
00000
,
00100
00000
00000
00000
,
01000
00000
11000
00000
,
00010
00000
00011
00000
,
00100
00000
00101
00000
,
00100
00000
10100
00000
,
01000
00000
01001
00000
,
00010
00000
10010
00000
,
00100
00000
01100
00000
,
00100
00000
00110
00000
,
00010
00000
01000
00000
,
10000
00000
00100
00000
,
00010
00000
00001
00000
,
01000
00000
10000
00000
,
00100
00000
00010
00000
,
01000
00000
00001
00000
,
00100
00000
00010
00000
,
10000
00001
20002
30003
,
00100
00010
01000
00100
,
20000
00100
00000
00000
,
30001
00010
00001
01000
,
00020
00100
00000
00000
,
00130
00001
10000
00100
,
02000
00100
00000
00000
,
03001
01000
00001
00100
,
00020
00100
00000
00000
,
01030
00010
10000
00001
,
20000
00010
00000
00000
,
30010
00100
00001
01000
,
00200
10000
00000
00000
,
10300
00100
00010
00100
,
02000
00010
00000
00000
,
03010
00100
00001
00100
,
00002
00100
00000
00000
,
10003
00001
10000
00001
,
00120
00000
00000
00000
00030
00100
00010
00000
;

//---------------pump-single - Copied from----------------
#NOTES:
     pump-single:
     Copied from:
     Beginner:
     12:
     0.103,0.124,0.000,0.000,0.000,79.000,0.000,0.000,0.000,0.000:
00000
00000
00000
00000
,
00000
00000
00000
00000
,
00001
00000
00000
00000
,
10000
00000
00000
00000
,
00001
00000
00000
00000
,
10000
00000
00000
00010
,
01000
00000
00000
00000
,
00001
00000
00000
00000
,
10000
00000
00000
00000
,
00010
00000
00000
00000
,
00100
00000
00000
00000
,
00100
00000
00000
00000
,
10000
00000
00000
00000
,
10000
00000
00000
00000
,
00001
00000
00000
00000
,
00001
00000
00000
00000
,
01000
00000
00000
00000
,
01000
00000
00000
00000
,
00010
01000
00010
00000
,
00000
00000
00000
00000
,
01000
00010
01000
00000
,
00000
00000
00000
00000
,
00001
10000
00001
00000
,
00000
00000
00000
00000
,
10000
00001
10000
00000
,
00000
00000
00000
00000
,
00100
00000
00000
00000
,
01000
00000
00000
00000
,
00100
00000
00000
00000
,
01000
00000
00000
00000
,
00010
00000
00000
00000
,
00100
00000
00000
00000
,
00010
00000
00000
00000
,
00100
00000
00000
00000
,
00100
00000
00000
00000
,
00001
00000
00000
00000
,
00100
00000
00000
00000
,
00001
00000
00000
00000
,
10000
00000
00000
00000
,
00100
00000
00000
00000
,
10000
00000
00000
00000
,
00100
00000
00000
00000
,
01000
00000
00000
00000
,
00010
00000
00000
00000
,
10000
00000
00000
00000
,
00001
00000
00000
00000
,
10000
00000
00000
00000
,
00001
00000
00000
00000
,
01000
00000
00000
00000
,
00010
00000
00000
00000
,
01000
00100
01000
00000
,
00000
00000
00000
00000
,
00010
00100
00010
00000
,
00000
00000
00000
00000
,
10000
00100
10000
00000
,
00000
00000
00000
00000
,
00001
00100
00001
00000
,
00000
00000
00000
00000
,
01000
00001
01000
00000
,
00000
00000
00000
00000
,
00001
01000
00001
00000
,
00000
00000
00000
00000
,
00010
10000
00010
00000
,
00000
00000
00000
00000
,
10000
00010
10000
00000
,
00000
00000
00000
00000
,
00100
00000
00000
00000
,
00000
00000
00000
00100
;

//---------------pump-single - ----------------
#NOTES:
     pump-single:
     :
     Edit:
     1:
     0.030,0.034,0.000,0.046,0.023,18.000,0.000,5.000,0.000,0.000:
20000
00000
00000
00000
,
30000
02000
00000
00000
,
00000
03000
00200
00000
,
00000
00000
00300
00020
,
00000
00000
00000
00030
,
00002
00000
00000
00000
,
10003
00000
00000
00000
00000
00000
10000
00000
00000
10000
00000
00000
00000
00000
00000
00000
,
01000
00000
00000
00000
00000
00000
01000
00000
00000
01000
00000
00000
01000
00000
00000
01000
,
01000
01000
01000
01000
01000
00000
00000
00000
00000
00000
00000
00000
00000
00000
00000
00000
;

//---------------pump-double - ----------------
#NOTES:
     pump-double:
     :
     Hard:
     81:
     0.649,0.559,0.238,0.330,0.073,434.000,26.000,36.000,0.000,0.000:
0000000000
0000000000
0000000000
0000000000
,
0000000000
0000000000
0000000000
0000000000
,
0000010000
0001000000
0000100000
0000000000
0001000000
0000010000
0000100000
0000000000
,
0001000000
0000100000
0000010000
0000000000
0000201000
0000000000
0000010000
0000000000
,
0000300100
0000001000
0000000010
0000000000
0000000100
0000001000
0000100000
0000000000
,
0000010000
0010000000
0000100000
0000000000
0002010000
0000000000
0010000000
0000000000
,
0003010000
0000100000
0000000100
0000000000
0000010000
0000001000
0000010000
0000000000
,
0000000001
0000000010
0000000001
0000000100
0000001000
0000100000
0000010000
0000000000
,
0010000000
0001000000
0100000000
0010000000
1000000000
0001000000
0100000000
0000100000
,
0011000000
0010100000
0010010000
0010001000
,
0000010000
0001000000
0000001000
0000100000
0000000100
0000010000
0000000010
0000001000
,
0000000001
0000000100
0000000010
0000000001
0000000010
0000000100
0000000101
0000000000
,
0000000001
0000001000
0000000010
0000010000
0000000100
0000100000
0000001000
0001000000
,
0000010000
0010000000
0000100000
0100000000
0001000000
1000000000
1010000000
0000000000
,
1000000000
0010000000
0100000000
0001000000
0010000000
0000100000
0001000000
0000010000
,
0000100000
0000001000
0000010000
0000000100
0000001000
0000000010
0000000100
0000000001
,
0000000010
0000000001
0000000100
0000000010
0000001000
0000000100
0000010000
0000001000
,
0000100000
0000010000
0001000000
0000100000
0010000000
0001000000
0100000000
0010000000
,
1001000000
0100100000
0010000000
0000010000
,
0020000100
0000000000
0030010000
0002000000
0000000000
0003001000
0000200000
0000000000
,
0000301000
0000010000
0000100000
0000010000
,
0010000200
0000000000
0000100300
0000002000
0000000000
0001003000
0000020000
0000000000
,
0010030000
0001000000
0100000000
0010000000
0001000000
0000010000
0000100000
0000000000
,
0000201000
0000000000
0000310000
0020000000
0000000000
0031000000
0000200000
0000000000
,
0000310000
0001000000
0000010000
0001000000
0000001000
0000100000
0000001000
0000100000
,
0000100100
0000000000
0000002010
0000000000
0000000100
0000000000
0000003001
0000000100
,
0000000010
0000000000
0000001000
0000000000
0000000100
0000000000
0000010000
0000000000
0000020000
0000000000
0000000000
0000000010
0000000000
0000000000
0000031000
0000000000
,
0000100000
0000000000
0000010000
0000000000
0001000000
0000000000
0010000000
0000000000
0200000000
0000000000
0000000000
1000000000
0000000000
0000000000
0301000000
0000000000
,
0010000000
0000000000
0000100000
0000000000
0001000000
0000000000
0000000100
0000000000
0000002000
0000000000
0000000000
0000010000
0000000000
0000000000
0000003010
0000000000
,
0000000100
0000000000
0000000001
0000000000
0000010000
0000000000
0000000100
0000000000
0000200000
0000000000
0000000000
0001000000
0000000000
0000000000
0000310000
0000000000
,
0001000000
0000000000
0010000000
0000000000
1000000000
0000000000
0100000000
0000000000
0020000000
0000000000
0000000000
0001000000
0000000000
0000000000
0030100000
0000000000
,
0001000000
0000000000
0010000000
0000000000
0001000000
0000000000
0000010000
0000000000
0000200000
0000000000
0000000000
0000001000
0000000000
0000000000
0000310000
0000000000
,
0001000000
0000000000
0000100000
0000000000
0010000000
0000000000
0001000000
0000000000
2000000000
0000000000
0000000000
0001000000
0000000000
0000000000
3100000000
0000000000
,
0010000000
0000000000
0001000000
0000000000
0100000000
0000000000
0000010000
0000000000
0002000000
0000000000
0000000000
0000100000
0000000000
0000000000
0003001000
0000000000
,
0000100000
0000010000
0001000000
0000000000
0010000000
1000000000
0001000000
0000000000
,
0000100000
0000001000
0000010000
0000000000
0000000001
0000000010
0000000100
0000001000
,
0000010000
0000100000
0000001000
0000000000
0000100000
0000010000
0001000000
0000000000
,
0000001000
0001000000
0000100000
0000000000
0010000000
0001000000
0000100000
0000000000
,
0000010000
0000001000
0000000100
0000000000
0000000010
0000000100
0000010000
0000000000
,
0000001000
0000000100
0000000010
0000010000
0000001000
0000100000
0000010000
0001000000
,
0010200000
0000001000
0002300000
0010000000
,
0003002000
0000000100
0000203000
0001000000
,
0000310000
0000000000
0010000000
0000000000
0001000000
0010000000
0000000000
0000000000
1000000000
0000000000
0010000000
0000000000
0100000000
0001000000
0000000000
0000000000
,
0010000000
0000000000
0000100000
0000000000
0001000000
0000010000
0000000000
0000000000
0000100000
0000000000
0000001000
0000000000
0000010000
0000000100
0000000000
0000000000
,
0000001000
0000000000
0000000010
0000000000
0000000100
0000000001
0000000000
0000000000
0000000010
0000000000
0000000001
0000000000
0000000100
0000000010
0000000000
0000000000
,
0000001000
0000000000
0000000100
0000000000
0000010000
0000001000
0000000000
0000000000
0000100000
0000000000
0000010000
0000000000
0001000000
0000100000
0000000000
0000000000
,
0102000000
0000000000
0003200000
0000000000
0000310000
0001000000
0000100000
0001000000
,
0000020000
0000000000
0000032000
0000000000
0000003100
0000100000
0000010000
0010000000
,
0002000000
0000000000
0100000000
0000000000
0013000000
0000100000
0001000000
0000010000
,
0010100000
0000001000
0000101000
0000010010
,
0000001000
0000000100
0000010000
0000000000
0001000000
0010000000
0000100000
0000000000
,
0001000000
0000001000
0000100000
0001000000
0000100000
0000001000
0001000000
0000000000
,
0000001000
0000001000
0000100000
0000100000
0000010000
0000010000
0001000000
0001000000
,
0000001000
0001000000
0000010000
0000001000
0000010000
0001000000
0000001000
0000000000
,
0001000000
0000100000
0010000000
0001000000
0100000000
0010000000
1000000000
0000000000
,
0000100000
1000000000
0001000000
0000100000
0001000000
1000000000
0000100000
0000000000
,
1000000000
0000100000
0010000000
0000010000
0000100000
0000000100
0000010000
0000000001
,
0000010000
0000000001
0000000010
0000010000
0000000010
0000000001
0000010000
0000000000
,
0000000010
0000000001
0000000100
0000001000
0000010000
0000000100
0000000010
0000000001
,
0000020000
0000000000
0000030100
0000200000
0000000000
0000310000
0010000000
0000100000
,
1000100000
1000000000
0001000000
0100000000
0000100000
0001000000
0000001000
0000100000
,
0000020000
0000000000
0001030000
0020000000
0000000000
0031000000
0000002000
0000000000
,
0000013000
0000000010
0000001000
0000010000
0000001000
0000010000
0000001000
0000000100
,
0000020000
0000000000
0001030000
0020000000
0000000000
0031000000
0100000000
0010000000
,
1000000000
0010000000
1000000000
0010000000
0001000000
0010000000
0001000000
0010000000
,
0100000000
0000100000
0100000000
0000100000
0010000000
0001000000
0000100000
0000010000
,
0000101000
0000010100
0000001010
0000010100
,
0001000000
0000001000
0000100000
0001000000
0000100000
0000001000
0001010000
0000000000
;

//---------------pump-double - ----------------
#NOTES:
     pump-double:
     :
     Medium:
     62:
     0.472,0.497,0.559,0.082,0.032,291.000,61.000,9.000,0.000,0.000:
0000000000
0000000000
0000000000
0000000000
,
0000000000
0000000000
0000000000
0000000000
,
0000110000
0000010000
0000110000
0000100000
,
0001000000
0010000000
0000100000
0000000000
0001000000
0000000000
0010100000
0000000000
,
0100000000
0001000000
0000100000
0000010000
,
0001000000
0000010000
0001000000
0000000000
0000010000
0000000000
0000110000
0000000000
,
0000001000
0000010000
0000000100
0000000000
0000001000
0000000000
0000000001
0000000000
,
0000000100
0000000010
0000010000
0000000000
0000001000
0000000000
0000010100
0000000000
,
0000001000
0000100000
0000010000
0001000000
,
0010000000
0000000000
1000000000
0000000000
0100000000
0010000000
0000100000
0000000000
,
1000000000
0010000000
0100000000
0001000000
,
0010000000
0000010000
0001000000
0000001000
,
0000010000
0000000100
0000001000
0000000010
,
0000000100
0000000000
0000000001
0000000020
0000000000
0000000130
0000010000
0000000000
,
0000101000
0000010000
0001000000
0000100000
,
0010000000
0001000000
0100000000
0010000000
,
0000100000
0001000000
0100000000
0010000000
,
0000010000
0000100000
0000001000
0000010000
,
0000010100
0000010100
0000010100
0000010100
,
0000001000
0001000000
0000010000
0000100000
,
0010100000
0010100000
0010100000
0010100000
,
0001000000
0000001000
0000100000
0000010000
,
0000101000
0000101000
0000101000
0000101000
,
0000001000
0001000000
0000010000
0000100000
,
0001010000
0001010000
0001010000
0001010000
,
0000100000
0000000000
0010000000
0000000000
0001000000
0100000000
0010000000
1000000000
,
0000100000
0000000000
0000000000
0000000000
0000100000
0000000000
0000000000
0000000000
0001000000
0000000000
0000000000
0000010000
0000000000
0000000000
0001000000
0000000000
,
0000001000
0000000000
0000000000
0000000000
0000010000
0000000000
0000000000
0000000000
0000000100
0000000000
0000000000
0000001000
0000000000
0000000000
0000010000
0000000000
,
0000100000
0000000000
0000000000
0000000000
0010100000
0000000000
0000000000
0000000000
1000000000
0000000000
0000000000
0001000000
0000000000
0000000000
0100000000
0000000000
,
0100000000
0000000000
0000000000
0000000000
0001000000
0000000000
0000000000
0000000000
0010000000
0000000000
0000000000
0000010000
0000000000
0000000000
0000100000
0000000000
,
0000001000
0000000000
0000000000
0000000000
0000010000
0000000000
0000000000
0000000000
0000000010
0000000000
0000000000
0000000100
0000000000
0000000000
0000000001
0000000000
,
0000010000
0000000000
0000000000
0000000000
0000001000
0000000000
0000000000
0000000000
0000000100
0000000000
0000000000
0000100000
0000000000
0000000000
0000010000
0000000000
,
0010000000
0000000000
0000000000
0000000000
0000100000
0000000000
0000000000
0000000000
0001000000
0000000000
0000000000
0010000000
0000000000
0000000000
0100000000
0000000000
,
0000100000
0010100000
0000110000
0000010100
,
0000000101
0000000000
0000000010
0000000000
0000001000
0000000100
0000010000
0000000000
,
0000010100
0000000000
0000100000
0000000000
0000001000
0001000000
0000100000
0000000000
,
0010100000
0000000000
0001000000
0000000000
0100000000
0010000000
1000000000
0000000000
,
1010000000
0000000000
0000100000
0000000000
0001000000
0100000000
0010000000
0000000000
,
0110000000
0000000000
0110000000
0000000000
0001000000
0010000000
0001000000
0000000000
,
0011000000
0000000000
0011000000
0000000000
0100000000
0010000000
0100000000
0000000000
,
0100100000
0000000000
0010010000
0000000000
0001000000
0000010000
0001000000
0000000000
,
0001001000
0000000000
0000100100
0000000000
0000010000
0000001000
0000010000
0000000000
,
0000000100
0000010000
0000001000
0001000000
,
0000100000
0010000000
0001000000
0100000000
,
0010000000
1000000000
0100000000
0010000000
,
0001000000
0000100000
0000010000
0000001000
,
0000000100
0000000010
0000000001
0000010000
,
0000000100
0000001000
0000000010
0000000100
,
0000001000
0000100000
0000010000
0001000000
,
0010000000
0000000000
1000000000
0000000000
0001000000
0100000000
0010000000
0000000000
,
0100100000
0100100000
0100100000
0100100000
,
0010000000
0000010000
0000100000
0000000100
,
0000010010
0000010010
0000010010
0000010010
,
0000000100
0000100000
0000010000
0010000000
,
1001000000
1001000000
1001000000
1001000000
,
0010000000
0000010000
0000100000
0000000100
,
0000001001
0000001001
0000001001
0000001001
,
0000000100
0000100000
0000010000
0010000000
,
0000100000
0100000000
0010000000
0000000000
0001000000
0000000000
0000100000
0000000000
,
0002000000
0000000000
0003001000
0000020000
0000000000
0000030100
0000000000
0000000000
,
0000000010
0000010000
0000000100
0000000000
0000100000
0000000000
0000010000
0000000000
,
0002000000
0000000000
0003100000
0020000000
0000000000
0031000000
0000000000
0000000000
,
1000000000
0000100000
0010000000
0000010000
,
0000200000
0000000000
0000300100
0000020000
0000000000
0000030001
0000000000
0000000000
,
0000000001
0000000001
0000010000
0000001000
,
0002000000
0000000000
0003010000
0020000000
0000000000
0031000000
0000000000
0000000000
,
1010000000
0010100000
0000110000
0000010100
,
0000000101
0000000000
0000001010
0000000000
0000001000
0000010000
0000010100
0000000000
;

//---------------pump-double - ----------------
#NOTES:
     pump-double:
     :
     Easy:
     46:
     0.406,0.465,0.504,0.128,0.000,241.000,55.000,14.000,0.000,0.000:
0000000000
0000000000
0000000000
0000000000
,
0000000000
0000000000
0000000000
0000000000
,
0001000000
0000100000
0010000000
0010000000
,
0001000000
0000100000
0000010000
0000010000
,
0001000000
0000001000
0000010000
0000000100
,
0000001100
0000010100
0000000110
0000000101
,
0000000010
0000001000
0000000100
0000010000
,
0000001000
0001000000
0000100000
0010000000
,
0001000000
0100000000
0010000000
1000000000
,
1010000000
0011000000
0110000000
0010100000
,
1000000000
0000100000
0001000000
0010000000
,
0000010000
0000100000
0000001000
0000010000
,
0000000010
0000001000
0000010000
0000100000
,
0001000000
0100000000
0010000000
0000100000
,
0001010000
0000100000
0000001000
0000010000
,
0001000000
0000100000
0010000000
0001000000
,
0000100000
0000010000
0000001000
0000000100
,
0000010000
0000000001
0000000100
0000000010
,
0000010010
0000010010
0000010010
0000010010
,
0000000100
0000010000
0000000100
0000010000
,
0000100100
0000100100
0000100100
0000100100
,
0000001000
0000100000
0000001000
0000100000
,
0001001000
0001001000
0001001000
0001001000
,
0000010000
0001000000
0000010000
0001000000
,
0010010000
0010010000
0010010000
0010010000
,
0000100000
0010000000
0000100000
0010000000
,
0002000000
0000000000
0000000000
0000000000
,
2003000000
0000000000
0000000000
0000000000
,
3000200000
0000000000
0000000000
0000000000
,
0002300000
0000000000
0003020000
0000000000
,
0000230000
0000000000
0000000000
0000000000
,
0000300200
0000000000
0000000000
0000000000
,
0000002300
0000000000
0000000000
0000000000
,
0000003020
0000000000
0000020030
0000000000
,
0000030100
0000100000
0000001000
0001000000
,
0000010000
0010000000
0001000000
0100000000
,
0000100000
0010000000
0000010000
0001000000
,
0000001000
0000010000
0000000100
0000001000
,
0000000010
0000000101
0000010000
0000010100
,
0000100000
0000110000
0010000000
0010100000
,
1000000000
1010000000
0000100000
0010100000
,
0000010000
0000110000
0000000100
0000010100
,
0000000201
0000000000
0000000310
0000000000
,
0000020000
0000000000
0000031000
0000000000
,
0002000000
0000000000
0003100000
0000000000
,
0001000000
0000000000
0100000000
0000000000
0010000000
0000000000
0100000000
0010000000
,
1000000000
0001000000
0010000000
0000010000
,
0001000000
0000001000
0000010000
0000000010
,
0000001000
0000000100
0000100000
0000010000
,
0010000000
0000100000
0100000000
0010000000
,
0100100000
0100100000
0100100000
0100100000
,
0010000000
0000100000
0010000000
0000100000
,
0010010000
0010010000
0010010000
0010010000
,
0001000000
0000010000
0001000000
0000010000
,
0001001000
0001001000
0001001000
0001001000
,
0000100000
0000001000
0000100000
0000001000
,
0000100100
0000100100
0000100100
0000100100
,
0000010000
0000000100
0000010000
0000000100
,
0000001000
0000000000
0000000100
0000000000
0000001000
0000000100
0000001000
0000000000
,
0000000100
0000010000
0000001000
0000100000
,
0000010000
0000000000
0000100000
0000000000
0000010000
0000100000
0000010000
0000000000
,
0001000000
0000010000
0000100000
0010000000
,
0001000000
0000000000
0010000000
0000000000
0001000000
0010000000
0001000000
0000000000
,
0010000000
0001000000
0100000000
0010000000
,
1000000000
0000000000
0010000000
0000000000
1000000000
0010000000
1000000000
0000000000
,
1010000000
0010100000
0000110000
0000010100
,
0000000101
0000001000
0000000010
0000010000
,
0000010000
0000000000
0000000200
0000000000
0000000000
0000010300
0000001000
0000000000
;

//---------------pump-double - Copied from----------------
#NOTES:
     pump-double:
     Copied from:
     Beginner:
     19:
     0.192,0.217,0.009,0.073,0.000,138.000,1.000,8.000,0.000,0.000:
0000000000
0000000000
0000000000
0000000000
,
0000000000
0000000000
0000000000
0000000000
,
0001000000
0000000000
0000000000
0000000000
,
0000010000
0000000000
0000000000
0000000000
,
0000100000
0000000000
0000000000
0000000000
,
0000000100
0000000000
0000000000
0000000000
,
0000000010
0000000000
0000000000
0000000000
,
0000001000
0000000000
0000000000
0000000000
,
0000100000
0000000000
0000000000
0000000000
,
0001000000
0000000000
0010000000
0000000000
,
0000010000
0000000000
0000000000
0000000000
,
0001000000
0000000000
0000000000
0000000000
,
0000001000
0000000000
0000000000
0000000000
,
0000010000
0000000000
0000000100
0000000000
,
0000000001
0000000001
0000000001
0000000000
,
0000010000
0000010000
0000010000
0000000000
,
0000001000
0000000000
0001000000
0000000000
,
0000100000
0000000000
1000000000
0000000000
,
1000000000
1000000000
1000000000
1000000000
,
1000000000
0000000000
0010000000
0000000000
,
0100000000
0100000000
0100000000
0100000000
,
0100000000
0000000000
0000010000
0000000000
,
0000100000
0000100000
0000100000
0000100000
,
0000100000
0000000000
0000000100
0000000000
,
0000010000
0000010000
0000010000
0000010000
,
0000010000
0000000000
0000000010
0000000000
,
0000002000
0000000000
0000000000
0000000000
,
0000003200
0000000000
0000000000
0000000000
,
0000200300
0000000000
0000000000
0000000000
,
0000320000
0000000000
0000000000
0000000000
,
0002030000
0000000000
0000000000
0000000000
,
0003200000
0000000000
0000000000
0000000000
,
2000300000
0000000000
0000000000
0000000000
,
3020000000
0000000000
0000000000
0000000000
,
0130000000
0000000000
0100000000
0000000000
,
0000100000
0000100000
0000100000
0000000000
,
0001000000
0000000000
0001000000
0000000000
,
0000010000
0000010000
0000010000
0000000000
,
0000100000
0000000000
0000100000
0000000000
,
0000001000
0000001000
0000001000
0000000000
,
0000010000
0000000000
0000010000
0000000000
,
0000000001
0000000001
0000000001
0000000000
,
0000001000
0000000000
0000000000
0000000000
,
0000000100
0000000000
0000000000
0000000000
,
0000100000
0000000000
0000000000
0000000000
,
0000010000
0000000000
0001000000
0000000000
,
0000100000
0000000000
0000000000
0000000000
,
0010000000
0000000000
0000000000
0000000000
,
0001000000
0000000000
0000000000
0000000000
,
0100000000
0000000000
0010000000
0000000000
,
1000000000
1000000000
1000000000
1000000000
,
1000000000
0000000000
0000100000
0000000000
,
0001000000
0001000000
0001000000
0001000000
,
0001000000
0000000000
0000001000
0000000000
,
0000010000
0000010000
0000010000
0000010000
,
0000010000
0000000000
0000000100
0000000000
,
0000001000
0000001000
0000001000
0000001000
,
0000001000
0000000000
0000000001
0000000000
,
0000000001
0000000001
0000000001
0000000001
,
0000000001
0000000000
0000001000
0000000000
,
0000000100
0000000100
0000000100
0000000100
,
0000000100
0000000000
0000100000
0000000000
,
0000010000
0000010000
0000010000
0000010000
,
0000010000
0000000000
0001000000
0000000000
,
0000100000
0000100000
0000100000
0000100000
,
0000100000
0000000000
1000000000
0000000000
,
0010000000
0000000000
1000000000
0000000000
,
0010000000
0000000000
0000000000
1010000000
;
