#TITLE:Bring The Beat Back;
#SUBTITLE:;
#ARTIST:CanBlaster;
#TITLETRANSLIT:;
#SUBTITLETRANSLIT:;
#ARTISTTRANSLIT:;
#CREDIT:;
#BANNER:bringthebeatback-banner.png;
#SONGINFO:bringthebeatback-songinfo.png;
#BACKGROUND:bringthebeatback-bg.png;
#LYRICSPATH:;
#CDTITLE:./CDTITLES/nuprophet.png;
#CHARACTER:./SongCharacters/canblaster;
#MUSIC:Bring The Beat Back.ogg;
#OFFSET:-3.440;
#SAMPLESTART:15.400;
#SAMPLELENGTH:12.000;
#SELECTABLE:YES;
#BPMS:0.000=140.000,224.000=70.000;
#STOPS:;
#BGCHANGES:-2.000=visffd320.avi=1.000=1=1=0
;
// cache tags:
#FIRSTBEAT:16.000;
#LASTBEAT:228.000;
#SONGFILENAME:Songs/Neon FM/Bring The Beat Back/Bring The Beat Back.sm;
#HASMUSIC:1;
#HASBANNER:1;
#MUSICLENGTH:105.267;
// end cache tags

//---------------pump-single - ----------------
#NOTES:
     pump-single:
     :
     Hard:
     73:
     0.433,0.487,0.057,0.076,0.180,305.000,6.000,8.000,0.000,0.000:
00000
00000
00000
00000
,
00000
00000
00000
00000
,
00000
00000
00000
00000
,
00000
00000
00000
00000
,
10000
00010
10000
00000
10010
00000
00000
00000
,
00001
01000
00001
00000
01000
00001
01000
00000
,
10000
00010
10000
00000
10010
00000
00000
00000
,
00100
00001
10000
00000
00100
10000
00001
00000
,
00010
10000
00100
00000
01000
00001
00100
00000
,
00010
01000
00010
10000
00000
10000
00001
00100
,
00000
00010
01000
00100
00000
10000
00010
01000
,
00001
00000
00000
10000
00000
00000
00010
00000
00000
01000
00100
00000
10000
00000
00000
00000
,
00001
00001
00100
00000
00010
10000
00100
00000
,
01000
00010
01000
00001
00000
00001
10000
00100
,
00000
01000
00010
00100
00000
00001
01000
00010
,
10000
00000
00000
00001
00000
00000
01000
00000
00000
00010
00100
00000
00001
00000
00000
00000
,
10000
00000
00000
00010
00000
00000
10000
00000
00000
00000
00001
00000
01000
00000
00010
00000
,
00100
00000
00000
00010
00000
00000
01000
00000
00000
00000
00100
00000
10000
00000
00001
00000
,
10000
00000
00000
00100
00000
00000
01000
00000
00000
00000
00010
00000
01000
00000
00001
00000
,
00100
00000
00000
00010
00000
00000
00100
00000
00000
00001
01000
00000
00100
00000
00000
00000
,
01000
00000
00000
01000
00000
00000
00001
00000
00000
00000
10000
00000
00010
00000
01000
00000
,
00100
00000
00000
01000
00000
00000
00010
00000
00000
00000
00100
00000
00001
00000
10000
00000
,
00001
00000
00000
00100
00000
00000
00010
00000
00000
00000
01000
00000
00010
00000
10000
00000
,
00100
00000
00000
01000
00000
00000
00100
00000
00000
10000
00010
00000
00100
00000
00000
00000
,
00001
00000
00100
00000
00001
00000
00000
00101
00000
00000
00100
00000
00010
00000
01000
00000
,
00000
00001
00000
10000
00000
00100
00000
01000
,
00100
00000
10000
00000
00001
00000
00000
10001
00000
00000
00001
00000
00100
00000
00010
00000
,
00000
01000
00000
00001
00000
00100
00000
00010
,
10000
00000
00100
00000
10000
00000
00000
10100
00000
00000
01000
00000
00010
00000
00100
00000
,
00000
00001
00000
10000
00000
00010
00000
01000
,
00010
00000
00100
00000
00001
00000
00100
00000
00010
00000
00100
00000
00001
00100
00001
00100
,
00001
01000
00100
00000
01000
00010
10000
00020
,
00000
01000
00000
00100
,
00000
00000
10030
00000
00001
10000
00100
20000
,
00000
30002
00100
00000
00000
00000
00010
00000
,
00000
00000
01003
00000
00100
01000
00010
20000
,
00000
00010
00000
00001
,
00000
00000
30100
00000
01000
00010
10000
00002
,
00000
02003
00010
00000
00000
00000
00100
00000
,
03001
00000
10000
00000
00001
00000
10000
00100
10000
00100
10000
00100
10000
00100
10000
00100
,
10000
00001
00001
00000
01000
00001
00100
00000
,
00010
01000
00010
10000
00000
10000
00001
00100
,
00000
00010
01000
00100
00000
10000
00010
01000
,
00001
00000
00000
10000
00000
00000
00010
00000
00000
01000
00100
00000
10000
00000
00000
00000
,
00001
00001
00100
00000
00010
10000
00100
00000
,
01000
00010
01000
00001
00000
00001
10000
00100
,
00000
01000
00010
00100
00000
00001
01000
00010
,
10000
00000
00000
00001
00000
00000
01000
00000
00000
00010
00100
00000
00001
00000
00000
00000
,
10000
00000
00000
00010
00000
00000
10000
00000
00000
00000
00001
00000
01000
00000
00010
00000
,
00100
00000
00000
00010
00000
00000
01000
00000
00000
00000
00100
00000
10000
00000
00001
00000
,
10000
00000
00000
00100
00000
00000
01000
00000
00000
00000
00010
00000
01000
00000
00001
00000
,
00100
00000
00000
00010
00000
00000
00100
00000
00000
00001
01000
00000
00100
00000
00000
00000
,
01000
00000
00000
01000
00000
00000
00001
00000
00000
00000
10000
00000
00010
00000
01000
00000
,
00100
00000
00000
01000
00000
00000
00010
00000
00000
00000
00100
00000
00001
00000
10000
00000
,
00001
00000
00000
00100
00000
00000
00010
00000
00000
00000
01000
00000
00010
00000
10000
00000
,
00100
00000
00000
01000
00000
00000
00100
00000
00000
10000
00010
00000
00100
00000
00000
00000
,
20002
00000
00000
00000
,
30003
00000
00000
00000
;

//---------------pump-single - ----------------
#NOTES:
     pump-single:
     :
     Medium:
     53:
     0.315,0.325,0.019,0.057,0.190,224.000,2.000,6.000,0.000,0.000:
00000
00000
00000
00000
,
00000
00000
00000
00000
,
00000
00000
00000
00000
,
00000
00000
00000
00000
,
00100
10000
00010
01000
,
00010
10000
00100
10000
,
00001
00010
00100
01000
,
10000
01000
00020
00000
,
01030
00000
00000
01000
00000
00000
01000
00000
00000
00000
00000
00000
00010
00000
00000
00000
,
00100
00000
00000
00100
00000
00000
00100
00000
00000
00000
00000
00000
00001
00000
00000
00000
,
10000
00000
00000
10000
00000
00000
10000
00000
00000
00000
00000
00000
00100
00000
00000
00000
,
01000
00000
00000
01000
00000
00000
01000
00000
00000
01000
00000
00000
01000
00000
00000
00000
,
00010
00000
00000
00010
00000
00000
00010
00000
00000
00000
00000
00000
00100
00000
00000
00000
,
00001
00000
00000
00001
00000
00000
00001
00000
00000
00000
00000
00000
10000
00000
00000
00000
,
00100
00000
00000
00100
00000
00000
00100
00000
00000
00000
00000
00000
01000
00000
00000
00000
,
00010
00000
00000
00010
00000
00000
00010
00000
00000
00010
00000
00000
00010
00000
00000
00000
,
01000
00000
00000
01000
00000
00000
01000
00000
00000
00000
00000
00000
00010
00000
00000
00000
,
00100
00000
00000
00100
00000
00000
00100
00000
00000
00000
00000
00000
00001
00000
00000
00000
,
10000
00000
00000
10000
00000
00000
10000
00000
00000
00000
00000
00000
00100
00000
00000
00000
,
01000
00000
00000
01000
00000
00000
01000
00000
00000
01000
00000
00000
01000
00000
00000
00000
,
00010
00000
00000
00010
00000
00000
00010
00000
00000
00000
00000
00000
00100
00000
00000
00000
,
00001
00000
00000
00001
00000
00000
00001
00000
00000
00000
00000
00000
10000
00000
00000
00000
,
00100
00000
00000
00100
00000
00000
00100
00000
00000
00000
00000
00000
01000
00000
00000
00000
,
00010
00000
00000
00010
00000
00000
00010
00000
00000
00010
00000
00000
00010
00000
00000
00000
,
10000
00010
10000
00000
00100
00000
01000
00000
,
00010
10000
00010
00000
00100
00000
00001
00000
,
01000
00001
01000
00000
00100
00000
10000
00000
,
00001
01000
00001
00000
00100
00000
00010
00000
,
01000
00100
10000
00000
00010
00000
00100
00000
,
00001
01000
00010
00000
00100
00000
00001
00000
,
10000
00100
01000
00000
00010
00000
01000
00000
,
00001
00100
00010
00000
01000
00000
00010
00000
,
20000
00010
00100
00010
,
00100
30001
00100
00010
,
01000
00002
10000
00100
,
10000
00103
00010
01000
,
00200
10000
00010
10000
,
00010
10300
00001
01000
,
00020
01000
10000
00100
,
10000
00130
00110
00110
,
00010
00000
00000
00010
00000
00000
00010
00000
00000
00000
00000
00000
01000
00000
00000
00000
,
00100
00000
00000
00100
00000
00000
00100
00000
00000
00000
00000
00000
10000
00000
00000
00000
,
00001
00000
00000
00001
00000
00000
00001
00000
00000
00000
00000
00000
00100
00000
00000
00000
,
00010
00000
00000
00010
00000
00000
00010
00000
00000
00010
00000
00000
00010
00000
00000
00000
,
01000
00000
00000
01000
00000
00000
01000
00000
00000
00000
00000
00000
00100
00000
00000
00000
,
10000
00000
00000
10000
00000
00000
10000
00000
00000
00000
00000
00000
00001
00000
00000
00000
,
00100
00000
00000
00100
00000
00000
00100
00000
00000
00000
00000
00000
00010
00000
00000
00000
,
01000
00000
00000
01000
00000
00000
01000
00000
00000
01000
00000
00000
01000
00000
00000
00000
,
00010
00000
00000
00010
00000
00000
00010
00000
00000
00000
00000
00000
01000
00000
00000
00000
,
00100
00000
00000
00100
00000
00000
00100
00000
00000
00000
00000
00000
10000
00000
00000
00000
,
00001
00000
00000
00001
00000
00000
00001
00000
00000
00000
00000
00000
00100
00000
00000
00000
,
00010
00000
00000
00010
00000
00000
00010
00000
00000
00010
00000
00000
00010
00000
00000
00000
,
01000
00000
00000
01000
00000
00000
01000
00000
00000
00000
00000
00000
00100
00000
00000
00000
,
10000
00000
00000
10000
00000
00000
10000
00000
00000
00000
00000
00000
00001
00000
00000
00000
,
00100
00000
00000
00100
00000
00000
00100
00000
00000
00000
00000
00000
00010
00000
00000
00000
,
01000
00000
00000
01000
00000
00000
01000
00000
00000
01000
00000
00000
01000
00000
00000
00000
,
00002
00000
00000
00000
,
00003
00000
00000
00000
;

//---------------pump-single - ----------------
#NOTES:
     pump-single:
     :
     Easy:
     16:
     0.122,0.135,0.000,0.028,0.000,87.000,0.000,3.000,0.000,0.000:
00000
00000
00000
00000
,
00000
00000
00000
00000
,
00000
00000
00000
00000
,
00000
00000
00000
00000
,
00001
00000
00000
00000
,
10000
00000
00000
00000
,
00100
00000
00000
00000
,
00200
00000
00000
00000
,
01300
00000
00010
00000
,
10000
00000
00001
00000
,
01000
00000
00010
00000
,
10000
00000
00001
00000
,
00100
00000
00010
00000
,
01000
00000
00100
00000
,
00001
00000
10000
00000
,
00100
00000
00100
00000
,
10000
00000
00010
00000
,
01000
00000
00001
00000
,
00100
00000
10000
00000
,
00010
00000
01000
00000
,
00001
00000
10000
00000
,
00100
00000
00100
00000
,
00010
00000
01000
00000
,
00010
00000
10000
00000
,
00001
00000
00000
00000
,
01000
00000
00000
00000
,
10000
00000
00000
00000
,
00010
00000
00000
00000
,
00100
00000
00000
00000
,
01000
00000
00000
00000
,
00100
00000
00000
00000
,
00010
00000
00000
00000
,
10000
10000
00000
00000
,
00000
00000
00000
00000
,
00001
00001
00000
00000
,
00000
00000
00000
00000
,
10000
10000
00000
00000
,
10000
00000
00000
00000
,
00001
00001
00000
00000
,
00002
00000
00000
00000
,
01003
00000
00010
00000
,
10000
00000
00001
00000
,
01000
00000
00010
00000
,
10000
00000
00001
00000
,
00100
00000
00001
00000
,
10000
00000
00100
00000
,
01000
00000
00010
00000
,
10000
00000
00001
00000
,
01000
00000
00001
00000
,
10000
00000
00010
00000
,
00100
00000
00001
00000
,
01000
00000
00100
00000
,
10000
00000
00001
00000
,
01000
00000
00010
00000
,
10000
00000
00001
00000
,
01000
00000
00010
00000
,
00200
00000
00000
00000
,
00300
00000
00000
00000
;

//---------------pump-single - Copied from----------------
#NOTES:
     pump-single:
     Copied from:
     Beginner:
     15:
     0.106,0.135,0.000,0.047,0.000,73.000,0.000,5.000,0.000,0.000:
00000
00000
00000
00000
,
00000
00000
00000
00000
,
00000
00000
00000
00000
,
00000
00000
00000
00000
,
00100
00000
00000
00000
,
00100
00000
00000
00000
,
00010
00000
00000
00000
,
00010
00000
00000
00000
,
10000
10000
00000
00000
,
00000
00000
00001
00000
,
10000
10000
00000
00000
,
00000
00000
00001
00000
,
01000
01000
00000
00000
,
00000
00000
00010
00000
,
01000
01000
00000
00000
,
00000
00000
00010
00000
,
00100
00100
00000
00000
,
00000
00000
00100
00000
,
10000
10000
00000
00000
,
00000
00000
10000
00000
,
00001
00001
00000
00000
,
00000
00000
00001
00000
,
01000
01000
00000
00000
,
00000
00000
00010
00000
,
10000
00000
00000
00000
,
00010
00000
00000
00000
,
01000
00000
00000
00000
,
00001
00000
00000
00000
,
10000
00000
00000
00000
,
00010
00000
00000
00000
,
01000
00000
00000
00000
,
00001
00000
00000
00000
,
00200
00000
00000
00000
,
00000
00000
00000
00000
,
00302
00000
00000
00000
,
00000
00000
00000
00000
,
20003
00000
00000
00000
,
00000
00000
00000
00000
,
30020
00000
00000
00000
,
00000
00000
00000
00000
,
01030
00000
00001
00000
,
01000
00000
00001
00000
,
00100
00000
00001
00000
,
00100
00000
00001
00000
,
10000
00000
00001
00000
,
10000
00000
00001
00000
,
00010
00000
00001
00000
,
00010
00000
00001
00000
,
00010
00000
10000
00000
,
00010
00000
10000
00000
,
00100
00000
10000
00000
,
00100
00000
10000
00000
,
00001
00000
10000
00000
,
00001
00000
10000
00000
,
01000
00000
10000
00000
,
01000
00000
10000
00000
,
00200
00000
00000
00000
,
00300
00000
00000
00000
;
