#TITLE:Love Fighter;
#SUBTITLE:;
#ARTIST:Beautiful Day;
#TITLETRANSLIT:;
#SUBTITLETRANSLIT:;
#ARTISTTRANSLIT:;
#CREDIT:;
#BANNER:lovefighter-banner.png;
#SONGINFO:lovefighter-songinfo.png;
#BACKGROUND:lovefighter-bg.png;
#LYRICSPATH:;
#CDTITLE:./CDTITLES/o2jam.png;
#CHARACTER:default;
#MUSIC:Love Fighter.mp3;
#OFFSET:0.060;
#SAMPLESTART:59.360;
#SAMPLELENGTH:12.000;
#SELECTABLE:YES;
#BPMS:0.000=125.000;
#STOPS:;
#BGCHANGES:-2.000=visffd320.avi=1.000=1=1=0
;
// cache tags:
#FIRSTBEAT:16.000;
#LASTBEAT:232.000;
#SONGFILENAME:Songs/Neon FM/Love Fighter/Love Fighter.sm;
#HASMUSIC:1;
#HASBANNER:1;
#MUSICLENGTH:114.101;
// end cache tags

//---------------pump-single - ----------------
#NOTES:
     pump-single:
     :
     Hard:
     87:
     0.575,0.559,0.061,0.263,0.552,422.000,7.000,30.000,0.000,0.000:
00000
00000
00000
00000
,
00000
00000
00000
00000
,
00000
00000
00000
00000
,
00000
00000
00000
00000
,
01000
00000
00001
00000
00100
00000
00010
00000
10000
01000
10000
01000
00000
00000
10000
00000
,
00010
01000
00000
00010
01000
00000
00010
01000
00000
00010
01000
00000
00001
00000
10000
00000
,
00010
00000
00010
00000
00100
00000
00100
00000
00001
01000
00000
00100
00000
00100
00000
20000
,
00000
00000
30010
00000
00000
00100
00000
00000
00001
00000
00000
10000
00000
00000
00010
00000
,
00100
00000
00001
00000
10000
00000
00010
00000
00100
00001
00100
00001
00000
00000
01000
00000
,
00010
10000
00000
00010
10000
00000
00010
10000
00000
00010
10000
00000
00001
00000
00100
00000
,
00010
00000
00010
00000
01000
00000
01000
00000
00001
00010
00000
00001
00000
00100
00000
00002
,
00000
00000
01003
00000
00100
00000
01000
00010
00000
01000
00000
00001
00000
10000
00100
00000
,
01000
00001
00000
01000
00000
00001
00000
10000
00000
00010
00000
10000
00020
00000
00000
00000
,
10030
00000
00100
00000
10000
00000
00010
00000
00100
00000
01000
00100
00000
00010
00000
10000
,
00000
00000
00001
00000
00001
00000
01000
00000
00020
00000
00000
20030
00000
00000
30100
00000
,
01000
00000
00100
00000
00010
00000
00100
00000
02000
00000
00000
03002
00000
00000
00103
00000
,
00010
00100
00010
00000
01000
00000
00100
01000
00000
00001
01000
00000
00100
10000
00001
00000
,
00001
00000
00100
00000
00001
00000
01000
00000
00100
00000
00010
00100
00000
01000
00000
00001
,
00000
00000
10000
00000
10000
00000
00010
00000
02000
00000
00000
03002
00000
00000
00103
00000
,
00010
00000
00000
00010
00000
00000
01000
00000
00000
01000
00001
00000
01000
00000
00010
00000
,
00100
00000
00001
00000
00100
00000
00001
00000
10000
01000
10000
00000
00010
00000
00200
00000
,
00000
00301
00001
00001
00001
00001
00001
20000
,
00000
30010
00100
00110
00000
00101
00000
00002
,
00000
10003
10000
10000
10000
10000
10000
00020
,
00000
00130
00001
20000
00000
30200
00000
00300
,
01000
00000
00000
00100
00000
00000
10000
00000
00001
00000
00000
00100
00000
00000
00001
00000
,
10000
00000
01000
00000
00100
00000
00001
00000
00010
00000
00000
00100
00000
00000
10000
00000
,
11000
00000
10100
00000
01000
00010
00100
00002
,
10000
00000
10000
00000
10000
00000
10003
00000
00100
00000
00100
00000
00100
00000
00100
01000
,
00100
00000
00000
10000
00000
00000
00001
00000
00100
00000
00000
00010
00000
00000
01000
00000
,
00020
00000
00100
00130
,
00010
00000
10000
00000
00100
00000
01000
00000
00001
00010
00001
00010
00000
00000
00001
00000
,
01000
00010
00000
01000
00010
00000
01000
00010
00000
01000
00010
00000
10000
00000
00001
00000
,
01000
00000
01000
00000
00100
00000
00100
00000
10000
00010
00000
00100
00000
00100
00000
00002
,
00000
00000
01003
00000
00000
00100
00000
00000
10000
00000
00000
00001
00000
00000
01000
00000
,
00100
00000
10000
00000
00001
00000
01000
00000
00100
10000
00100
10000
00000
00000
00010
00000
,
01000
00001
00000
01000
00001
00000
01000
00001
00000
01000
00001
00000
10000
00000
00100
00000
,
01000
00000
01000
00000
00010
00000
00010
00000
10000
01000
00000
10000
00000
00100
00000
20000
,
00000
00000
30010
00000
00100
00000
00010
01000
00000
00010
00000
10000
00000
00001
00100
00000
,
00001
10000
00000
00000
00001
10000
00000
00000
00000
00000
10000
00000
00010
00000
01000
00000
,
00100
00000
10000
00000
00001
00000
00100
00000
00001
00000
10000
00010
00000
01000
00000
00020
,
00000
00130
00010
01000
00020
00100
00130
00001
,
00000
10000
00010
00100
00010
10000
10000
00001
,
01000
00010
01000
00000
00010
01000
00000
00010
00100
00000
00010
01000
00000
00010
20000
00000
,
30001
00000
00100
00000
00010
00000
00100
00000
00002
00000
10003
01000
00000
00100
00000
00020
,
00000
01030
00100
10000
00010
00010
01000
01000
,
00001
00000
00100
00000
00001
00000
01000
00000
01010
00000
00000
01010
00000
00000
01010
00000
,
00010
00000
10000
00000
00001
10000
00000
00010
00000
00000
00200
00000
00320
00000
00000
00000
,
10030
00001
10000
00010
10000
00100
10000
01000
,
20000
00000
00000
00000
30010
00000
00100
00000
00010
10000
00000
00001
00000
01000
00010
00000
,
00100
00001
00000
00100
00010
00000
00100
01000
00000
00100
10000
00000
00100
01000
00000
00100
,
00010
00000
00100
00001
00000
00100
00010
00000
00100
00001
00100
00000
00010
00000
01000
00000
,
00001
00000
10000
00000
00100
01000
00100
01000
00000
00000
00010
00000
00100
00001
00100
00001
,
00000
00000
10000
00000
00010
00100
00010
00100
00000
00000
00010
00000
10000
00100
10000
00100
,
00000
00000
01000
00000
00001
00010
00001
00010
00001
00100
00000
00010
00000
01000
00000
00002
,
00000
00000
10003
00000
00100
00000
01000
00100
00000
10000
00000
00001
00000
01000
00010
00000
,
00200
00020
00000
00000
,
00000
00000
00030
00000
00000
00001
00001
00001
,
00300
00000
00000
00000
;

//---------------pump-single - ----------------
#NOTES:
     pump-single:
     :
     Medium:
     72:
     0.475,0.508,0.000,0.184,0.425,358.000,0.000,21.000,0.000,0.000:
00000
00000
00000
00000
,
00000
00000
00000
00000
,
00000
00000
00000
00000
,
00000
00000
00000
00000
,
10000
00000
00100
00000
01000
00000
00100
10000
00000
00000
00010
10000
00000
00000
00100
00000
,
01000
00100
00000
01000
00100
00000
01000
00100
00000
01000
00100
00000
01000
00000
00010
00000
,
10000
00000
00100
00000
10000
00000
00100
00000
01000
00010
00000
00010
00000
00010
00000
00020
,
00000
00000
01030
00000
00000
00001
00000
00000
10000
00000
00000
00001
00000
00000
10000
00000
,
00010
00000
00100
00000
00001
00000
00100
00010
00000
00000
01000
00010
00000
00000
10000
00000
,
00001
00010
00000
00001
00010
00000
00001
00010
00000
00001
00010
00000
00001
00000
10000
00000
,
00010
00000
01000
00000
00010
00000
01000
00000
00010
10000
00000
00001
00000
10000
00000
00002
,
00000
00000
01003
00000
00010
00000
10000
00010
00000
10000
00000
00010
00000
10000
00010
00000
,
01000
00100
00000
01000
00000
00100
00000
01000
00000
00100
00000
01000
00200
00000
00000
00000
,
10300
00000
00000
00000
00010
00000
00000
00000
00100
00000
00001
00100
00000
00001
00000
00100
,
00000
00000
00000
00000
00010
00000
10000
00000
00100
00000
00000
10000
00000
00000
00100
00000
,
10000
00010
00100
00001
,
10000
01000
10000
00000
00001
00010
00001
00000
,
00001
00000
00000
00000
01000
00000
00000
00000
00100
00000
10000
00100
00000
10000
00000
00100
,
00000
00000
00000
00000
01000
00000
00001
00000
00100
00000
00000
00001
00000
00000
00100
00000
,
00001
00000
00000
10000
00000
00000
00001
00000
00000
10000
00000
00000
00001
00000
10000
00000
,
00100
00000
01000
00000
00010
00000
00100
00000
00010
01000
00010
00000
10000
00000
00002
00000
,
00000
00103
00010
00100
00010
00100
00010
02000
,
00000
03100
00000
10000
00000
00001
00000
02000
,
00000
03010
10000
00010
10000
00010
10000
00200
,
00000
01300
00010
02000
00000
03020
00000
00000
,
10030
00000
00000
00100
00000
00000
01000
00000
00001
00000
00000
00100
00000
00000
00010
00000
,
10000
00000
00100
00000
10000
00000
00100
00000
10000
00000
00000
00001
00000
00000
01000
00000
,
00010
00000
00010
00000
00010
00100
00010
02000
,
00001
00001
00001
00001
03001
00001
00001
00001
,
00001
00000
00000
10000
00000
00000
00001
00000
10000
00000
00000
00001
00000
00000
10000
00000
,
00002
00000
01000
01003
,
00001
00000
00100
00000
00010
00000
00100
00001
00000
00000
01000
00001
00000
00000
00100
00000
,
00010
00100
00000
00010
00100
00000
00010
00100
00000
00010
00100
00000
00010
00000
01000
00000
,
00001
00000
00100
00000
00001
00000
00100
00000
00010
01000
00000
01000
00000
01000
00000
02000
,
00000
00000
03010
00000
00000
10000
00000
00000
00001
00000
00000
10000
00000
00000
00001
00000
,
01000
00000
00100
00000
10000
00000
00100
01000
00000
00000
00010
01000
00000
00000
00001
00000
,
10000
01000
00000
10000
01000
00000
10000
01000
00000
10000
01000
00000
10000
00000
00001
00000
,
01000
00000
00010
00000
01000
00000
00010
00000
01000
00001
00000
10000
00000
00001
00000
20000
,
00000
00000
30010
00000
01000
00000
00001
01000
00000
00001
00000
01000
00000
00001
01000
00000
,
00000
00000
00000
00000
00000
00010
10000
00100
,
01000
00010
00100
00000
00001
01000
00100
00000
,
01000
00010
10000
00000
00001
00010
00001
00000
,
01000
00100
10000
00000
00010
00100
00010
00000
,
10000
00100
10000
00100
10000
00100
10000
00100
,
10000
00000
00001
00000
00010
00000
00001
00000
01000
00000
00100
10000
00000
00010
00000
10000
,
00000
00010
01000
00010
,
00000
00000
01000
00000
00100
00000
10000
00000
00010
00000
00000
00100
00000
00000
00001
00000
,
10000
00100
01000
00010
10000
00100
01000
00010
,
20000
30002
00203
00320
,
02030
00000
00000
00000
03010
00000
00100
00000
00001
10000
00000
00001
00000
10000
00001
00000
,
01000
00001
00000
01000
00001
00000
01000
00001
00000
01000
00001
00000
01000
00001
00000
01000
,
00001
00000
01000
00001
00000
01000
00001
00000
10000
00000
00100
00000
10000
00000
00000
00000
,
00010
00000
00010
00000
01000
00000
00000
01000
00000
00000
00001
00000
00100
00000
00000
00100
,
00000
00000
00010
00000
10000
00000
00000
10000
00000
00000
00100
00000
01000
00000
00000
01000
,
00000
00000
00001
00000
00100
00000
00000
00000
00010
01000
00000
00010
00000
01000
00000
00020
,
00000
01030
00000
00000
00000
00000
00000
00000
,
02000
00020
00000
00000
,
00000
00000
00000
00000
00000
00000
00000
00030
,
03000
00000
00000
00000
;

//---------------pump-single - ----------------
#NOTES:
     pump-single:
     :
     Easy:
     27:
     0.188,0.229,0.000,0.009,0.000,149.000,0.000,1.000,0.000,0.000:
00000
00000
00000
00000
,
00000
00000
00000
00000
,
00000
00000
00000
00000
,
00000
00000
00000
00000
,
00001
00100
00001
10000
,
00010
00000
00010
00000
,
01000
00100
01000
00001
,
00100
00010
00000
00010
,
00001
10000
00100
01000
,
00100
01000
00100
01000
,
00001
00001
10000
00010
,
01000
00100
10000
00100
,
00100
00000
00000
00001
,
10000
00000
00001
00000
,
00100
00000
00010
00000
,
01000
00000
00100
00000
,
10000
01000
10000
00100
,
10000
00000
00001
00000
,
00100
00000
00010
00000
,
01000
01000
00010
00010
,
01000
00001
10000
00001
,
00100
00100
00100
00100
,
00010
00000
00010
00000
,
10000
10000
10000
10000
,
10000
00000
00001
00000
,
01000
00100
01000
00100
,
01000
00010
00100
00010
,
00100
00100
00100
00000
,
00000
00001
00001
00001
,
10000
00000
00001
00000
,
10000
00000
00000
00000
,
00010
00100
00010
01000
,
00100
10000
00100
10000
,
00001
00001
10000
10000
,
00100
00000
01000
00000
,
00010
10000
00100
10000
,
01000
00100
01000
00001
,
00100
00100
00010
00000
,
00010
00000
10000
00000
,
00001
00000
00000
00100
,
00100
00000
00000
00010
,
00010
00000
00000
01000
,
01000
00000
00100
00000
,
00100
00000
00001
00000
,
00001
00000
00000
00010
,
00010
00000
00000
01000
,
01000
00000
00000
00100
,
00100
00000
00000
00000
,
10000
01000
10000
00100
,
10000
00010
10000
00001
,
10000
00010
10000
00100
,
10000
01000
10000
00100
,
00100
00000
00000
00000
,
00001
00000
00000
00000
,
00001
00001
00000
00000
,
10000
00000
00100
00000
,
00020
00000
00000
00000
,
00000
00000
00000
00000
,
00030
00000
00000
00000
;

//---------------pump-single - Copied from----------------
#NOTES:
     pump-single:
     Copied from:
     Beginner:
     15:
     0.098,0.152,0.000,0.009,0.000,77.000,0.000,1.000,0.000,0.000:
00000
00000
00000
00000
,
00000
00000
00000
00000
,
00000
00000
00000
00000
,
00000
00000
00000
00000
,
01000
00000
00000
00000
,
00001
00000
00000
00000
,
00100
00000
00000
00000
,
00001
00000
00000
00000
,
00010
00000
00000
00000
,
10000
00000
00000
00000
,
00100
00000
00000
00000
,
10000
00000
00000
00000
,
00010
00000
00000
00000
,
01000
00100
10000
00000
,
00000
00100
00000
00100
,
00001
00100
00010
00000
,
01000
00000
01000
00000
,
00010
00100
00010
00000
,
01000
00000
01000
00000
,
10000
00100
01000
00000
,
00001
00000
00001
00000
,
10000
00000
00000
00000
,
00010
00000
00000
00000
,
01000
00000
00000
00000
,
00100
00000
00000
00000
,
10000
10000
00000
00000
,
00001
00001
00000
00000
,
01000
01000
00000
00000
,
00010
00010
00010
00010
,
00010
00000
00000
00000
,
01000
00000
00000
00000
,
00100
00000
00000
00000
,
10000
00000
00000
00000
,
00100
00000
00000
00000
,
01000
00000
00000
00000
,
00010
00000
00000
00000
,
00100
00000
00000
00000
,
00001
00000
00000
00000
,
00100
00000
00000
00000
,
00000
00000
00000
00000
,
01000
00000
00000
00000
,
00010
00000
00010
00000
,
10000
00000
00000
00000
,
00001
00000
00001
00000
,
00100
00000
00000
00000
,
00010
00000
00010
00000
,
01000
00000
00000
00000
,
00001
00000
00001
00000
,
00100
00000
00000
00000
,
00100
00000
00000
00000
,
00001
00000
00000
00000
,
00001
00000
00000
00000
,
10000
01000
00000
00000
,
10000
01000
00000
00000
,
10000
01000
00000
00000
,
10000
00000
00000
00000
,
00020
00000
00000
00000
,
00000
00000
00000
00000
,
00030
00000
00000
00000
;
