#TITLE:Stakeout;
#SUBTITLE:;
#ARTIST:Freezepop;
#TITLETRANSLIT:;
#SUBTITLETRANSLIT:;
#ARTISTTRANSLIT:;
#CREDIT:;
#BANNER:stakeout-banner.png;
#SONGINFO:stakeout-songinfo.png;
#BACKGROUND:stakeout-bg.png;
#LYRICSPATH:;
#CDTITLE:./CDTITLES/freezepop-fancy.png;
#CHARACTER:./SongCharacters/freezepop;
#MUSIC:Freezepop - Stakeout (Neon FM mix).ogg;
#OFFSET:0.000;
#SAMPLESTART:50.500;
#SAMPLELENGTH:12.000;
#SELECTABLE:YES;
#BPMS:0.000=150.000;
#STOPS:;
#BGCHANGES:0.000=stakeout.avi=1.000=0=0=0
;
// cache tags:
#FIRSTBEAT:15.500;
#LASTBEAT:259.000;
#SONGFILENAME:Songs/Neon FM/Stakeout/Stakeout.sm;
#HASMUSIC:1;
#HASBANNER:1;
#MUSICLENGTH:104.400;
// end cache tags

//---------------pump-single - ----------------
#NOTES:
     pump-single:
     :
     Hard:
     64:
     0.417,0.434,0.297,0.067,0.005,267.000,31.000,7.000,0.000,0.000:
00000
00000
00000
00000
,
00000
00000
00000
00000
,
00000
00000
00000
00000
,
00000
00000
00000
00000
,
00000
00001
00000
00001
00000
00001
00000
00001
,
00000
00001
00000
00000
00010
00100
01000
00000
,
00000
00001
00000
00001
00000
00001
00000
00001
,
00000
00001
00000
00000
01000
00100
00010
00000
,
00000
10000
00000
10000
00000
10000
00000
10000
,
00000
10000
00000
00000
01000
00100
00010
00000
,
00000
10000
00000
10000
00000
10000
00000
10000
,
00000
10000
00000
00100
01000
00000
00010
00000
,
00200
00000
00000
00302
00000
00000
00000
02003
,
00000
00000
03000
00010
10000
00100
01000
00020
,
00000
00000
00000
00230
00000
00000
00000
00302
,
00000
00000
00003
01000
00010
10000
00100
01000
,
00000
00110
01000
00101
,
00010
01100
00010
10100
,
10000
01001
00100
10010
,
00100
01001
10010
01001
,
00000
01010
00100
00101
,
00010
01010
10000
10100
,
00010
10010
01000
01001
,
10000
10001
00001
10001
,
10001
00000
00010
00000
01000
00100
00010
00000
,
01000
10000
01000
00000
,
00000
00000
01000
00000
00010
00100
01000
00000
,
00010
00001
00010
10000
,
01000
00100
01000
00010
,
00100
00001
01000
00000
,
10000
10000
10000
10000
,
00010
00000
01000
00000
00010
01000
00001
01000
,
00010
01000
00000
00000
01000
00000
00100
00000
,
10000
00000
00010
00000
01000
00001
00100
00010
,
01000
00100
00000
00000
00001
00000
01000
00000
,
00100
00000
10000
00000
00010
00100
00001
01000
,
00010
00100
00000
00000
10000
00000
00100
00000
,
10000
00000
00100
00000
00010
00001
01000
00100
,
00010
00001
00000
00000
01000
00000
00010
00000
,
10000
00000
00100
00000
01000
00001
01000
00100
,
10000
00000
10000
10000
00000
00010
00000
00010
,
00000
00010
00100
00000
00001
00010
00100
00010
,
00001
00000
00001
00001
00000
00010
00000
00010
,
00000
00100
00100
00000
01000
00100
00010
00100
,
01000
00000
00010
00000
00100
00010
10000
00000
,
10000
00010
00001
00000
00001
00010
01000
00000
,
00000
00000
00010
00000
00010
01000
10000
00000
,
10000
01000
00001
00000
00001
01000
00100
00000
,
00000
00000
10000
00000
10000
00100
00010
00000
,
00010
00001
01000
00000
01000
00010
00001
00000
,
00000
00000
00010
00000
00010
01000
00100
00000
,
00100
10000
00010
00000
00010
01000
00100
00000
,
00000
20000
00000
00000
00000
00000
00000
00000
00000
00000
00000
00000
00000
00000
00000
00000
00000
00000
00000
00000
00000
00000
00000
00000
00000
00000
00000
00000
00000
00000
00000
00000
00000
00000
00000
00000
00000
00000
00000
00000
00000
00000
00000
00000
00000
00000
00000
00000
00010
00000
00000
00000
00000
00000
00000
00000
00000
00000
00000
00000
00000
00000
00000
00000
00000
00000
00000
00000
00000
00000
00000
00000
00000
00000
00000
00000
00000
00000
00000
00000
00000
00000
00000
00000
00000
00000
00000
00000
00000
00000
00000
00000
00000
00000
00000
00000
00010
00000
00000
00000
00000
00000
00000
00000
00000
00000
00000
00000
00000
00000
00000
00000
00000
00000
00000
00000
00000
00000
00000
00000
00000
00000
00000
00000
00000
00000
00000
00000
00000
00000
00000
00000
00000
00000
00000
00000
00000
00000
00000
00000
00000
00000
00000
00000
00010
00000
00000
00000
00000
00000
00000
00000
00000
00000
00000
00000
00000
00000
00000
00000
00000
00000
00000
00000
00000
00000
00000
00000
00000
00000
00000
00000
00000
00000
00000
00000
00000
00000
00000
00000
00000
00000
00000
00000
00000
00000
00000
00000
00000
00000
00000
00000
,
00010
00010
00010
00010
00010
00010
00010
00010
,
30010
00000
00000
00000
,
00000
00000
00000
00000
00001
00010
00100
00000
,
01000
00000
01000
00000
01000
00010
10000
00001
,
00010
01100
00010
10100
,
01000
00110
01000
00101
,
00001
10010
00100
01001
,
00100
10010
01001
10010
,
00000
01010
00100
10100
,
01000
01010
00001
00101
,
00100
00010
00100
01000
,
00100
00000
00010
00000
00001
00001
00001
00000
;

//---------------pump-single - Copied from----------------
#NOTES:
     pump-single:
     Copied from:
     Medium:
     54:
     0.391,0.372,0.220,0.067,0.005,256.000,23.000,7.000,0.000,0.000:
00000
00000
00000
00000
,
00000
00000
00000
00000
,
00000
00000
00000
00000
,
00000
00000
00000
00000
,
01000
01000
01000
01000
,
01000
00000
00000
00000
00010
00100
01000
00000
,
00010
00010
00010
00010
,
00010
00000
00000
00000
01000
00100
00010
00000
,
00001
00001
00001
00001
,
00001
00000
00000
00000
01000
00100
00010
00000
,
10000
10000
10000
10000
,
10000
00000
00010
00100
01000
00000
00010
00000
,
00200
00000
00000
00302
00000
00000
00000
02003
,
00000
00000
03010
00000
00010
00000
00010
02000
,
00000
00000
00000
03020
00000
00000
00000
20030
,
00000
00000
31000
00000
01000
00000
01000
00100
,
00010
01000
00010
01000
,
00010
00000
01000
00000
00010
00100
01000
00000
,
00001
00100
00001
00100
,
00001
00000
00100
00000
00001
00010
00100
00000
,
00000
00010
01000
00010
,
01000
00000
00010
00000
01000
00100
00010
00000
,
00000
00100
10000
00100
,
10000
10100
01010
10100
,
01010
10000
00010
10000
,
00010
10000
00010
00010
,
00010
01000
00001
01000
,
00001
01000
01000
01000
,
00100
00001
10000
00100
,
10000
00001
00100
00001
,
10000
10000
10000
10000
,
00010
00000
01000
00000
00010
01000
00010
01000
,
00010
01000
00000
00000
00100
00000
10000
01000
,
00100
00000
00010
00000
00010
00100
00010
00100
,
00010
00100
00000
00000
00001
00000
01000
00010
,
00100
00000
00001
00000
00001
00100
00001
00100
,
00001
00100
00000
00000
00010
00000
10000
01000
,
00100
00000
01000
00000
01000
00100
01000
00100
,
01000
00100
00000
00000
00010
00000
00100
00010
,
10000
00000
01000
00000
01000
00100
01000
00100
,
01000
01000
01000
01000
,
01000
00000
01000
00000
00100
01000
00100
01000
,
00100
00100
00100
00100
,
00100
00000
00100
00000
00010
00100
00010
00100
,
00010
00101
00010
00101
,
00010
00101
00010
01000
,
00100
01010
00100
01010
,
00100
01010
00100
10000
,
01000
10100
01000
10100
,
01000
10100
01000
00010
,
00100
01010
00100
01010
,
00100
01010
00100
01000
,
00000
20000
00000
00000
00000
00000
00000
00000
00000
00000
00000
00000
00000
00000
00000
00000
00000
00000
00000
00000
00000
00000
00000
00000
00000
00000
00000
00000
00000
00000
00000
00000
00000
00000
00000
00000
00000
00000
00000
00000
00000
00000
00000
00000
00000
00000
00000
00000
00010
00000
00000
00000
00000
00000
00000
00000
00000
00000
00000
00000
00000
00000
00000
00000
00000
00000
00000
00000
00000
00000
00000
00000
00000
00000
00000
00000
00000
00000
00000
00000
00000
00000
00000
00000
00000
00000
00000
00000
00000
00000
00000
00000
00000
00000
00000
00000
00000
00000
00000
00000
00000
00000
00000
00000
00000
00000
00000
00000
00000
00000
00000
00000
00000
00000
00000
00000
00000
00000
00000
00000
00000
00000
00000
00000
00000
00000
00000
00000
00000
00000
00000
00000
00000
00000
00000
00000
00000
00000
00000
00000
00000
00000
00000
00000
00010
00000
00000
00000
00000
00000
00000
00000
00000
00000
00000
00000
00000
00000
00000
00000
00000
00000
00000
00000
00000
00000
00000
00000
00000
00000
00000
00000
00000
00000
00000
00000
00000
00000
00000
00000
00000
00000
00000
00000
00000
00000
00000
00000
00000
00000
00000
00000
,
00010
00010
00010
00010
,
30010
00000
00000
00000
,
00000
00000
00001
00001
,
00100
00000
00100
00000
00100
00001
00100
00001
,
00100
00000
00010
10100
,
01000
00110
01000
00101
,
00001
00010
00100
00001
,
00100
00010
01000
00010
,
00000
01010
00100
10100
,
01000
01010
00001
00101
,
00100
00010
00100
01000
,
00100
00000
00010
00000
00001
00001
00001
00000
;

//---------------pump-single - ----------------
#NOTES:
     pump-single:
     :
     Easy:
     33:
     0.249,0.279,0.000,0.010,0.000,181.000,0.000,1.000,0.000,0.000:
00000
00000
00000
00000
,
00000
00000
00000
00000
,
00000
00000
00000
00000
,
00000
00000
00000
00000
,
00001
10000
00100
10000
,
00001
00100
00010
00010
,
10000
00001
01000
00010
,
00100
00010
10000
10000
,
00001
01000
00010
00100
,
00001
10000
00100
10000
,
00001
00100
00010
01000
,
00010
00100
00001
10000
,
00002
00000
00000
00000
,
00000
00000
00000
00000
,
10003
00000
00000
00000
,
00001
00000
00000
00000
,
00100
10000
00100
10000
,
00001
00100
00001
00000
,
00010
01000
00100
01000
,
00010
00100
00010
00000
,
10000
00010
10000
00001
,
01000
00001
00100
00000
,
00000
00010
10000
00100
,
01000
00100
10000
00001
,
00100
00000
00010
00000
,
01000
00000
00001
00000
,
10000
00000
00100
00000
,
00010
00010
00010
00000
,
10000
00000
00001
00000
,
00100
00010
01000
00000
,
10000
00000
00000
00000
,
00001
00001
00001
00000
,
10000
00100
10000
00000
,
00001
00100
00001
00000
,
01000
00010
00100
00010
,
01000
00100
01000
00000
,
10000
00100
10000
00000
,
00001
00100
00001
00000
,
00010
01000
00100
01000
,
00010
00000
01000
00000
,
00100
00000
00000
00000
,
10000
00000
00000
00000
,
00001
00000
00000
00000
,
00100
00000
00000
00000
,
00010
00010
01000
01000
,
00100
00100
00000
00000
,
00010
00010
01000
01000
,
00100
00100
00100
00100
,
10000
10000
00001
00001
,
00100
00100
00000
00000
,
10000
10000
00001
00001
,
00100
00100
01000
00010
,
01000
00010
01000
00010
,
01000
00010
01000
00010
,
10000
00001
01000
00010
,
10000
00001
01000
01000
,
00100
00000
10000
00000
,
00010
10000
00010
00000
,
01000
00001
01000
00000
,
00100
10000
00001
00100
,
00001
00000
00100
00000
,
00001
00000
10000
00000
,
00100
10000
00100
00000
,
00010
01000
00001
01000
,
00001
01000
00001
00001
;

//---------------pump-single - Copied from----------------
#NOTES:
     pump-single:
     Copied from:
     Beginner:
     13:
     0.086,0.154,0.000,0.000,0.000,63.000,0.000,0.000,0.000,0.000:
00000
00000
00000
00000
,
00000
00000
00000
00000
,
00000
00000
00000
00000
,
00000
00000
00000
00000
,
00010
00000
00000
00000
,
01000
00000
00000
00000
,
00010
00000
00000
00000
,
10000
00000
00000
00000
,
00001
00000
00000
00000
,
01000
00000
00000
00000
,
00001
00000
00000
00000
,
00100
00000
00000
00000
,
00001
00000
00000
00000
,
00000
00000
00000
00000
,
00100
00000
00000
00000
,
00000
00000
00000
00000
,
00010
00000
00000
00000
,
01000
00000
00000
00000
,
10000
00000
00000
00000
,
00001
00000
00000
00000
,
01000
00000
00000
00000
,
00010
00000
00000
00000
,
10000
00000
00000
00000
,
00001
00000
00000
00000
,
01000
00000
00000
00000
,
00010
00000
00000
00000
,
10000
00000
00000
00000
,
00001
00000
00000
00000
,
01000
00000
00000
00000
,
00010
00000
00000
00000
,
10000
00000
00000
00000
,
00001
00000
00000
00000
,
00100
00000
00000
00000
,
00000
00000
00000
00000
,
00100
00000
00000
00000
,
00000
00000
00000
00000
,
00100
00000
00000
00000
,
00000
00000
00000
00000
,
00100
00000
00000
00000
,
00000
00000
00000
00000
,
00010
00000
00000
00000
,
00010
00000
00000
00000
,
01000
00000
00000
00000
,
01000
00000
00000
00000
,
10000
00000
00000
00000
,
00000
00000
00000
00001
,
00001
00000
00000
00000
,
00000
00000
00000
10000
,
10000
00000
00000
00000
,
00000
00000
00000
00001
,
00001
00000
00000
00000
,
00000
00000
00000
10000
,
10000
00000
00000
00000
,
10000
00000
00000
00000
,
10000
00000
00000
00000
,
10000
00000
00000
00000
,
10000
00000
00000
00000
,
00100
00000
01000
00000
,
00100
00000
01000
00000
,
00100
00000
00010
00000
,
00100
00000
00010
00000
,
00100
00000
01000
00000
,
00100
00000
01000
00000
,
00100
00000
00001
00000
,
00100
00000
00001
00000
;

//---------------pump-double - ----------------
#NOTES:
     pump-double:
     :
     Hard:
     69:
     0.504,0.527,0.489,0.182,0.000,298.000,51.000,19.000,0.000,0.000:
0000000000
0000000000
0000000000
0000000000
,
0000000000
0000000000
0000000000
0000000000
,
0000000000
0000000000
0000000000
0000000000
,
0000000000
0000000000
0000000000
0000000000
0000000000
0000000000
0000000000
0001000000
,
0000020000
0001000000
0000000000
0001000000
0000000000
0001000000
0000000000
0001000000
,
0000000000
0001000000
0000000000
0001000000
0000000000
0001000000
0000000000
0000130000
,
0000002000
0000100000
0000000000
0000100000
0000000000
0000100000
0000000000
0000100000
,
0000000000
0000100000
0000000000
0000100000
0000000000
0000100000
0000000000
0000103000
,
0000000100
0000010000
0000000100
0000000000
0000001000
0000000010
0000001000
0000000000
,
0000000100
0000100000
0000010000
0000000000
0010000000
0000010000
0000100000
0000000000
,
0001000000
0000010000
0001000000
0000000000
0010000000
0001000000
0010000000
0000000000
,
0000100000
1000000000
0010000000
1000000000
0000100000
1000000000
0010000000
1000000000
,
0000100000
0010100000
0000010000
0000110000
,
0000001000
0000101000
0000000100
0000010100
,
0000000010
0000010010
0000000001
0000001001
,
0000000100
0000100100
0000010000
0010100000
,
1001000000
0100100000
1001000000
0100100000
,
1020000000
0001000000
1030000000
0000000000
,
2000000000
3002000000
0003020000
0000030020
,
0000002030
0000003200
0000010300
0000000000
,
0000000100
0000010000
0000001000
0000010000
0000000100
0000010000
0000001000
0000010000
,
0000000001
0000010000
0000000010
0000010000
0000000001
0000000000
0000000000
0000000000
,
0000000000
0000000001
0000010000
0000000100
,
0000100000
0001000000
1000000000
0001000000
,
1001000000
0100100000
1001000000
0100100000
,
1020000000
0001000000
1030000000
0000000000
,
0000000000
2000000000
3002000000
0003020000
,
0000030020
0000002030
0000003200
0000020300
,
0000030100
0000000100
0000010000
0000000000
0000001000
0000001000
0000100000
0000000000
,
0000010000
0000010000
0001000000
0000000000
0000100000
0000000000
1000000000
0000000000
,
1010000000
0010100000
0010010000
0000100100
,
0000010100
0000000000
0000000101
0000000000
0000000000
0000000010
0000001000
0000000100
,
0000100000
0000010000
0000000000
0001000000
0000000000
0000100000
0000000000
0100000000
,
0000000000
0001000000
0000000000
1000000000
0000000000
0001000000
0010000000
0000010000
,
0000010000
0000100000
0000000000
0000001000
0000000000
0000001000
0000000000
0001000000
,
0000000000
0001000000
0000000000
0000100000
0000000000
0000100000
0010000000
0001000000
,
0100000000
0000010000
0000000000
0000100000
0000000000
0000000100
0000000000
0000010100
,
0000000000
0000010010
0000000000
0000010001
0000000000
0000000001
0000010000
0000000100
,
0000001000
0000010000
0000000000
0001000000
0000000000
0000100000
0000000000
0000100000
,
0000000000
0000001000
0000000000
0000000100
0000000000
0000100000
0000010000
0010000000
,
0000100000
0000000000
0010000000
0010000000
0000000000
0000010000
0000000000
0001000000
,
0000000000
0000001000
0000010000
0000000100
0000001000
0000000010
0000000100
0000000001
,
0000000010
0000000000
0000000001
0000000001
0000000000
0000010000
0000000000
0000001000
,
0000000000
0001000000
0001000000
0001000000
0000100000
0010000000
0001000000
0100000000
,
0010000000
0100100000
1001000000
0100100000
,
0010010000
0001001000
0000100100
0000010010
,
0000001001
0000010010
0000001001
0000010010
,
0000100100
0001001000
0010010000
0100100000
,
1000000000
0001000000
0100000000
0000000000
0000100000
0010000000
0000010000
0000000000
,
0001000000
0000001000
0000100000
0000000000
0000000100
0000010000
0000001000
0000000000
,
0000010000
0000000001
0000001000
0000000000
0000000010
0000000100
0000000001
0000000000
,
0000001000
0000000010
0000010000
0000000100
0000100000
0000001000
0001000000
0000010000
,
0020000000
0001000000
0000000000
0000100000
0000000000
0001000000
0000000000
0000010000
,
0000010000
0000010000
0000010000
0000010000
0000010000
0000010000
0000010000
0030010000
,
0010000000
0000000000
0000000000
0000000000
,
0000000000
0000000000
0000000000
0000000000
0001000000
0000010000
0000101000
0000000000
,
0001010000
0000000000
0000110000
0000000000
0001010000
0000100000
0010000000
0001000000
,
0100000000
0010000000
0000000000
0010000000
0000000000
0010000000
0000000000
0010000000
,
0000000000
0010000000
0000000000
0010000000
0000000000
0010000000
1000000000
0000100000
,
0010000000
0000010000
0000000000
0000010000
0000000000
0000010000
0000000000
0000010000
,
0000000000
0000010000
0000000000
0000010000
0000000000
0000010000
0000100000
0000000100
,
0000001000
0000000010
0000000000
0000000010
0000000000
0000000010
0000000000
0000000010
,
0000000000
0000000010
0000000000
0000000010
0000000000
0000000010
0000001000
0000000100
,
0000010000
0000001000
0000101000
0000000000
0001020000
0000000000
0000001000
0000000000
,
0001030000
0000000000
0000101000
0000000000
0001010000
0000100000
0001010000
0000000000
;

//---------------pump-double - ----------------
#NOTES:
     pump-double:
     :
     Medium:
     57:
     0.449,0.465,0.230,0.412,0.000,261.000,24.000,43.000,0.000,0.000:
0000000000
0000000000
0000000000
0000000000
,
0000000000
0000000000
0000000000
0000000000
,
0000000000
0000000000
0000000000
0000000000
,
0000000000
0000000000
0000000000
0000000000
,
0001000000
0001000000
0001000000
0001000000
,
0001000000
0000000000
0001000000
0000000000
0001000000
0000010000
0000100000
0000000000
,
0000010000
0000010000
0000010000
0000010000
,
0000010000
0000000000
0000010000
0000000000
0000010000
0000100000
0000001000
0000000000
,
0000001000
0000001000
0000001000
0000001000
,
0000001000
0000000000
0000001000
0000000000
0000001000
0000010000
0000000100
0000000000
,
0000000100
0000000100
0000000100
0000000100
,
0000000100
0000000000
0000000100
0000000000
0000000100
0000001000
0000000010
0000000000
,
0000000101
0000000100
0000000010
0000001000
,
0000010000
0000000000
0000100000
0000000000
0000001000
0000100000
0000010000
0000000000
,
0000100000
0001000000
0010000000
0000100000
,
0100000000
0000000000
0001000000
0000000000
1000000000
0100000000
0010000000
0000000000
,
0000100000
0000100000
0010100000
0000100000
,
0000100000
0010100000
1010000000
0000000000
,
2000000000
3002000000
0003020000
0000030020
,
0000002030
0000003200
0000010300
0000000000
,
0000000100
0000001001
0000010010
0000001001
,
0000000100
0000010000
0000010000
0000001000
,
0001000000
0000010000
0000100000
0000001000
,
0002000000
0000100000
0000100000
0003100000
,
0000100000
0000100000
0010100000
0000100000
,
0000100000
0010100000
1010000000
0000000000
,
0000000000
2000000000
3002000000
0003020000
,
0000030020
0000002030
0000003200
0000010300
,
0000010010
0000001001
0000010010
0000000100
,
0000100000
0000010000
0010000000
0010000000
,
0010000000
0010000000
0010000000
0001000000
,
0100000000
0000000000
0000100000
0000000000
0001000000
0000010000
0001000000
0000010000
,
0001000000
0000010000
0000000000
0000000000
0000100000
0000000000
0000001000
0000000000
,
0000010000
0000000000
0000000001
0000000000
0000001000
0000000010
0000001000
0000000010
,
0000001000
0000000010
0000000000
0000000000
0000000100
0000000000
0000010000
0000000000
,
0000001000
0000000000
0001000000
0000000000
0000100000
0010000000
0000100000
0010000000
,
0000100000
0010000000
0000000000
0000000000
0001000000
0000000000
0100000000
0000000000
,
0000100000
0000000000
0001000000
0000000000
0000001000
0000100000
0000001000
0000100000
,
0000001000
0000200000
0000000000
0000000000
0000010000
0000000000
0000010000
0000000000
,
0000010000
0000010000
0000310000
0001010000
,
0000100000
0000000000
0010000000
0010000000
0000000000
0001000000
0000000000
0100000000
,
0000000000
0010000000
0010000000
0000000000
0101000000
0000000000
1010000000
0000000000
,
0002000000
0000000000
1000000000
1000000000
0000000000
0103000000
0000000000
0000100000
,
0000000000
0001000000
0000010000
0000000000
0000100000
0000000000
0001010000
0000000000
,
0000100000
0000002000
0000023000
0000030020
,
0000002030
0000023000
0000030000
0000110000
,
0000110000
0002000000
0003200000
0020300000
,
0032000000
0003200000
0000320000
0002030000
,
0000000000
0003002000
0000023000
0000030020
,
0000002030
0000003200
0000200300
0000320000
,
0000000000
0020030000
0030200000
2000300000
,
3020000000
0000000000
2030000000
0000000000
3001000000
0100000000
0010000000
0000000000
,
1001000000
0000000000
0000000000
0000000000
,
1000000000
0010000000
1000000000
0010000000
1000000000
0001000000
1000000000
0010000000
,
1000000000
0000000000
0000000000
0000000000
,
1001000000
0000000000
0100100000
0000000000
0100000000
0010000000
0001000000
0000000000
,
1000000000
0000000000
0010000000
0000000000
1000000000
0010000000
1000000000
0010000000
,
1000000000
0010000000
0000000000
0000000000
1000000000
0000000000
0001000000
0000000000
,
0100000000
0000000000
0000100000
0000000000
0010000000
0000010000
0010000000
0000010000
,
0010000000
0000010000
0000000000
0000000000
0001000000
0000000000
0000001000
0000000000
,
0000100000
0000000000
0000000100
0000000000
0000010000
0000000010
0000010000
0000000010
,
0000010000
0000000010
0000000000
0000000000
0000001000
0000000000
0000000001
0000000000
,
0000010000
0000000000
0000000100
0000000000
0000100000
0000000000
0000010000
0010000000
,
0000010000
0020000000
0032000000
0203000000
,
0300200000
0000000000
0010300000
0000000000
0100100000
0010000000
1001000000
0000000000
;

//---------------pump-double - ----------------
#NOTES:
     pump-double:
     :
     Easy:
     38:
     0.245,0.310,0.048,0.000,0.000,174.000,5.000,0.000,0.000,0.000:
0000000000
0000000000
0000000000
0000000000
,
0000000000
0000000000
0000000000
0000000000
,
0000000000
0000000000
0000000000
0000000000
,
0000000000
0000000000
0000000000
0000000000
,
0000100000
0000000000
0000100000
0000000000
,
0000010000
0000000000
0000010000
0000010000
,
0000010000
0000000000
0001000000
0000000000
,
0010000000
0000000000
1000000000
1000000000
,
1000000000
0000000000
0100000000
0000000000
,
0010000000
0000000000
0000100000
0001000000
,
0000100000
0000000000
0000010000
0000000000
,
0000001000
0000000000
0000000100
0000000000
,
0000000110
0000000000
0000000001
0000000000
,
0000000100
0000000000
0000000001
0000000000
,
0000010000
0000000000
0000000100
0000000000
,
0000100000
0000000000
0000010000
0000000000
,
0010000000
0010000000
0000100000
0000100000
,
0100000000
0010000000
0100000000
0000000000
,
0001000000
0001000000
0010000000
0000010000
,
0000100000
0000000100
0000001000
0000000000
,
0000001000
0000000100
0000010000
0000010000
,
0000000001
0000000001
0000000010
0000000000
,
0000000000
0000000010
0000001000
0000000100
,
0000010000
0000010000
0000010000
0000010000
,
0000001000
0000100000
0000001000
0000100000
,
0000010000
0000010000
0001000000
0000000000
,
0000000000
0001000000
0000100000
0000100000
,
0010000000
0010000000
0001000000
1000000000
,
0000100000
0001000000
0000001000
0000010000
,
0000000001
0000000100
0000000100
0000000000
,
0000001000
0000000000
0000001000
0000000000
,
0000001000
0000000000
0000000000
0000000000
,
0000010000
0000010000
0000010000
0000000000
,
0000001000
0000000000
0001000000
0000000000
,
0000100000
0000100000
0000100000
0000000000
,
1000000000
0000000000
0100000000
0000000000
,
0010000000
0000010000
0010000000
0000000000
,
0000100000
0000000000
0001000000
0000000000
,
0000010000
0000100000
0000000100
0000000000
,
0000001000
0000000000
0000000010
0000000000
,
0000000100
0000000100
0000000100
0000000000
,
0000000001
0000000000
0000000010
0000000000
,
0000000100
0000000100
0000000100
0000000000
,
0000001000
0000000000
0000010000
0000000000
,
0000000100
0000000100
0000000100
0000000100
,
0000000100
0000000000
0000010000
0000000000
,
0000100000
0010000000
0010000000
0010000000
,
0010000000
0000000000
0100000000
0000000000
,
0001000000
0000100000
0000010000
0000100000
,
0001000000
0000000000
0010000000
0000000000
,
0000100000
0000010000
0000001000
0000010000
,
0000100000
0000000000
0000000100
0000000000
,
0000010000
0000001000
0000010000
0000001000
,
0000010000
0000010000
0000010000
0000010000
,
0000011000
0000000000
0000010100
0000000000
,
0000010010
0000000000
0000010001
0000000000
,
0000000000
0000000000
0000000000
0000000000
,
0000000001
0000010000
0000000001
0000010000
,
0000000010
0000000100
0000001000
0000000000
,
0000010000
0000001000
0000010000
0000010000
,
0000100000
0001000000
0000100000
0000000000
,
0010000000
0000100000
0001000000
0000100000
,
0010000000
0000100000
0001000000
0000000000
,
0000100000
0010000000
0001000000
0100000000
,
0010000000
1000000000
0100000000
1000000000
;

//---------------pump-double - ----------------
#NOTES:
     pump-double:
     :
     Beginner:
     11:
     0.096,0.153,0.000,0.010,0.000,69.000,0.000,1.000,0.000,0.000:
0000000000
0000000000
0000000000
0000000000
,
0000000000
0000000000
0000000000
0000000000
,
0000000000
0000000000
0000000000
0000000000
,
0000000000
0000000000
0000000000
0000000000
,
0000100000
0000000000
0000000000
0000000000
,
0000000000
0000000000
0000000000
0000000000
,
0000010000
0000000000
0000000000
0000000000
,
0000000000
0000000000
0000000000
0000000000
,
0001000000
0000000000
0000000000
0000000000
,
0000000000
0000000000
0000000000
0000000000
,
0000001000
0000000000
0000000000
0000000000
,
0000000000
0000000000
0000000000
0000000000
,
0000010000
0000000000
0000000000
0000000000
,
0000000100
0000000000
0000000000
0000000000
,
0000000010
0000000000
0000000000
0000000000
,
0000000001
0000000000
0000000000
0000000000
,
0000000100
0000000000
0000000100
0000000000
,
0000000100
0000000000
0000000000
0000000000
,
0000001000
0000000000
0000000000
0000000000
,
0000100000
0000000000
0000000000
0000000000
,
0000010000
0000000000
0000010000
0000000000
,
0000010000
0000000000
0000000000
0000000000
,
0010000000
0000000000
0000000000
0000000000
,
0010000000
0000000000
0000000000
0000000000
,
0001000000
0000000000
0001000000
0000000000
,
0001000000
0000000000
0000000000
0000000000
,
0100000000
0000000000
0000000000
0000000000
,
1000000000
0000000000
0000000000
0000000000
,
0010000000
0000000000
0010000000
0000000000
,
0010000000
0000000000
0000000000
0000000000
,
0000100000
0000000000
0000000000
0000000000
,
0000000000
0000000000
0000000000
0000010000
,
0000010000
0000000000
0000000000
0000000000
,
0000000100
0000000000
0000000000
0000001000
,
0000001000
0000000000
0000000000
0000000000
,
0000010000
0000000000
0000000000
0001000000
,
0001000000
0000000000
0000000000
0000000000
,
0000100000
0000000000
0000000000
0010000000
,
0010000000
0000000000
0000000000
0000000000
,
0000100000
0000000000
0000000000
0000000000
,
1000000000
0000000000
0000000000
0000000000
,
0000000000
0000000000
0000000000
0000000000
,
0000100000
0000000000
0000000000
0000000000
,
0000000000
0000000000
0000000000
0000000000
,
0000000100
0000000000
0000000100
0000000000
,
0000000100
0000000000
0000000000
0000000000
,
0000010000
0000000000
0000010000
0000000000
,
0000010000
0000000000
0000000000
0000000000
,
0000001000
0000000000
0000001000
0000000000
,
0000001000
0000000000
0000000000
0000000000
,
0001000000
0000000000
0001000000
0000000000
,
0001000000
0000000000
0001000000
0000000000
,
0002000000
0000000000
0000000000
0000000000
,
0000000000
0000000000
0000000000
0000000000
,
0003000000
0000000000
0000000000
0000000000
,
0000000000
0000000000
0001000000
0001000000
,
0000000000
0000000000
0000000000
0000000000
,
0010000000
0000000000
0010000000
0000000000
,
0010000000
0000000000
0000000000
0000000000
,
0000010000
0000000000
0000010000
0000000000
,
0000010000
0000000000
0000000000
0000000000
,
0001000000
0000000000
0001000000
0000000000
,
0001000000
0000000000
0000000000
0000000000
,
0000000100
0000000000
0000000100
0000000000
,
0000000100
0000000000
0000000000
0000000000
;
