#TITLE:Swing Song;
#SUBTITLE:;
#ARTIST:Rikki & Daz;
#TITLETRANSLIT:;
#SUBTITLETRANSLIT:;
#ARTISTTRANSLIT:;
#CREDIT:;
#BANNER:swingsong-banner.png;
#SONGINFO:swingsong-songinfo.png;
#BACKGROUND:swingsong-bg.png;
#LYRICSPATH:;
#CDTITLE:./CDTITLES/neon.png;
#CHARACTER:./SongCharacters/rikkindaz;
#MUSIC:Swing Song.mp3;
#OFFSET:-0.640;
#SAMPLESTART:30.540;
#SAMPLELENGTH:12.000;
#SELECTABLE:YES;
#BPMS:0.000=200.000;
#STOPS:;
#BGCHANGES:;
// cache tags:
#FIRSTBEAT:40.000;
#LASTBEAT:340.000;
#SONGFILENAME:Songs/Neon FM/Swing Song/Swing Song.sm;
#HASMUSIC:1;
#HASBANNER:1;
#MUSICLENGTH:105.952;
// end cache tags

//---------------pump-single - ----------------
#NOTES:
     pump-single:
     :
     Hard:
     80:
     0.535,0.642,0.057,0.104,0.028,380.000,6.000,11.000,0.000,0.000:
00000
00000
00000
00000
,
00000
00000
00000
00000
,
00000
00000
00000
00000
,
00000
00000
00000
00000
,
00000
00000
00000
00000
,
00000
00000
00000
00000
,
00000
00000
00000
00000
,
00000
00000
00000
00000
,
00000
00000
00000
00000
,
00000
00000
00000
00000
,
01000
00000
00010
10000
00000
10000
00100
00000
,
01000
00000
00001
00100
00000
00100
00010
00000
,
01000
00000
00010
01000
00000
01000
00001
00000
,
10000
00000
00100
01000
00000
01000
00010
00000
,
10000
00000
00001
01000
00000
01000
00001
00000
,
00100
00000
00010
01000
00000
01000
00100
00000
,
20000
00001
00001
30001
,
02020
00000
00000
00000
00000
00000
00000
03030
,
10000
00100
10000
00010
00000
00010
00100
00000
,
00001
01000
00010
01000
00000
01000
00001
00000
,
10000
00001
01000
00100
00000
00100
10000
00000
,
00010
00100
00010
01000
00000
01000
00001
00000
,
10000
00010
00000
00010
00000
00100
00001
00000
,
10000
00001
00000
00100
00000
00001
01000
00000
,
00100
10000
00000
00010
00000
10000
00100
00000
,
01000
00010
00000
01000
00000
00100
10000
00000
,
00100
01000
00100
01000
00000
01000
00100
00000
,
10000
00010
10000
00010
00000
00010
10000
00000
,
00001
00100
00001
00100
00000
00100
00001
00000
,
01000
00100
01000
00100
00000
00100
01000
00000
,
00010
10000
00000
10000
00000
10000
00010
00100
,
00001
10000
00000
00000
10000
00100
01000
00100
,
10000
00010
10000
00001
,
00200
00000
00000
00300
,
10000
00010
00000
10000
00010
00000
10000
00000
,
00010
00100
00001
01000
00000
01000
00010
00000
,
00100
00001
00000
00100
00001
00000
00100
00000
,
00010
01000
00100
10000
00000
10000
00001
00000
,
01000
00001
00000
01000
00001
00000
01000
00000
,
00001
00100
00010
10000
00000
10000
00001
00000
,
00100
00010
00000
00100
00010
00000
00100
00000
,
00001
10000
00100
01000
00000
01000
00010
01000
,
00010
00000
01000
00001
01000
00000
00001
01000
,
00100
10000
00100
10000
00010
00000
00010
10000
,
00000
10000
00100
00000
00100
01000
00000
01000
,
00001
00010
00001
00010
00000
00010
00001
00000
,
10000
00000
00100
00000
01000
00010
00000
00010
,
10000
00000
00001
00000
00100
00010
00000
00010
,
00100
00000
00001
00000
00001
01000
00000
01000
,
00100
00000
10000
00000
00100
01000
00000
01000
,
00001
00000
10000
00000
00010
10000
00000
10000
,
01000
00000
10000
00000
00010
00100
00000
00100
,
00001
00000
01000
00000
00100
10000
00000
10000
,
00001
00000
00100
00000
00010
00100
00000
00100
,
00010
00000
10000
00020
00000
00000
10030
00000
,
00001
00000
01000
00020
00000
00000
01030
00000
,
00100
00000
10000
00002
00000
00000
10003
00000
,
01000
00000
10000
00200
00000
00000
10300
00000
,
10100
01100
10100
01100
,
10100
00000
10000
00010
00000
00010
10000
00001
,
00200
00010
00010
00310
,
01000
00100
10000
00001
,
00100
00000
00010
00000
00100
00000
00010
00000
00000
00000
00000
00000
,
00001
00000
01000
00000
00001
00000
01000
00000
00000
00000
00000
00000
,
00010
10000
00010
10000
00010
10000
00010
10000
,
00001
00000
01000
00000
00001
00000
01000
00000
00000
00000
00000
00000
,
00200
00000
00000
00000
,
10000
10000
10000
10300
,
00001
00100
00001
01000
00000
01000
00100
00000
,
10000
00010
01000
00010
00000
00010
10000
00000
,
00001
10000
00010
00100
00000
00100
00001
00000
,
01000
00100
01000
00010
00000
00010
10000
00000
,
00001
01000
00000
01000
00000
00100
10000
00000
,
00001
10000
00000
00100
00000
10000
00010
00000
,
00100
00001
00000
01000
00000
00001
00100
00000
,
00010
01000
00000
00010
00000
00100
00001
00000
,
00100
00010
00100
00010
00000
00010
00100
00000
,
00001
01000
00001
01000
00000
01000
00001
00000
,
10000
00100
10000
00100
00000
00100
10000
00000
,
00010
00100
00010
00100
00000
00100
00010
00000
,
01000
00001
00000
00001
00000
00001
01000
00100
,
10000
00001
00000
00000
00001
00100
00010
00100
,
00001
01000
00001
10000
,
00010
00000
01000
00100
00000
00100
01000
00010
,
00200
00000
00000
00000
,
00301
00000
00000
00000
;

//---------------pump-single - ----------------
#NOTES:
     pump-single:
     :
     Medium:
     66:
     0.425,0.642,0.000,0.123,0.028,302.000,0.000,13.000,0.000,0.000:
00000
00000
00000
00000
,
00000
00000
00000
00000
,
00000
00000
00000
00000
,
00000
00000
00000
00000
,
00000
00000
00000
00000
,
00000
00000
00000
00000
,
00000
00000
00000
00000
,
00000
00000
00000
00000
,
00000
00000
00000
00000
,
00000
00000
00000
00000
,
00001
00000
00000
01000
00000
00000
00010
00000
,
10000
00000
00000
00100
00000
00000
01000
00000
,
00001
00000
00000
00100
00000
00000
00010
00000
,
10000
00000
00000
01000
00000
00000
10000
00000
,
00010
00000
00000
01000
00000
00000
00100
00000
,
10000
00000
00000
00010
00000
00000
00100
00000
,
00001
00000
00000
10000
00000
00000
00010
00000
,
02000
00000
00000
00000
,
03001
00000
10000
00100
00000
10000
00100
00000
,
10000
00000
00001
00100
00000
00001
00100
00000
,
00010
00000
01000
00100
00000
01000
00100
00000
,
01000
00000
00010
00100
00000
00010
00100
00000
,
10000
00000
00010
01000
00000
00010
01000
00000
,
00010
00000
10000
00001
00000
10000
00001
00000
,
00100
00000
00010
10000
00000
00010
10000
00000
,
01000
00000
10000
00100
00000
10000
00100
00000
,
01000
00000
00001
00100
00000
00001
00100
00000
,
00001
00000
00010
00001
00000
00010
00001
00000
,
10000
00000
00001
01000
00000
00001
01000
00000
,
00010
00000
00100
00001
00000
00100
00001
00000
,
01000
00000
00010
00100
00000
00010
00100
00000
,
00001
00000
01000
00100
00000
01000
00100
00000
,
10000
00000
00010
01000
00000
00010
01000
00000
,
00001
00000
10000
00001
00000
10000
00001
00000
,
00000
10000
00000
00000
10000
00000
00100
00000
,
01000
00000
00010
00100
00000
00100
00010
00100
,
00000
00001
00000
00000
00001
00000
00100
00000
,
00010
00000
01000
00010
00000
00100
00001
10000
,
00000
00010
00000
00000
00010
00000
01000
00000
,
00001
00000
00100
00001
00000
01000
00010
00100
,
00000
00001
00000
00000
10000
00000
00010
00000
,
01000
00000
00100
01000
00000
00001
00000
00001
,
00100
00010
00100
00001
10000
00100
01000
00000
,
00020
20030
30020
02030
,
03002
00000
00000
10000
00000
00000
10003
00000
,
00100
00000
00000
00100
00000
00000
00100
00000
,
01000
00010
00000
00010
,
10000
00100
00000
00100
,
01000
00001
00000
00001
,
00100
00010
00000
00010
,
10000
01000
00000
01000
,
10000
00100
00000
00100
,
01000
00010
00000
00010
,
00100
00010
00000
00010
,
01000
00001
00000
00001
,
10000
00001
00000
00001
,
01000
00100
00000
00100
,
10000
00100
00000
00100
,
01000
00010
01000
00010
,
00100
00001
00100
00001
,
00200
00000
00000
00000
,
00320
00000
00000
10000
,
10030
00000
00100
00000
10000
00000
00200
00000
00000
00000
00000
00000
,
01300
00000
00010
00000
01000
00000
00020
00000
00000
00000
00000
00000
,
00130
00100
00100
00100
,
00001
00000
01000
00000
00001
00000
02000
00000
00000
00000
00000
00000
,
03020
00000
00000
00000
,
10000
10000
10000
10030
,
00001
00000
10000
00100
00000
10000
00100
00000
,
10000
00000
00001
00100
00000
00001
00100
00000
,
00010
00000
01000
00100
00000
01000
00100
00000
,
01000
00000
00010
00100
00000
00010
00100
00000
,
10000
00000
00010
01000
00000
00010
01000
00000
,
00010
00000
10000
00001
00000
10000
00001
00000
,
00100
00000
00010
10000
00000
00010
10000
00000
,
01000
00000
10000
00100
00000
10000
00100
00000
,
01000
00000
00001
00100
00000
00001
00100
00000
,
00001
00000
00010
00001
00000
00010
00001
00000
,
10000
00000
00001
01000
00000
00001
01000
00000
,
00010
00000
00100
00001
00000
00100
00001
00000
,
01000
00000
00010
00100
00000
00010
00100
00000
,
00001
00000
01000
00100
00000
01000
00100
00000
,
10000
00000
00001
00010
00000
00000
00001
00000
,
00000
00010
00000
00010
00001
00000
10000
00000
,
00020
00000
00000
00000
,
10030
00000
00000
00000
;

//---------------pump-single - ----------------
#NOTES:
     pump-single:
     :
     Easy:
     32:
     0.178,0.361,0.000,0.009,0.000,131.000,0.000,1.000,0.000,0.000:
00000
00000
00000
00000
,
00000
00000
00000
00000
,
00000
00000
00000
00000
,
00000
00000
00000
00000
,
00000
00000
00000
00000
,
00000
00000
00000
00000
,
00000
00000
00000
00000
,
00000
00000
00000
00000
,
00000
00000
00000
00000
,
00000
00000
00000
00000
,
00001
00000
10000
00000
,
00100
00000
01000
00000
,
00100
00000
10000
00000
,
00010
00000
00100
00000
,
00001
00000
01000
00000
,
00100
00000
10000
00000
,
00010
00000
00100
00000
,
00001
00000
00000
00000
,
00001
10000
00000
00000
,
00100
01000
00000
00000
,
00010
00100
00000
00000
,
01000
00001
00000
00000
,
10000
00100
00000
00000
,
01000
00010
00000
00000
,
00100
00001
00000
00000
,
10000
00001
00000
00000
,
01000
01000
00010
00010
,
00100
00100
00001
00001
,
10000
10000
00001
00001
,
00100
00100
00010
00010
,
01000
01000
00000
00000
,
00001
00001
00000
00000
,
10000
00100
00000
00000
,
00010
00100
00000
00000
,
10000
00000
00001
00000
,
01000
00000
00010
00000
,
00100
00000
00001
00000
,
10000
00000
00100
00000
,
00010
00000
00100
00000
,
10000
00000
01000
00000
,
10000
00000
00010
00000
,
00100
00000
00001
00000
,
01000
00000
01000
00000
,
00010
00000
00010
00000
,
10000
00000
00001
00000
,
10000
00001
10000
00001
,
00100
00000
00000
00000
,
00100
00000
00000
00000
,
00010
00000
00000
00000
,
00010
00000
00000
00000
,
01000
00000
00000
00000
,
01000
00000
00000
00000
,
00001
00000
00000
00000
,
00001
00000
00000
00000
,
10000
00000
00000
00000
,
10000
00000
00000
00000
,
00100
00000
00000
00000
,
00100
00000
00000
00000
,
01000
00010
00100
00010
,
01000
00000
00000
00000
,
00001
00000
00000
00000
,
10000
00000
00000
00000
,
00100
00000
00000
00000
,
00100
00000
00000
00000
,
00100
00000
00000
00000
,
00100
00000
00000
00000
,
00100
00000
00000
00000
,
00000
00000
00000
00000
,
00010
00000
00000
00000
,
01000
00000
00000
00000
,
00001
00000
00000
00000
,
10000
00000
00000
00000
,
00100
00000
00000
00000
,
01000
00000
00000
00000
,
00010
00000
00000
00000
,
00100
00000
00000
00000
,
00001
00100
00000
00000
,
10000
00100
00000
00000
,
01000
00010
00000
00000
,
00100
00001
00000
00000
,
01000
00100
00000
00000
,
10000
00010
00000
00000
,
00100
00001
00000
00000
,
10000
00000
00100
00000
,
02000
00000
00000
00000
,
03010
00000
00000
00000
;

//---------------pump-single - Copied from----------------
#NOTES:
     pump-single:
     Copied from:
     Beginner:
     15:
     0.085,0.160,0.000,0.019,0.000,61.000,0.000,2.000,0.000,0.000:
00000
00000
00000
00000
,
00000
00000
00000
00000
,
00000
00000
00000
00000
,
00000
00000
00000
00000
,
00000
00000
00000
00000
,
00000
00000
00000
00000
,
00000
00000
00000
00000
,
00000
00000
00000
00000
,
00000
00000
00000
00000
,
00000
00000
00000
00000
,
00010
00000
00000
00000
,
01000
00000
00000
00000
,
00001
00000
00000
00000
,
10000
00000
00000
00000
,
00100
00000
00000
00000
,
01000
00000
00000
00000
,
00100
00000
00000
00000
,
10000
00000
00000
00000
,
00001
00000
00000
00000
,
00000
00000
00000
00000
,
00010
00000
00000
00000
,
00000
00000
00000
00000
,
00100
00000
00000
00000
,
00000
00000
00000
00000
,
01000
00000
00000
00000
,
00000
00000
00000
00000
,
10000
00000
00000
00000
,
00000
00000
00000
00000
,
00001
00000
00000
00000
,
00000
00000
00000
00000
,
10000
00000
00000
00000
,
00000
00000
00000
00000
,
00001
00000
00000
00000
,
00000
00000
00000
00000
,
00100
00000
00000
00000
,
00100
00000
00000
00000
,
00100
00000
00000
00000
,
00100
00000
00000
00000
,
00100
00000
00000
00000
,
00100
00000
00000
00000
,
00100
00000
00000
00000
,
00100
00000
00000
00000
,
00100
00000
00000
00000
,
00100
00000
00000
00000
,
00100
00000
00000
00000
,
00100
00000
00000
00000
,
00010
00000
00000
00000
,
00000
00000
00000
00000
,
00001
00000
00000
00000
,
00000
00000
00000
00000
,
10000
00000
00000
00000
,
00000
00000
00000
00000
,
01000
00000
00000
00000
,
00000
00000
00000
00000
,
00010
00000
00000
00000
,
00000
00000
00000
00000
,
00100
00000
00000
00000
,
00000
00000
00000
00000
,
00010
00000
00000
00000
,
10000
00000
00000
00000
,
00001
00000
00000
00000
,
00000
00000
00000
00000
,
10000
00000
00000
00000
,
10000
00000
00000
00000
,
10000
00000
10000
00000
,
10000
00000
00000
00000
,
00002
00000
00000
00000
,
00000
00000
00000
00000
,
10003
00000
00000
00000
,
00100
00000
00000
00000
,
01000
00000
00000
00000
,
00010
00000
00000
00000
,
00100
00000
00000
00000
,
00001
00000
00000
00000
,
10000
00000
00000
00000
,
00001
00000
00000
00000
,
01000
00000
00000
00000
,
00010
00000
00000
00000
,
10000
00000
00000
00000
,
00001
00000
00000
00000
,
00100
00000
00000
00000
,
00001
00000
00000
00000
,
01000
00000
00000
00000
,
00001
00000
00000
00000
,
20000
00000
00000
00000
,
30100
00000
00000
00000
;
