#TITLE:200 Gigs;
#SUBTITLE:(Analog Tragedy mix);
#ARTIST:Pop'nKO;
#TITLETRANSLIT:;
#SUBTITLETRANSLIT:;
#ARTISTTRANSLIT:;
#CREDIT:PopnKO;
#BANNER:200gigsat-banner.png;
#SONGINFO:200gigsat-songinfo.png;
#BACKGROUND:200gigsat-bg.png;
#LYRICSPATH:;
#CDTITLE:./CDTITLES/PopnkoCD.png;
#CHARACTER:./SongCharacters/popnko;
#MUSIC:200 Gigs AT.mp3;
#OFFSET:0.000;
#SAMPLESTART:25.260;
#SAMPLELENGTH:12.000;
#SELECTABLE:YES;
#BPMS:0.000=114.000;
#STOPS:;
#BGCHANGES:-2.000=visffd320.avi=1.000=1=1=0
;
// cache tags:
#FIRSTBEAT:16.000;
#LASTBEAT:176.000;
#SONGFILENAME:Songs/Neon FM/200GigsAT/200GigsAT.sm;
#HASMUSIC:1;
#HASBANNER:1;
#MUSICLENGTH:95.268;
// end cache tags

//---------------pump-single - ----------------
#NOTES:
     pump-single:
     :
     Hard:
     80:
     0.480,0.670,0.021,0.073,0.488,311.000,2.000,7.000,0.000,0.000:
00000
00000
00000
00000
,
00000
00000
00000
00000
,
00000
00000
00000
00000
,
00000
00000
00000
00000
,
20000
00000
00100
30100
00020
00000
00100
00130
,
02000
00000
00100
03100
00002
00000
00100
00103
,
00020
00000
00001
00031
02000
00000
00001
03001
,
20000
00000
00010
30010
01000
00000
00000
00000
,
10000
00000
00000
01000
00000
00000
00100
00000
00000
00000
10000
00000
00000
10000
00000
00000
,
10000
00000
00000
01000
00000
00000
00100
00000
00000
00000
00010
00000
00000
00000
00000
00000
,
10000
00000
00000
01000
00000
00000
00100
00000
00000
00000
10000
00000
00000
10000
00000
00000
,
10000
00000
00000
01000
00000
00000
00100
00000
00000
00000
00000
00000
00000
00000
00000
00000
,
01000
00000
00000
00001
00000
00000
00010
00000
00000
00000
00100
00000
01000
00000
00000
00000
,
01000
00001
00000
00010
00000
00100
01000
00000
,
01000
00000
00000
00001
00000
00000
00010
00000
00000
00000
00100
00000
01000
00000
00000
00000
,
01000
00000
00001
00000
00000
00000
00010
00000
00000
00000
01000
00000
00100
00000
01000
10000
,
01000
00000
00010
00001
00010
00000
00010
00000
00000
00000
00100
01000
00100
00000
01000
10000
,
01000
00001
00100
00010
00000
00100
01000
10000
,
01000
00000
00010
00001
00010
00000
00010
00000
00000
00000
00100
01000
00100
00000
01000
10000
,
01000
00000
00001
00000
00100
00000
00010
00000
00100
01000
00100
01000
10000
00000
10000
00000
,
10100
00000
01010
00000
10000
00100
01000
00010
,
00100
00000
00001
00000
01000
00000
00010
00000
10000
00000
00100
00000
10000
00000
00100
01000
,
00100
10000
00010
01000
00001
00100
00010
01000
,
00100
10000
00010
01000
00001
00100
00010
01000
,
00100
10000
01000
10000
01000
00100
01000
00100
00010
00100
00010
00001
00010
00001
00010
00000
,
00010
00000
00100
00010
00100
00000
00000
00000
00010
00000
00100
00010
00100
00000
00000
00000
,
00001
00010
00001
00010
00100
00010
00100
01000
00100
01000
10000
01000
10000
01000
00000
00000
,
01000
00000
00100
01000
00100
00000
00000
00000
01000
00000
00100
01000
00100
00000
00000
00000
,
00000
00001
00100
00001
00010
00001
00010
00001
00100
00010
00000
00000
00000
00000
00000
00000
,
00000
10000
00100
10000
01000
10000
01000
10000
00100
00000
00000
00000
00000
00000
00000
00000
,
00000
00001
01000
00001
00100
00001
00100
00010
01000
00010
00000
00000
00000
00000
00000
00000
,
10000
00010
10000
00100
10000
00100
01000
00010
00000
00000
00000
00000
00000
00000
00000
00000
,
01000
00000
00000
00001
00000
00000
00010
00000
00000
00000
00100
00000
01000
00000
00000
00000
,
01000
00001
00000
00010
00000
00100
01000
00000
,
01000
00000
00000
00001
00000
00000
00010
00000
00000
00000
00100
00000
01000
00000
00000
00000
,
01000
00000
00001
00000
00000
00000
00010
00000
00000
00000
01000
00000
00100
00000
01000
10000
,
01000
10000
01000
10000
00000
00010
00100
00010
00000
00100
01000
00100
00000
01000
10000
01000
,
00100
01000
10000
01000
00100
01000
10000
01000
00100
01000
10000
01000
00100
01000
10000
01000
,
00000
00010
00100
00010
00000
00100
01000
00100
00000
01000
00010
01000
00000
00010
00100
00010
,
00001
00010
00100
00010
00001
00010
00100
00010
00001
00010
00100
00010
00100
00010
00100
00010
,
00001
00000
00000
00010
00000
00000
00100
00000
00000
00000
01000
00000
10000
00000
00000
00000
,
00001
00010
00000
00100
00000
01000
10000
00000
,
00001
00000
00000
00010
00000
00000
00100
00000
00000
00000
01000
00000
10000
00000
00000
00000
,
00001
00000
00010
00000
00000
00000
00100
00000
01000
00100
00010
00100
01000
00000
00000
00000
,
01000
00000
00000
00000
;

//---------------pump-single - ----------------
#NOTES:
     pump-single:
     :
     Medium:
     56:
     0.271,0.277,0.031,0.063,0.079,172.000,3.000,6.000,0.000,0.000:
00000
00000
00000
00000
,
00000
00000
00000
00000
,
00000
00000
00000
00000
,
00000
00000
00000
00000
,
10000
00010
00100
00001
,
01000
00100
10000
00010
,
00100
00001
10000
00100
,
01000
00010
02000
03000
,
00200
00000
00000
00000
,
00302
00000
00000
00000
,
20003
00000
00000
00000
,
30200
00000
00000
00300
,
00001
00000
00000
10000
00000
00000
00001
00000
00000
00000
10000
00000
00001
00000
00000
00000
,
01000
00000
00000
00010
00000
00000
01000
00000
00000
00000
00010
00000
01000
00000
00000
00000
,
10000
00000
00000
00001
00000
00000
10000
00000
00000
00000
00001
00000
10000
00000
00000
00000
,
01000
00010
00000
01000
00000
00010
00100
00000
,
01000
00000
00000
00001
00000
00000
10000
00000
00000
00000
00010
00000
00100
00000
00000
00000
,
00010
00000
00000
01000
00000
00000
00001
00000
00000
00000
10000
00000
01000
00000
00000
00000
,
10000
00000
00000
00100
00000
00000
01000
00000
00000
00000
00010
00000
01000
00000
00000
00000
,
00001
10000
00000
00010
00000
00100
00100
00000
,
10001
00000
00100
00001
00000
10000
00000
00010
,
00000
10000
00000
00001
00000
01000
00000
00100
,
00000
01000
00000
10000
00000
00100
00000
00001
,
00000
00010
00000
00100
00000
00001
00100
00000
,
10001
01000
00010
10000
,
00001
01000
00100
10000
,
00010
00100
00001
01000
,
00010
01000
00001
01100
,
00000
00100
00001
00000
01000
01000
01000
00000
,
00000
00100
10000
00000
00010
00010
00010
00000
,
00000
00100
00001
00000
01000
01000
01000
00000
,
00000
00100
10000
00000
00010
00010
00010
00000
,
00001
00000
00000
10000
00000
00000
00001
00000
00000
00000
10000
00000
00001
00000
00000
00000
,
01000
00000
00000
00010
00000
00000
01000
00000
00000
00000
00010
00000
01000
00000
00000
00000
,
10000
00000
00000
00001
00000
00000
10000
00000
00000
00000
00001
00000
10000
00000
00000
00000
,
01000
00010
00000
01000
00000
00010
00100
00000
,
01000
00000
00000
00001
00000
00000
10000
00000
00000
00000
00010
00000
00100
00000
00000
00000
,
00010
00000
00000
01000
00000
00000
00001
00000
00000
00000
10000
00000
01000
00000
00000
00000
,
10000
00000
00000
00100
00000
00000
01000
00000
00000
00000
00010
00000
01000
00000
00000
00000
,
00001
10000
00000
00010
00000
00100
00100
00000
,
00010
00000
00000
01000
00000
00000
00010
00000
00000
00000
10000
00000
00100
00000
00000
00000
,
01000
00001
00000
00010
00000
00100
01000
00000
,
00001
00000
00000
10000
00000
00000
00010
00000
00000
00000
01000
00000
00100
00000
00000
00000
,
10000
00000
00000
00001
00000
00000
01000
00000
00000
00000
00010
00000
00020
00000
00000
00000
,
00030
00000
00000
00000
;

//---------------pump-single - ----------------
#NOTES:
     pump-single:
     :
     Easy:
     24:
     0.168,0.205,0.000,0.042,0.000,108.000,0.000,4.000,0.000,0.000:
00000
00000
00000
00000
,
00000
00000
00000
00000
,
00000
00000
00000
00000
,
00000
00000
00000
00000
,
00001
00000
00100
00000
,
00001
00000
00100
00000
,
10000
00000
00100
00000
,
10000
00000
00100
00000
,
00020
00000
00000
00000
,
00230
00000
00000
00000
,
00302
00000
00000
00000
,
20003
00000
00000
00000
,
30100
01000
00100
01000
,
00010
00100
00010
00100
,
00001
00100
00001
00100
,
10000
00100
10000
00100
,
01000
00010
00100
00001
,
10000
00100
01000
00010
,
00100
00001
01000
00010
,
10000
00100
10000
00010
,
01000
00000
00001
00000
,
01000
00000
00010
00000
,
10000
00000
00100
00000
,
10000
00000
01000
00000
,
10000
00100
10000
00000
,
00001
00100
00001
00000
,
01000
00010
01000
00000
,
00100
00010
00100
00000
,
00001
00000
00000
00000
,
00100
00000
00000
00000
,
00010
00000
00000
00000
,
01000
00000
00000
00000
,
00100
10000
00100
01000
,
00100
00010
00100
00001
,
00100
00010
00100
01000
,
00100
10000
00010
00010
,
00001
00010
00100
01000
,
10000
01000
00100
00010
,
00001
00010
00100
01000
,
10000
01000
00100
00010
,
00001
00000
00001
00000
,
00001
00000
00001
00000
,
00001
00000
00001
00000
,
00001
00000
00001
00000
;

//---------------pump-single - Copied from----------------
#NOTES:
     pump-single:
     Copied from:
     Beginner:
     12:
     0.075,0.113,0.000,0.000,0.000,50.000,0.000,0.000,0.000,0.000:
00000
00000
00000
00000
,
00000
00000
00000
00000
,
00000
00000
00000
00000
,
00000
00000
00000
00000
,
01000
00000
00000
00000
,
00100
00000
00000
00000
,
10000
00000
00000
00000
,
00100
00000
00000
00000
,
00001
00000
00000
00000
,
00000
00000
00000
00000
,
01000
00000
00000
00000
,
00000
00000
00000
00000
,
00010
00100
00000
00000
,
00010
00100
00000
00000
,
00010
00100
00000
00000
,
00010
00100
00000
00000
,
01000
00100
00000
00000
,
01000
00100
00000
00000
,
01000
00100
00000
00000
,
01000
00100
00000
00000
,
10000
00000
00000
00000
,
00001
00000
00000
00000
,
10000
00000
00000
00000
,
00010
00000
00000
00000
,
00100
00000
00000
00000
,
00000
00000
00000
00000
,
00100
00000
00000
00000
,
00000
00000
00000
00000
,
00001
00000
00000
00000
,
00000
00000
00000
00000
,
00001
00000
00000
00000
,
00000
00000
00000
00000
,
10000
01000
00000
00000
,
10000
01000
00000
00000
,
10000
01000
00000
00000
,
10000
01000
00000
00000
,
00010
00100
00000
00000
,
00010
00100
00000
00000
,
00010
00100
00000
00000
,
00010
00100
00000
00000
,
00001
00000
00000
00000
,
00100
00000
00000
00000
,
00010
00000
00000
00000
,
01000
00000
00000
00000
;
