#TITLE:Skyward;
#SUBTITLE:;
#ARTIST:DJ Siamey;
#TITLETRANSLIT:;
#SUBTITLETRANSLIT:;
#ARTISTTRANSLIT:;
#CREDIT:;
#BANNER:skyward-banner.png;
#SONGINFO:skyward-songinfo.png;
#BACKGROUND:skyward-bg.png;
#LYRICSPATH:;
#CDTITLE:;
#CHARACTER:./SongCharacters/Siamey;
#MUSIC:Skyward.mp3;
#OFFSET:-0.040;
#SAMPLESTART:22.200;
#SAMPLELENGTH:12.000;
#SELECTABLE:YES;
#BPMS:0.000=140.000;
#STOPS:;
#BGCHANGES:-0.450=skyward320compressed.avi=1.000=1=1=0
;
// cache tags:
#FIRSTBEAT:20.000;
#LASTBEAT:228.000;
#SONGFILENAME:Songs/Neon FM/Skyward/Skyward.sm;
#HASMUSIC:1;
#HASBANNER:1;
#MUSICLENGTH:104.620;
// end cache tags

//---------------pump-single - ----------------
#NOTES:
     pump-single:
     :
     Hard:
     82:
     0.486,0.599,0.057,0.115,0.282,338.000,6.000,12.000,0.000,0.000:
00000
00000
00000
00000
,
00000
00000
00000
00000
,
00000
00000
00000
00000
,
00000
00000
00000
00000
,
00000
00000
00000
00000
,
00100
00000
00000
00000
00000
00000
00000
01000
,
00010
00000
00000
00000
,
00100
00000
00000
00000
00000
00000
00000
01000
,
00020
00000
00000
00000
,
01030
01000
00010
00010
,
10000
10000
00001
00001
,
10000
00100
01100
00000
00010
00000
00100
00000
,
00001
00100
00110
00000
01000
00000
00100
00000
,
10000
01000
00100
01000
10000
00010
00100
00001
,
01000
00100
00010
00100
01000
00010
10000
00001
,
00100
00010
00001
00010
00100
00001
01000
00100
,
10000
01000
00100
00001
00010
00100
01000
00010
,
00000
00000
00100
00000
00000
00001
00000
00000
01000
00000
00010
00000
10000
00100
00000
00100
,
00000
00000
01000
00000
00001
00000
00100
00000
00010
00000
00100
00000
00001
10000
00000
10000
,
00000
00010
00000
00000
10000
00000
00001
00000
01000
00000
00100
00000
01000
00010
00000
00010
,
00000
10000
00000
00000
00001
00000
00100
00000
00010
00000
01000
00000
00010
10000
00000
10000
,
00001
00000
00000
00000
01000
00000
00000
00000
00010
00000
00100
00000
00001
01000
00000
01000
,
00001
00000
00000
00000
00100
00000
00000
00000
00010
00000
01000
00000
00010
10000
00000
10000
,
00010
00000
00000
00000
01000
00000
00000
00000
00100
00000
10000
00000
00001
00100
00000
00100
,
00002
00000
00000
00000
,
10003
00000
00100
00000
01000
00000
00100
00000
00010
00000
00100
00000
10000
00001
00000
10000
,
00010
00000
00100
00000
00001
00000
01000
00000
00100
00000
00010
00000
00001
01000
00000
00001
,
00100
00000
00010
00000
10000
00000
00001
00000
01000
00000
00010
00000
00100
00001
00000
00100
,
00010
00000
10000
00000
01000
00000
00100
00000
00001
00000
00010
00000
00100
10000
00000
10000
,
00001
00000
00100
00000
00010
00000
00100
00000
01000
00000
00100
00000
00001
10000
00000
00001
,
01000
00000
00100
00000
10000
00000
00010
00000
00100
00000
01000
00000
10000
00010
00000
10000
,
00100
00000
01000
00000
00001
00000
10000
00000
00010
00000
01000
00000
00100
10000
00000
00100
,
02000
00000
00000
00000
,
03010
00000
00100
00000
00001
01000
00000
00001
01000
00000
00010
00000
00100
00001
00000
00100
,
00001
00000
10000
00000
01000
10000
00000
01000
10000
00000
00100
00000
01000
00010
00000
01000
,
00010
00000
00100
00000
00001
10000
00000
00001
10000
00000
00100
00000
01000
00100
00000
01000
,
00100
00000
10000
00000
00001
01000
00000
00001
01000
00000
00010
01000
00010
01000
00010
00000
,
01000
00000
00100
00000
10000
00010
00000
10000
00010
00000
01000
00000
00100
10000
00000
00100
,
10000
00000
00001
00000
00010
00001
00000
00010
00001
00000
00100
00000
00010
01000
00000
00010
,
01000
00000
00100
00000
10000
00001
00000
10000
00001
00000
00100
00000
00010
00100
00000
00010
,
00200
00000
00000
00000
,
00310
10000
00001
00010
00001
01000
00010
00100
,
00001
10000
00100
10000
00010
00010
01000
01100
,
00100
10000
00001
00100
00001
01000
00100
00010
,
00100
01000
00010
00100
01000
01000
10000
10001
,
00001
01000
00001
00010
00100
10000
01000
00100
,
00001
00010
00100
10000
00001
00001
01000
01010
,
00010
10000
01000
10000
00001
00010
00001
00100
,
00010
01000
00100
10000
00010
00010
01000
01001
,
00002
10000
10000
10000
,
00203
00001
00001
00001
,
02300
10000
10000
10000
,
23000
00010
00010
00010
,
30020
01000
01000
01000
,
02030
00001
00001
00001
,
03020
00100
00100
00100
,
00230
00000
00000
00000
,
00300
00000
00000
00000
;

//---------------pump-single - ----------------
#NOTES:
     pump-single:
     :
     Medium:
     53:
     0.329,0.436,0.076,0.191,0.033,213.000,8.000,20.000,0.000,0.000:
00000
00000
00000
00000
,
00000
00000
00000
00000
,
00000
00000
00000
00000
,
00000
00000
00000
00000
,
00000
00000
00000
00000
,
00000
00000
00000
00000
,
00000
00000
00000
00000
,
00000
00000
00000
00000
,
00000
00000
00000
00000
,
00100
00001
10000
00100
,
10000
00001
00100
00001
,
01000
00010
00100
00010
,
01000
00100
01000
00010
,
10000
00100
10000
00000
00010
00000
00100
00000
,
00001
01000
00001
00000
00100
00000
00010
00000
,
01000
00100
01000
00000
00010
00000
10000
00000
,
00100
00010
00001
00000
10000
00000
00100
00000
,
00000
00000
00100
00000
00000
10000
00000
00000
00010
00000
00000
00000
01000
00000
00000
00001
,
00000
00000
00100
00000
00100
00000
00000
00000
00001
00000
00000
00000
10000
00000
00000
00100
,
00000
01000
00000
00000
00010
00000
00000
00000
00100
00000
00000
00000
00010
00000
00000
10000
,
00000
00100
00000
00000
10000
00000
00000
00000
00001
00000
00000
00000
00100
00000
00000
00010
,
01000
00010
10000
00001
,
01000
00000
00010
00000
10000
00000
00001
00100
,
00010
00100
00001
01000
,
00020
20000
00000
30030
,
00010
10000
00010
00000
10020
00000
10030
00000
,
01000
00001
01000
00000
02001
00000
03001
00000
,
10000
00100
10000
00000
10200
00000
10300
00000
,
00001
00100
00001
00000
00201
00000
00301
00000
,
00010
01000
00010
00000
01020
00000
01030
00000
,
00001
10000
00001
00000
10002
00000
10003
00000
,
01000
00010
01000
00000
02010
00000
03010
00000
,
20002
00000
00000
00000
00000
00000
00000
30003
,
00100
00001
00010
00000
00010
00001
01000
00000
,
01000
00010
00100
00000
00100
00010
10000
00000
,
10000
00001
00100
00000
00100
00001
10000
00000
,
10000
00010
01000
00000
01000
00010
10000
00000
,
10000
00001
00100
00000
00100
00010
01000
00000
,
01000
00100
10000
00000
10000
00001
00010
00000
,
00010
00100
01000
00000
01000
00001
00100
00000
,
00020
00000
00000
00000
,
01030
00000
00001
00000
00100
00010
01000
00100
,
10000
00000
00010
00000
00100
00001
01000
00010
,
00100
00000
00001
00000
10000
01000
00100
00010
,
00001
00000
00010
00000
01000
00100
10000
00001
,
00100
00000
00001
00000
01000
00010
00100
00010
,
10000
00000
00100
00000
01000
00100
10000
00010
,
01000
00000
00001
00000
01000
00100
00010
00100
,
10000
00000
00010
00000
00100
00001
00010
00001
,
20000
00000
00001
00000
,
30002
00000
01000
00000
,
02003
00000
00010
00000
,
03020
00000
10000
00000
,
20030
00000
00100
00000
,
30200
00000
01000
00000
,
02300
00000
00001
00000
,
03002
00000
00000
00000
,
00003
00000
00000
00000
;

//---------------pump-single - ----------------
#NOTES:
     pump-single:
     :
     Easy:
     18:
     0.123,0.163,0.038,0.000,0.000,86.000,4.000,0.000,0.000,0.000:
00000
00000
00000
00000
,
00000
00000
00000
00000
,
00000
00000
00000
00000
,
00000
00000
00000
00000
,
00000
00000
00000
00000
,
00000
00000
00000
00000
,
00000
00000
00000
00000
,
00000
00000
00000
00000
,
00000
00000
00000
00000
,
00100
00000
00001
00000
,
10000
00000
00010
00000
,
01000
00000
00100
00000
,
10000
00000
00001
00000
,
00101
00000
00000
00000
,
10100
00000
00000
00000
,
01010
00000
00000
00000
,
00101
00000
00000
00000
,
10000
00000
00000
00000
,
00000
00000
00000
00000
,
00001
00000
00000
00000
,
00000
00000
00000
00000
,
01000
00000
00010
00000
,
01000
00000
00001
00000
,
10000
00000
00100
00000
,
01000
00000
00000
00000
,
00001
00001
00000
00000
,
10000
10000
00100
00000
,
00001
00001
00000
00000
,
10000
10000
00100
00000
,
00010
00010
00000
00000
,
01000
01000
00100
00000
,
00010
00010
00000
00000
,
01000
01000
00100
00000
,
10000
00000
00001
00000
,
01000
01000
00010
00000
,
00001
00000
10000
00000
,
00010
00010
01000
00000
,
00100
00000
10000
00000
,
00001
00100
00001
00000
,
10000
00000
00100
00000
,
00001
10000
00010
00000
,
00010
00000
00010
00000
,
01000
00000
01000
00000
,
00100
00000
00100
00000
,
10000
00000
10000
00000
,
00001
00000
00001
00000
,
00100
00000
00100
00000
,
00010
00000
00010
00000
,
10000
00000
10000
00000
,
00001
00000
00000
00000
,
10000
00000
00000
00000
,
00100
00000
00000
00000
,
00010
00000
00000
00000
,
10000
00000
00000
00000
,
00001
00000
00000
00000
,
00100
00000
00000
00000
,
00100
00000
00000
00000
,
00010
00000
00000
00000
;

//---------------pump-single - Copied from----------------
#NOTES:
     pump-single:
     Copied from:
     Beginner:
     9:
     0.055,0.079,0.000,0.000,0.000,40.000,0.000,0.000,0.000,0.000:
00000
00000
00000
00000
,
00000
00000
00000
00000
,
00000
00000
00000
00000
,
00000
00000
00000
00000
,
00000
00000
00000
00000
,
00000
00000
00000
00000
,
00000
00000
00000
00000
,
00000
00000
00000
00000
,
00000
00000
00000
00000
,
01000
00000
00000
00000
,
00001
00000
00000
00000
,
01000
00000
00000
00000
,
00010
00000
00000
00000
,
10000
00000
00000
00000
,
00100
00000
00000
00000
,
10000
00000
00000
00000
,
00001
00000
00000
00000
,
01000
00000
00000
00000
,
00000
00000
00000
00000
,
00000
00100
00000
00000
,
00000
00000
00000
00000
,
00010
00000
00000
00000
,
00000
00000
00000
00000
,
00000
00100
00000
00000
,
00000
00000
00000
00000
,
00001
00000
00000
00000
,
10000
00000
00000
00000
,
00001
00000
00000
00000
,
10000
00000
00000
00000
,
00001
00000
00000
00000
,
10000
00000
00000
00000
,
00001
00000
00000
00000
,
10000
00000
00000
00000
,
00100
00000
00000
00000
,
00010
00000
00000
00000
,
00100
00000
00000
00000
,
00010
00000
00000
00000
,
01000
00000
00000
00000
,
00100
00000
00000
00000
,
01000
00000
00000
00000
,
00100
00000
00000
00000
,
10000
00000
00000
00000
,
10000
00000
00000
00000
,
00001
00000
00000
00000
,
00001
00000
00000
00000
,
10000
00000
00000
00000
,
10000
00000
00000
00000
,
00001
00000
00000
00000
,
00001
00000
00000
00000
,
01000
00000
00000
00000
,
00000
00000
00000
00000
,
00010
00000
00000
00000
,
00000
00000
00000
00000
,
00100
00000
00000
00000
,
00000
00000
00000
00000
,
10000
00000
00000
00000
;
