#TITLE:Can You Feel The Music;
#SUBTITLE:;
#ARTIST:DJ Marbrax;
#TITLETRANSLIT:;
#SUBTITLETRANSLIT:;
#ARTISTTRANSLIT:;
#CREDIT:;
#BANNER:canyoufeelthemusic-banner.png;
#SONGINFO:canyoufeelthemusic-songinfo.png;
#BACKGROUND:canyoufeelthemusic-bg.png;
#LYRICSPATH:;
#CDTITLE:;
#CHARACTER:./SongCharacters/Marbrax;
#MUSIC:Feel The Music.ogg;
#OFFSET:-0.040;
#SAMPLESTART:17.640;
#SAMPLELENGTH:12.000;
#SELECTABLE:YES;
#BPMS:0.000=130.000;
#STOPS:;
#BGCHANGES:-2.000=visffd320.avi=1.000=1=1=0
;
// cache tags:
#FIRSTBEAT:8.000;
#LASTBEAT:212.000;
#SONGFILENAME:Songs/Neon FM/Can You Feel The Music/Can You Feel The Music.sm;
#HASMUSIC:1;
#HASBANNER:1;
#MUSICLENGTH:97.846;
// end cache tags

//---------------pump-single - ----------------
#NOTES:
     pump-single:
     :
     Hard:
     77:
     0.458,0.515,0.133,0.123,0.296,289.000,13.000,12.000,0.000,0.000:
00000
00000
00000
00000
,
00000
00000
00000
00000
,
20000
00000
00000
00000
,
30002
00000
00000
00000
,
00203
00000
00000
00000
,
00302
00000
00000
00000
,
20003
00000
00000
00000
,
30200
00000
00000
00000
,
02300
00000
00000
00000
,
03010
00000
00000
00000
00000
00000
00000
00000
00000
00000
01000
00010
00000
01000
00000
00000
,
00010
00000
10000
00100
00000
00000
01000
00000
00001
00000
00100
00010
00000
00000
01000
00000
,
00010
00000
10000
00001
00000
00000
00100
00000
00001
00000
01000
00100
00000
00000
10000
00000
,
00010
00000
00100
00001
00000
00000
10000
00000
00100
00000
01000
00100
00000
00000
10000
00000
,
00010
00000
00100
00001
00000
00000
00100
00000
00010
00000
01000
00010
00000
00000
10000
00000
,
00100
00000
10000
00100
00000
00000
01000
00000
00010
00000
00100
00010
00000
00000
01000
00000
,
00001
00000
01000
00001
00000
00000
00100
00000
00010
00000
10000
01000
00000
00000
10000
00000
,
00001
00000
00010
00001
00000
00000
00100
00000
00010
00000
10000
00100
00000
00000
01000
00000
,
00010
00000
00100
00000
00000
00000
00100
00000
00000
00000
00100
00001
00000
00100
00000
00000
,
00010
00000
01000
00000
00001
00000
00100
00000
00010
00000
01000
00100
00000
00000
10000
00000
,
00010
00000
01000
00000
00100
00000
01000
00000
00001
00000
00100
00010
00000
00000
01000
00000
,
00100
00000
10000
00100
00000
00000
10000
00000
00001
00000
00100
00010
00000
00000
00100
00000
,
00001
00000
10000
00000
00100
00000
10000
00000
00010
00000
01000
00100
01000
00000
01000
00000
,
01000
00000
00010
00000
10000
00000
00100
00000
01000
00000
00010
00100
00000
00000
00001
00000
,
01000
00000
00010
00000
00100
00000
00010
00000
10000
00000
00100
01000
00000
00000
00010
00000
,
00100
00000
00001
00100
00000
00000
00001
00000
10000
00000
00100
01000
00000
00000
00100
00000
,
10000
00000
00001
00000
00100
00000
00001
00000
01000
00000
00010
00100
00010
00000
00010
00000
,
01010
00001
10100
00010
,
01010
10000
00011
00100
,
10010
01000
00110
00001
,
10100
00100
01001
00010
,
11000
00010
10001
00010
,
01010
00100
01100
00001
,
01000
00100
01000
00100
00010
00100
00010
00100
,
00220
00000
00000
00000
00000
00000
00000
00300
,
02030
00000
00000
00000
,
03001
00000
00100
00000
00000
00000
00100
00000
00000
00000
00100
00001
00000
00100
00000
00000
,
10000
01000
00000
10000
00000
00000
00010
00000
00100
00001
00000
00001
00000
00000
00100
00000
,
00010
01000
00000
01000
00000
00000
00100
00000
10000
00010
00000
00010
00000
00000
00100
00000
,
00001
01000
00000
01000
00000
00000
00100
00000
10000
01000
00000
01000
00000
00000
10000
00000
,
00010
00100
00000
00100
00000
00000
00001
00000
00100
00010
00000
00010
00000
00000
01000
00000
,
00001
00010
00000
00001
00000
00000
01000
00000
00100
10000
00000
10000
00000
00000
00100
00000
,
01000
00010
00000
00010
00000
00000
00100
00000
00001
01000
00000
01000
00000
00000
00100
00000
,
10000
00010
00000
00010
00000
00000
00100
00000
00001
00010
00000
00010
00000
00000
00001
00000
,
01000
00001
00000
01000
00001
00000
20000
00000
,
30010
00100
00000
00100
00001
00100
00000
00100
,
00010
01000
00000
00100
10000
00100
00000
01000
,
00001
00100
00000
00100
00001
10000
00000
10000
,
00010
10000
00000
00001
00010
00100
00000
00100
,
01000
10000
00000
10000
01000
00010
00000
00010
,
00100
00001
00000
00001
10000
00100
00000
00100
,
10000
01000
00000
01000
10000
01000
00000
01000
,
10000
00010
00000
00010
00100
00010
00000
00010
,
00200
00000
00000
00000
,
00300
00000
00000
00000
;

//---------------pump-single - ----------------
#NOTES:
     pump-single:
     :
     Medium:
     51:
     0.350,0.352,0.133,0.194,0.031,208.000,13.000,19.000,0.000,0.000:
00000
00000
00000
00000
,
00000
00000
00000
00000
,
00020
00000
00000
00000
,
20030
00000
00000
00000
,
30200
00000
00000
00000
,
02300
00000
00000
00000
,
03020
00000
00000
00000
,
02030
00000
00000
00000
,
03002
00000
00000
00000
,
10003
00000
00000
00000
00000
00000
00000
00000
00000
00000
00100
00001
00000
00100
00000
00000
,
00010
01000
00000
01000
00010
01000
00000
01000
,
00001
00010
00000
00010
00001
00010
00000
00100
,
01000
10000
00000
10000
01000
00100
00000
00100
,
10000
00010
00000
00010
00100
00001
00000
00001
,
10000
00001
00000
01000
00100
10000
00000
00100
,
01000
00010
00000
00100
00001
01000
00000
00010
,
00100
00010
00000
01000
00100
01000
00000
00010
,
00100
00000
00100
00000
00000
00000
00100
00000
00000
00000
00100
00001
00000
00100
00000
00000
,
00010
02000
00000
00000
03010
00000
00100
00001
,
01000
00001
00000
00100
00000
00100
00010
01000
,
00001
20000
00000
30001
00000
00000
00100
00000
,
00010
00000
01000
00000
00000
00001
00100
00001
,
10000
00020
00000
00000
10030
00000
00100
01000
,
00100
10000
00000
00001
00000
00100
00010
01000
,
00020
00000
00000
01030
00000
00000
00001
00000
,
01000
00001
00100
00010
,
10000
11000
00001
00011
,
00100
00110
00100
01100
,
01000
01010
00010
01010
,
00001
00101
10000
10100
,
00010
00110
01000
01100
,
00001
10001
10000
10001
,
10000
00100
10000
00100
10000
00100
10000
00100
,
20000
00000
00000
00000
,
30000
00000
00000
00000
,
00010
00000
00010
00000
00000
00000
00010
00000
00000
00000
00010
10000
00000
00010
00000
00000
,
00010
02000
00000
00000
03010
00000
00100
00001
,
01000
00001
00000
00100
00000
00100
00010
01000
,
00001
20000
00000
30001
00000
00000
00100
00000
,
00010
00000
01000
00000
00000
00001
00100
00001
,
10000
00020
00000
00000
10030
00000
00100
01000
,
00100
10000
00000
00001
00000
00100
00010
01000
,
00020
00000
00000
01030
00000
00000
00001
00000
,
01000
00010
00000
01000
00010
00000
20000
00000
,
30010
00100
00001
10000
,
00100
10000
00010
01000
,
00100
10000
00001
00100
,
00010
01000
00001
10000
,
00100
10000
00001
00100
,
00001
01000
00100
10000
,
00100
01000
00010
01000
,
00001
00010
00001
00100
,
20200
00000
00000
00000
,
30300
00000
00000
00000
;

//---------------pump-single - ----------------
#NOTES:
     pump-single:
     :
     Easy:
     29:
     0.201,0.271,0.020,0.133,0.000,123.000,2.000,13.000,0.000,0.000:
00000
00000
00000
00000
,
00000
00000
00000
00000
,
00001
00000
00000
00000
,
00000
00000
00000
00000
,
10000
00000
00000
00000
,
00000
00000
00000
00000
,
00010
00000
00000
00000
,
00000
00000
00000
00000
,
01000
00000
00000
00000
,
00100
00000
00000
00000
,
00001
00001
10000
00100
,
10000
00001
00001
10000
,
00100
10000
00001
00001
,
10000
00100
00100
00100
,
10000
00010
10000
01000
,
10000
00010
00010
00010
,
10000
01000
10000
00010
,
10000
10000
10000
10000
,
10000
00001
00100
00001
,
01000
00001
10000
00010
,
00100
00001
01000
00001
,
10000
00010
00100
00001
,
01000
00100
00100
00100
,
10000
00010
01000
00010
,
00100
00001
00001
00001
,
20000
00000
00000
00000
,
30100
00000
00001
00000
,
00100
00000
00001
00000
,
10000
00000
00010
00000
,
00100
00000
00010
00000
,
01000
00000
00100
00000
,
01000
00000
00001
00000
,
20000
00000
00000
00000
,
30002
00000
00000
00000
,
10003
00000
00000
00000
,
00100
00000
00000
00000
,
01010
00100
00001
00100
,
00001
10000
00001
10000
,
00010
00100
00010
01000
,
00100
01000
00100
10000
,
01000
00100
00010
00001
,
00010
00100
01000
10000
,
00100
01000
00100
00010
,
00100
01000
00001
00001
,
00002
00003
00000
00000
,
20000
30000
00000
00000
,
00020
00030
00000
00000
,
02000
03000
00000
00000
,
00200
00300
00000
00000
,
00002
00003
00000
00000
,
20000
30000
00000
00000
,
00020
00030
00000
00000
,
00202
00000
00000
00000
,
00303
00000
00000
00000
;

//---------------pump-single - Copied from----------------
#NOTES:
     pump-single:
     Copied from:
     Beginner:
     12:
     0.079,0.108,0.000,0.020,0.000,52.000,0.000,2.000,0.000,0.000:
00000
00000
00000
00000
,
00000
00000
00000
00000
,
00100
00000
00000
00000
,
00000
00000
00000
00000
,
00100
00000
00000
00000
,
00000
00000
00000
00000
,
00100
00000
00000
00000
,
00000
00000
00000
00000
,
00100
00000
00000
00000
,
00000
00000
00000
00001
,
10000
00000
00000
00000
,
00100
00000
00000
00000
,
00010
00000
00000
00000
,
01000
00000
00000
00010
,
00100
00000
00000
00000
,
00001
00000
00000
00000
,
10000
00000
00000
00000
,
00100
00000
00000
00000
,
00100
00000
00000
00000
,
00001
00000
00000
00000
,
10000
00000
00000
00000
,
00010
00000
00000
01000
,
00010
00000
00000
00000
,
10000
00000
00000
00000
,
00100
00000
00000
00000
,
01000
00000
00000
00000
,
00001
00000
00000
00000
,
00001
00000
00000
00000
,
00001
00000
00000
00000
,
00001
00000
00000
00000
,
01000
00000
00000
00000
,
01000
00000
00000
00000
,
01000
00000
00000
00000
,
00001
00000
00000
00000
,
00002
00000
00000
00000
,
10003
00000
00000
00000
,
10000
00000
00000
00000
,
00100
00000
00000
00000
,
00010
00000
00000
00000
,
01000
00000
00000
00010
,
00100
00000
00000
00000
,
00001
00000
00000
00000
,
10000
00000
00000
00000
,
00010
00000
00000
00100
,
00001
00000
00000
00000
,
00100
00000
00000
00000
,
00100
00000
00000
00000
,
00100
00000
00000
00000
,
00010
00000
00000
00000
,
00010
00000
00000
00000
,
00010
00000
00000
00000
,
00010
00000
00000
00000
,
20000
00000
00000
00000
,
30000
00000
00000
00000
;
