#TITLE:3.4.4.;
#SUBTITLE:;
#ARTIST:DJ Potatoe;
#TITLETRANSLIT:;
#SUBTITLETRANSLIT:;
#ARTISTTRANSLIT:;
#CREDIT:;
#BANNER:344-banner.png;
#SONGINFO:344-songinfo.png;
#BACKGROUND:344-bg.png;
#LYRICSPATH:;
#CDTITLE:./CDTITLES/DPSC.png;
#CHARACTER:./SongCharacters/djpotatoe;
#MUSIC:344.mp3;
#OFFSET:-0.080;
#SAMPLESTART:63.900;
#SAMPLELENGTH:12.000;
#SELECTABLE:YES;
#BPMS:0.000=90.000,144.000=45.000,144.250=22.000,144.500=20.000,144.750=14.000,145.000=9.000;
#STOPS:;
#BGCHANGES:-2.000=visffd320.avi=1.000=1=1=0
;
// cache tags:
#FIRSTBEAT:16.000;
#LASTBEAT:145.250;
#SONGFILENAME:Songs/Neon FM/344/344.sm;
#HASMUSIC:1;
#HASBANNER:1;
#MUSICLENGTH:104.227;
// end cache tags

//---------------pump-single - ----------------
#NOTES:
     pump-single:
     :
     Hard:
     69:
     0.370,0.401,0.000,0.000,0.225,270.000,0.000,0.000,0.000,0.000:
00000
00000
00000
00000
,
00000
00000
00000
00000
,
00000
00000
00000
00000
,
00000
00000
00000
00000
,
00100
00000
01000
00010
01000
00000
00001
00000
00000
00000
00001
00000
00100
00000
00010
00000
,
01000
00000
00010
00100
00010
00000
10000
00000
00000
00000
10000
00000
00010
00000
00100
00000
,
00001
00000
01000
00001
01000
00000
00010
00000
00000
00000
00010
00000
10000
00000
00100
00000
,
01000
00000
00010
10000
00010
00000
01000
00000
00000
00000
01000
00000
00010
00000
00100
00000
,
00001
10000
00001
00000
10000
00001
10000
00100
10000
00000
00010
00000
00100
00000
00001
00000
,
00000
00000
00001
00100
00001
00000
10000
00100
10000
00010
00100
00001
00100
00010
00100
00000
,
00000
00001
00100
00000
00010
01000
00000
00100
10000
00000
00010
01000
00000
00001
00100
00001
,
00100
00000
00010
00000
01000
00000
00100
00000
01000
00000
00000
01000
00000
00000
01000
00000
,
00001
00000
10000
00000
00100
00000
01000
00000
00001
01000
00001
00000
10000
00010
10000
00000
,
00000
00000
00010
01000
00010
00000
10000
00001
10000
00000
00000
10000
00000
00000
10000
00000
,
00000
00100
01000
00100
00010
00100
01000
00001
,
10000
01000
00100
00010
00001
00010
00100
01000
,
10000
00000
10000
00000
00010
00100
00010
00000
01000
00100
01000
00000
00000
00000
00000
00000
,
00001
10000
00001
10000
00001
00000
00000
00000
,
01000
00000
00100
00000
00100
10000
00100
00000
01000
00010
01000
00000
00000
00000
00000
00000
,
00001
00010
00001
00010
00001
00100
00001
00100
00001
00000
00000
00000
00000
00000
00000
00000
,
00001
00000
00001
00000
01000
00100
01000
00000
00010
00100
00010
00000
00000
00000
10000
00000
,
10000
00001
10000
00001
10000
00000
00000
00010
,
00010
00000
00100
00000
00100
00001
00100
00000
00010
01000
00010
00000
00000
00000
00000
00000
,
10000
01000
10000
01000
10000
00100
10000
00100
10000
00000
00000
00000
00000
00000
00000
00000
,
00100
00000
01000
00010
01000
00000
00001
00000
00000
00000
00001
00000
00100
00000
00010
00000
,
01000
00000
00010
00100
00010
00000
10000
00000
00000
00000
10000
00000
00010
00000
00100
00000
,
00001
00000
01000
00001
01000
00000
00010
00000
00000
00000
00010
00000
10000
00000
00100
00000
,
01000
00000
00010
10000
00010
00000
01000
00000
00000
00000
01000
00000
00010
00000
00100
00000
,
00001
10000
00010
10000
00100
10000
00010
00100
,
00001
01000
00001
00100
00010
00100
00001
01000
,
00100
00010
00100
10000
00001
10000
01000
00100
,
01000
10000
00100
10000
00001
00100
00001
01000
,
00010
10000
00100
01000
00010
00100
00001
10000
,
01000
10000
00001
00010
00001
10000
00100
10000
,
00010
00100
01000
10000
00001
00010
00100
00010
,
00001
10000
00001
10000
00010
01000
00010
01000
,
00001
10000
00010
01000
00100
10000
00000
00000
00000
00000
00000
00000
00000
00000
00000
00000
;

//---------------pump-single - ----------------
#NOTES:
     pump-single:
     :
     Medium:
     42:
     0.230,0.296,0.000,0.000,0.014,168.000,0.000,0.000,0.000,0.000:
00000
00000
00000
00000
,
00000
00000
00000
00000
,
00000
00000
00000
00000
,
00000
00000
00000
00000
,
10000
00100
01000
00100
00000
00000
00000
00000
,
10000
00100
01000
00100
00000
00000
00000
00000
,
00001
00100
00010
00100
00000
00000
00000
00000
,
00001
00100
00010
00100
00000
00000
00000
00000
,
00001
10000
00010
01000
00100
00000
00000
00000
,
00000
10000
00010
10000
00001
01000
00001
00100
,
00000
00010
00000
00010
00000
01000
00000
01000
,
00100
10000
00010
10000
,
00001
00001
00001
00000
00100
00100
00100
00000
,
00010
00010
00010
00000
01000
01000
01000
00000
,
00000
00100
01000
00010
00100
00001
10000
00010
,
00100
00100
00001
00001
10000
10000
00100
00100
,
10000
00000
00001
00010
00001
00000
00000
00000
,
10000
00100
10000
00010
00100
00000
00000
00000
,
00010
00000
01000
00100
10000
00000
00000
00000
,
00010
00100
00010
01000
00100
00000
00000
00000
,
00010
00000
01000
10000
01000
00000
00000
00000
,
00010
00100
00010
10000
00100
00000
00000
00000
,
10000
00000
00001
00100
00010
00000
00000
00000
,
10000
00100
10000
00001
00100
00000
00000
00000
,
00001
00100
00010
00100
00000
00000
00000
00000
,
00001
00100
00010
00100
00000
00000
00000
00000
,
10000
00100
01000
00100
00000
00000
00000
00000
,
10000
00100
01000
00100
00000
00000
00000
00000
,
10000
00001
01000
00010
00100
00000
00000
00000
,
00000
00001
01000
00001
10000
00010
10000
00100
,
00000
01000
00000
01000
00000
00010
00000
00010
,
00100
00001
01000
00001
,
10000
00000
00010
00000
10000
00010
10000
00010
,
00000
10000
00001
00100
00010
00000
00000
00010
,
00100
00001
10000
10000
00010
00010
00100
00100
,
00001
01000
00001
01000
00001
01000
00001
01000
,
00001
00100
00010
00100
00001
00001
00000
00000
00000
00000
00000
00000
00000
00000
00000
00000
;

//---------------pump-single - ----------------
#NOTES:
     pump-single:
     :
     Easy:
     18:
     0.115,0.139,0.000,0.000,0.014,84.000,0.000,0.000,0.000,0.000:
00000
00000
00000
00000
,
00000
00000
00000
00000
,
00000
00000
00000
00000
,
00000
00000
00000
00000
,
00001
01000
00100
00000
,
10000
00010
00010
00000
,
10000
00001
00100
00000
,
00010
01000
00100
00000
,
10000
00001
00100
00000
,
00001
01000
00100
00000
,
01000
00010
10000
00000
,
00001
00100
00001
00000
,
10000
00010
00100
00000
,
00010
01000
00010
00000
,
10000
00100
01000
00000
,
00100
10000
00001
00000
,
10000
00000
00000
00000
,
00010
00000
00000
00000
,
01000
00000
00000
00000
,
00100
00000
10000
00000
,
00010
00000
00000
00000
,
10000
00000
00000
00000
,
00001
00000
00000
00000
,
01000
00000
00000
00000
,
00100
00000
10000
00000
,
00010
00000
10000
00000
,
00001
00000
01000
00000
,
00100
00000
10000
00000
,
01000
00010
01000
00000
,
00001
10000
00001
00000
,
01000
00100
01000
00000
,
00010
10000
00010
00000
,
01000
00100
00010
00000
,
00010
00100
01000
00000
,
00001
10000
00100
00000
,
01000
00010
00100
00010
,
10000
10000
10000
10000
10000
10000
00000
00000
00000
00000
00000
00000
00000
00000
00000
00000
;

//---------------pump-single - Copied from----------------
#NOTES:
     pump-single:
     Copied from:
     Beginner:
     10:
     0.063,0.105,0.000,0.000,0.014,46.000,0.000,0.000,0.000,0.000:
00000
00000
00000
00000
,
00000
00000
00000
00000
,
00000
00000
00000
00000
,
00000
00000
00000
00000
,
00010
00000
00000
00000
,
00100
00000
00000
00000
,
00001
00000
00000
00000
,
10000
00000
00000
00000
,
01000
00000
00000
00000
,
00010
00000
00000
00000
,
01000
00000
00000
00000
,
00100
00000
00000
00000
,
10000
00000
00000
00000
,
00001
00000
00000
00000
,
10000
00000
00000
00000
,
00100
00000
00000
00000
,
01000
01000
00000
00000
,
00010
00010
00000
00000
,
10000
10000
00000
00000
,
00001
00001
00000
00000
,
00100
00100
00000
00000
,
00010
00010
00000
00000
,
10000
10000
00000
00000
,
00010
00010
00000
00000
,
01000
00000
00000
00000
,
00001
00000
00000
00000
,
10000
00000
00000
00000
,
00100
00000
00000
00000
,
01000
00000
00000
00000
,
00100
00000
00000
00000
,
10000
00000
00000
00000
,
00001
00000
00000
00000
,
10000
00000
00000
00000
,
00010
00000
00000
00000
,
00100
00000
00000
00000
,
00001
00000
00000
00000
,
10000
10000
10000
10000
10000
10000
00000
00000
00000
00000
00000
00000
00000
00000
00000
00000
;
