#TITLE:Aztec Templing;
#SUBTITLE:(Dub Mix);
#ARTIST:Hi-G;
#TITLETRANSLIT:;
#SUBTITLETRANSLIT:;
#ARTISTTRANSLIT:;
#CREDIT:;
#BANNER:aztec-banner.png;
#SONGINFO:aztec-songinfo.png;
#BACKGROUND:aztec-bg.png;
#LYRICSPATH:;
#CDTITLE:./CDTITLES/neon.png;
#CHARACTER:./SongCharacters/canblaster;
#MUSIC:Aztec Dub Templing.mp3;
#OFFSET:-0.520;
#SAMPLESTART:24.400;
#SAMPLELENGTH:12.000;
#SELECTABLE:YES;
#BPMS:0.000=200.000;
#STOPS:;
#BGCHANGES:-2.000=visffd320.avi=1.000=1=1=0
;
// cache tags:
#FIRSTBEAT:16.000;
#LASTBEAT:372.000;
#SONGFILENAME:Songs/Neon FM/Aztec Templing/Aztec Templing.sm;
#HASMUSIC:1;
#HASBANNER:1;
#MUSICLENGTH:114.050;
// end cache tags

//---------------pump-single - ----------------
#NOTES:
     pump-single:
     :
     Hard:
     87:
     0.856,1.000,0.324,1.000,0.009,503.000,37.000,143.000,0.000,0.000:
00000
00000
00000
00000
,
00000
00000
00000
00000
,
00000
00000
00000
00000
,
00000
00000
00000
00000
,
00010
00100
00010
10000
,
00001
10000
00100
01000
,
00010
00100
00010
01000
,
00001
00010
00100
01000
,
00001
10000
00001
10000
,
00100
00000
01000
00010
00100
00000
00001
00000
,
01000
00100
10000
00100
,
02000
00001
03001
00000
,
20000
30200
20300
30020
,
02030
03020
00230
00302
,
20003
30200
20300
30002
,
02003
23000
32000
03002
,
02003
03020
02030
03020
,
00230
00000
00301
10000
00200
00000
02300
00000
,
03002
00203
00320
00230
,
00302
01000
01003
00000
,
00000
10000
00100
10000
00100
01000
00100
01000
,
00000
00001
01000
00100
01000
00001
00100
00010
,
00000
10000
00100
01000
00100
10000
00010
10000
,
00100
00000
01000
00010
01000
00000
00001
00000
00100
00000
00001
00000
00100
00000
00001
00000
,
00000
00001
00100
00001
00100
00010
00100
00010
,
00000
10000
00010
00100
00010
10000
00100
01000
,
00000
00001
00100
00010
00100
00001
01000
00001
,
00100
00000
00010
01000
00010
00000
10000
00000
00100
00000
10000
00000
00100
00000
10000
00000
,
00010
00100
00010
01000
00000
01000
01001
00000
,
00100
00010
01000
00100
00000
00100
10100
00000
,
01000
00001
10000
00010
00000
00010
00110
00000
,
02000
03001
01001
00000
00200
10300
10100
00000
,
01000
00010
01000
00001
00000
00001
01001
00000
,
00100
00010
10000
01000
00000
01000
11000
00000
,
00100
01000
00001
10000
00000
00001
00101
00000
,
00020
10030
10010
00000
00002
01003
01100
00000
,
01000
00100
01000
00010
00000
00010
10010
00000
,
00100
01000
00010
00100
00000
00100
00101
00000
,
00010
10000
00001
01000
00000
01000
01100
00000
,
00020
10030
10010
00000
00200
00301
00101
00000
,
00010
01000
00010
10000
00000
10000
10010
00000
,
00100
01000
00001
00010
00000
00010
00011
00000
,
00100
00010
10000
00001
00000
10000
10100
00000
,
02000
03001
01001
00000
20000
30010
00110
00000
,
10001
00000
00010
01000
00000
00000
01010
00000
,
00100
10000
00000
00010
20000
00100
30100
00000
,
01000
00100
01000
00010
00100
00010
01000
00100
,
01000
00010
00100
00010
01000
00100
01000
00000
,
00101
00000
10000
00100
00000
00000
01100
00000
,
01000
00001
00000
00001
00200
00010
00310
00000
,
10000
00100
10000
00001
00100
00001
10000
00100
,
10000
00001
00100
00001
10000
00100
10000
00000
,
00002
00203
00302
02003
,
03020
02030
03200
20300
,
30002
00203
00302
20003
,
30020
00032
00023
20030
,
30020
02030
03020
02030
,
03200
00000
10300
00001
00200
00000
00320
00000
,
20030
30200
02300
03200
,
20300
00010
30010
10010
,
00020
00100
00230
00001
00302
10000
20003
00010
,
30020
01000
02030
00100
03200
10000
20300
00001
,
30002
01000
02003
00100
03200
00010
00320
00001
,
00032
00100
00203
00010
00320
01000
02030
00100
,
03200
10000
20300
00010
30020
01000
02030
00001
,
03002
10000
20003
01000
32000
00100
03200
01000
,
02300
10000
23000
00100
30200
01000
02300
00010
,
03020
00100
00230
00001
00302
01000
01003
00000
,
10002
00000
01003
00200
00000
01300
00100
00000
,
20010
00000
30100
02000
00000
03010
10000
00010
,
02010
00000
03001
00200
00000
00310
01000
00000
,
10000
00010
10010
00000
01000
00001
01001
00000
,
20001
00000
30010
00200
00000
00310
00100
00000
,
01002
00000
00103
00020
00000
01030
00001
01000
,
01020
00000
10030
00200
00000
01300
00010
00000
,
00001
01000
01001
00000
00010
10000
10010
00000
,
01000
00100
10000
00020
00000
01030
00001
00100
,
00010
01000
00010
00200
00000
00301
10000
01000
,
10000
00001
01000
00200
00000
01300
00010
00100
,
00001
10000
10001
00000
00010
01000
01010
00000
,
00100
00001
01000
00200
00000
10300
00010
00100
,
00001
00100
00010
20000
00000
30010
01000
00001
,
00100
00010
00100
00002
00000
01003
00100
10000
,
00020
00130
00002
00103
,
20000
30200
00320
00230
,
20300
30002
02003
03020
,
20030
30200
20300
30002
,
00203
00302
02003
03200
,
02300
03020
20030
30002
,
00203
00320
02030
03002
,
10003
00100
10000
00100
01000
00010
01000
00010
,
00100
00001
00100
00001
01000
00010
01000
00010
,
00200
00000
00000
00000
,
00300
00000
00000
00000
;

//---------------pump-single - ----------------
#NOTES:
     pump-single:
     :
     Medium:
     69:
     0.584,0.693,0.070,0.614,0.000,388.000,8.000,70.000,0.000,0.000:
00000
00000
00000
00000
,
00000
00000
00000
00000
,
00000
00000
00000
00000
,
00000
00000
00000
00000
,
00001
10000
00010
01000
,
00100
10000
00001
00010
,
00001
01000
00100
10000
,
00010
01000
00100
00100
,
10000
00010
00100
00001
,
00100
00000
00010
00100
00001
00000
00010
00000
,
00001
00100
00010
01000
,
00002
10000
10003
00000
,
20000
30002
02003
03020
,
00230
00302
20003
32000
,
23000
30020
00230
00302
,
02003
03020
00130
00100
,
00002
02003
03200
20300
,
30200
00000
01300
00100
20000
00000
32000
00000
,
23000
30200
02300
03020
,
20030
00001
00001
30001
,
00000
01000
00100
00000
10000
00100
10000
00100
,
00000
00100
01000
00000
00001
00100
00001
00100
,
00000
00100
00010
00000
01000
00001
01000
00001
,
20000
30020
20030
30020
,
00030
01000
00001
00000
00100
00010
00100
00010
,
00000
00010
10000
00000
00100
10000
00100
10000
,
00000
10000
00001
00000
01000
00010
01000
00010
,
00200
00000
00000
00000
,
00301
00000
10000
00001
00000
00001
10000
00000
,
00100
00000
01000
00010
00000
00010
00100
00000
,
00001
00000
10000
00010
00000
00010
01000
00000
,
00100
10100
00100
00101
,
00010
00000
01000
00100
00000
00100
10000
00000
,
00010
00000
01000
00001
00000
00001
10000
00000
,
00010
00000
01000
00010
00000
00010
00100
00000
,
00100
01100
00100
00110
,
00100
00000
00001
00100
00000
00100
00001
00000
,
10000
00000
00010
01000
00000
01000
10000
00000
,
01000
00000
00001
01000
00000
01000
00010
00000
,
10000
10001
10000
10100
,
01000
00000
00010
10000
00000
10000
00001
00000
,
01000
00000
00010
00100
00000
00100
00001
00000
,
01000
00000
00010
01000
00000
00010
10000
00000
,
10000
10010
10000
11000
,
00020
00000
00000
02030
00000
00000
03002
00000
,
00000
00203
00000
00000
00320
00000
10030
00000
,
01000
00100
10000
00100
,
01000
00100
10000
00100
,
02000
00000
00000
03020
00000
00000
20030
00000
,
00000
30200
00000
00000
02300
00000
03001
00000
,
00010
00100
00001
00100
,
00010
00100
00001
00100
,
00001
10000
00010
01000
,
00100
10000
00001
00010
,
00001
01000
00100
10000
,
00010
01000
00100
00100
,
10000
00010
00100
00001
,
00100
00000
00010
00100
00001
00000
00010
00000
,
00001
00100
00010
01000
,
00002
10000
10003
00000
,
20000
30002
02003
03020
,
00230
00302
20003
32000
,
23000
30020
00230
00302
,
02003
03020
00130
00100
,
00002
02003
03200
20300
,
30200
00000
01300
00100
20000
00000
32000
00000
,
23000
30200
02300
03020
,
00030
00001
00001
00000
,
01000
00000
01000
00100
00000
01000
00100
00000
,
10000
00000
10000
00010
00000
10000
00010
00000
,
00100
00000
00100
01000
00000
00100
01000
00000
,
00010
00100
00010
00100
,
00001
00000
00001
00100
00000
00001
00100
00000
,
00010
00000
00010
10000
00000
00010
10000
00000
,
00100
00000
00100
10000
00000
00100
10000
00000
,
00010
10000
00010
10000
,
00010
00000
00010
00100
00000
00010
00100
00000
,
00001
00000
00001
01000
00000
00001
01000
00000
,
00100
00000
00100
00010
00000
00100
00010
00000
,
01000
00100
01000
00100
,
10000
00000
10000
00100
00000
10000
00100
00000
,
01000
00000
01000
00001
00000
01000
00001
00000
,
00100
00000
00100
00001
00000
00100
00001
00000
,
02000
00000
00001
03000
,
00010
00100
00001
00100
,
00010
01000
00001
10000
,
00100
01000
00100
10000
,
00010
01000
00001
10000
,
00010
00100
00001
00100
,
00010
01000
00001
10000
,
00010
01000
00010
01000
00001
10000
00001
10000
,
00010
01000
00001
10000
00010
01000
00001
10000
,
00200
00000
00000
00000
,
00300
00000
00000
00000
;

//---------------pump-single - ----------------
#NOTES:
     pump-single:
     :
     Easy:
     41:
     0.289,0.367,0.026,0.009,0.000,227.000,3.000,1.000,0.000,0.000:
00000
00000
00000
00000
,
00000
00000
00000
00000
,
00000
00000
00000
00000
,
00000
00000
00000
00000
,
00001
10000
00100
01000
,
00100
10000
00010
00100
,
00001
01000
00001
10000
,
00010
00010
00100
00001
,
01000
00100
10000
01000
,
10000
00010
00100
00001
,
00010
00001
01000
00100
,
10000
01000
10000
00000
,
00010
00100
00001
01000
,
00100
10000
00010
00100
,
00010
01000
00100
10000
,
00001
00100
00001
10000
,
00100
01000
00010
00100
,
00001
01000
00001
10000
,
00010
00100
00010
01000
,
00100
00000
00100
00000
,
10000
00000
00001
00000
,
01000
00000
00010
00010
,
00100
00000
00001
00000
,
10000
00000
00100
00100
,
01000
00000
00010
00000
,
10000
00000
00100
01000
,
00010
00000
00100
00000
,
00001
00000
01000
00001
,
01000
00000
00010
00000
,
10000
00000
00100
00000
,
01000
00000
00010
00000
,
10000
00000
00010
00000
,
00100
00000
00001
00000
,
01000
00000
00001
00000
,
10000
00000
00100
00000
,
10000
00000
00010
00000
,
01000
00000
00001
00000
,
00100
00000
00001
00000
,
10000
00000
00010
00000
,
01000
00000
00100
00000
,
10000
00000
00010
00000
,
00100
00000
00001
00000
,
01000
00000
00100
00000
,
10000
00000
00010
00000
,
00100
00000
00000
00000
,
00001
01000
00100
00000
,
10000
00000
00000
00000
,
00000
00000
00010
00000
,
01000
00000
00000
00000
,
00100
10000
00010
00000
,
00100
00000
00000
00000
,
00001
01000
00001
01000
,
00001
00000
10000
00000
,
00010
00000
01000
00000
,
01001
00000
10000
00000
,
00100
00000
00100
00000
,
01100
00000
10000
00000
,
00010
00000
00100
00000
,
00001
00000
01000
00000
,
01000
00000
01001
00000
,
10000
00100
01000
00010
,
01000
00010
00100
00001
,
00010
00001
10000
01000
,
10000
00010
00100
00001
,
00010
00001
10000
00100
,
01000
00010
00100
00010
,
00100
01000
00100
00010
,
10000
00001
00100
00000
,
10000
00000
00010
00000
,
01000
00000
00001
00000
,
00100
00000
00010
00000
,
10000
01000
10000
01000
,
10000
00000
00010
00000
,
00100
00000
00001
00000
,
01000
00000
00100
00000
,
01000
00010
01000
00010
,
00100
00000
00001
00000
,
01000
00000
00001
00000
,
10000
00000
00010
00000
,
00100
00010
00100
00010
,
01000
00000
00001
00000
,
10000
00000
00100
00000
,
01000
00000
00010
00000
,
00100
00000
00001
00000
,
10000
00000
00000
00000
,
00001
00000
00000
00000
,
01000
00000
00000
00000
,
00010
00000
10000
00000
,
00001
00000
00000
00000
,
01000
00000
00000
00000
,
00100
00000
10000
00000
,
00010
00100
00010
01000
,
00200
00000
00000
00000
,
00300
00000
00000
00000
;

//---------------pump-single - Copied from----------------
#NOTES:
     pump-single:
     Copied from:
     Beginner:
     21:
     0.132,0.202,0.000,0.000,0.000,105.000,0.000,0.000,0.000,0.000:
00000
00000
00000
00000
,
00000
00000
00000
00000
,
00000
00000
00000
00000
,
00000
00000
00000
00000
,
01000
00000
00000
00000
,
00100
00000
00000
00000
,
10000
00000
00000
00000
,
00100
00000
00000
00000
,
01000
00000
00000
00000
,
00100
00000
00000
00000
,
10000
00000
00000
00000
,
10000
00000
00000
00000
,
00010
00000
00000
00000
,
00100
00000
00000
00000
,
00001
00000
00000
00000
,
00100
00000
00000
00000
,
00010
00000
00000
00000
,
00100
00000
00000
00000
,
00001
00000
00000
00000
,
00001
00000
00000
00000
,
10000
00000
00000
00000
,
00010
00000
00000
00000
,
01000
00000
00000
00000
,
00100
00000
00100
00000
,
00100
00000
00000
00000
,
10000
00000
00000
00000
,
00001
00000
00000
00000
,
00100
00000
00000
00000
,
00010
00000
00000
00000
,
00000
00000
00000
00000
,
01000
00000
00000
00000
,
00000
00000
00100
00000
,
10000
00000
00000
00000
,
00000
00000
00000
00000
,
00000
00000
00000
00000
,
00001
00000
00000
00100
,
00010
00000
00000
00000
,
00000
00000
00000
00000
,
10000
00000
00000
00000
,
00100
00000
00010
00000
,
01000
00000
00000
00000
,
00000
00000
00000
00000
,
00001
00000
10000
00000
,
00001
00000
10000
00000
,
00010
00000
00000
00000
,
00000
00000
00000
00000
,
00100
00000
00000
00000
,
00100
00000
00000
00000
,
01000
00000
00000
00000
,
00000
00000
00000
00000
,
00100
00000
00000
00000
,
00100
00000
00000
00000
,
10000
00000
00000
00000
,
00001
00000
00000
00000
,
10000
00000
00000
00000
,
00001
00000
00000
00000
,
01000
00000
00000
00000
,
00100
00000
00000
00000
,
01000
00000
00000
00000
,
00100
00000
00000
00000
,
10000
00000
00000
00000
,
00010
00000
00000
00000
,
10000
00000
00000
00000
,
00010
00000
00000
00000
,
01000
00000
00000
00000
,
00010
00000
00000
00000
,
01000
00000
00000
00000
,
00010
00000
00000
00000
,
10000
00100
00000
00000
,
10000
00100
00000
00000
,
10000
00100
00000
00000
,
10000
00100
00000
00000
,
10000
00100
00000
00000
,
10000
00100
00000
00000
,
10000
00100
00000
00000
,
10000
00100
00000
00000
,
01000
00010
00000
00000
,
01000
00010
00000
00000
,
01000
00010
00000
00000
,
01000
00010
00000
00000
,
01000
00010
00000
00000
,
01000
00010
00000
00000
,
01000
00010
00000
00000
,
01000
00010
00000
00000
,
00001
00000
00000
00000
,
10000
00000
00000
00000
,
00010
00000
00000
00000
,
01000
00000
00000
00000
,
00100
00000
00000
00000
,
10000
00000
00000
00000
,
00010
00000
00000
00000
,
00001
10000
00001
00000
,
10000
00000
00000
00000
;
