#TITLE:King For A Day;
#SUBTITLE:;
#ARTIST:Green Day;
#TITLETRANSLIT:;
#SUBTITLETRANSLIT:;
#ARTISTTRANSLIT:;
#CREDIT:;
#BANNER:;
#SONGINFO:;
#BACKGROUND:;
#LYRICSPATH:;
#CDTITLE:;
#CHARACTER:default;
#MUSIC:Green Day - King for a Day.mp3;
#OFFSET:-0.560;
#SAMPLESTART:10.000;
#SAMPLELENGTH:10.000;
#SELECTABLE:YES;
#BPMS:0.000=147.500;
#STOPS:;
#BGCHANGES:;
// cache tags:
#FIRSTBEAT:0.000;
#LASTBEAT:271.000;
#SONGFILENAME:Songs/Neon Juke/Green Day - King For A Day/kingforaday.sm;
#HASMUSIC:1;
#HASBANNER:0;
#MUSICLENGTH:193.573;
// end cache tags

//---------------pump-single - Copied from----------------
#NOTES:
     pump-single:
     Copied from:
     Beginner:
     12:
     0.058,0.070,0.000,0.000,0.000,79.000,0.000,0.000,0.000,0.000:
00000
00000
00000
00000
,
00000
00000
00000
00000
,
00001
00000
00000
00000
,
10000
00000
00000
00000
,
00001
00000
00000
00000
,
10000
00000
00000
00010
,
01000
00000
00000
00000
,
00001
00000
00000
00000
,
10000
00000
00000
00000
,
00010
00000
00000
00000
,
00100
00000
00000
00000
,
00100
00000
00000
00000
,
10000
00000
00000
00000
,
10000
00000
00000
00000
,
00001
00000
00000
00000
,
00001
00000
00000
00000
,
01000
00000
00000
00000
,
01000
00000
00000
00000
,
00010
01000
00010
00000
,
00000
00000
00000
00000
,
01000
00010
01000
00000
,
00000
00000
00000
00000
,
00001
10000
00001
00000
,
00000
00000
00000
00000
,
10000
00001
10000
00000
,
00000
00000
00000
00000
,
00100
00000
00000
00000
,
01000
00000
00000
00000
,
00100
00000
00000
00000
,
01000
00000
00000
00000
,
00010
00000
00000
00000
,
00100
00000
00000
00000
,
00010
00000
00000
00000
,
00100
00000
00000
00000
,
00100
00000
00000
00000
,
00001
00000
00000
00000
,
00100
00000
00000
00000
,
00001
00000
00000
00000
,
10000
00000
00000
00000
,
00100
00000
00000
00000
,
10000
00000
00000
00000
,
00100
00000
00000
00000
,
01000
00000
00000
00000
,
00010
00000
00000
00000
,
10000
00000
00000
00000
,
00001
00000
00000
00000
,
10000
00000
00000
00000
,
00001
00000
00000
00000
,
01000
00000
00000
00000
,
00010
00000
00000
00000
,
01000
00100
01000
00000
,
00000
00000
00000
00000
,
00010
00100
00010
00000
,
00000
00000
00000
00000
,
10000
00100
10000
00000
,
00000
00000
00000
00000
,
00001
00100
00001
00000
,
00000
00000
00000
00000
,
01000
00001
01000
00000
,
00000
00000
00000
00000
,
00001
01000
00001
00000
,
00000
00000
00000
00000
,
00010
10000
00010
00000
,
00000
00000
00000
00000
,
10000
00010
10000
00000
,
00000
00000
00000
00000
,
00100
00000
00000
00000
,
00000
00000
00000
00100
;

//---------------pump-single - ----------------
#NOTES:
     pump-single:
     :
     Hard:
     1:
     0.158,0.181,0.248,0.015,0.000,163.000,48.000,3.000,0.000,0.000:  // measure 1
00000
00000
00000
00000
,  // measure 2
00000
00000
00000
00000
,  // measure 3
00000
00000
00000
00000
,  // measure 4
00000
00000
00000
00000
,  // measure 5
10000
00100
10000
00100
10000
00100
10000
00100
,  // measure 6
01000
00010
01000
00010
01000
00010
01000
00010
,  // measure 7
10000
00100
10000
00100
10000
00100
10000
00100
,  // measure 8
01000
00010
01000
00010
01000
00010
01000
00100
,  // measure 9
10000
00100
10000
00100
10000
00100
10000
01000
,  // measure 10
00010
01000
00010
01000
00010
01000
00010
00100
,  // measure 11
10000
00100
10000
00100
10000
00100
01000
00010
,  // measure 12
01000
00010
01000
00010
01000
00100
10000
00100
,  // measure 13
10100
01100
10100
01100
10100
01000
00010
01000
,  // measure 14
00100
10000
00100
01000
01010
00000
00100
10000
,  // measure 15
01100
01010
01100
10010
,  // measure 16
02002
00000
00000
00000
00000
00000
00000
03003
,  // measure 17
10000
00100
01000
01010
01010
00000
00100
10000
,  // measure 18
00100
01100
01000
01010
00000
10000
00100
01000
,  // measure 19
10100
00000
01010
00000
10100
00000
01010
01010
,  // measure 20
00101
01010
10100
01010
,  // measure 21
10100
01100
10100
01100
10100
01100
10100
01100
,  // measure 22
00100
01000
00100
10000
00010
01000
00100
00000
,  // measure 23
10100
01100
10100
01100
10100
01100
10100
01100
,  // measure 24
00100
10000
00010
01000
00100
10000
00100
00000
,  // measure 25
10100
01100
10100
01100
10100
01100
10100
01100
,  // measure 26
10000
01000
10000
01000
10000
01000
00200
00000
,  // measure 27
00300
00010
01000
00001
00100
00000
00100
00000
,  // measure 28
00100
00000
00010
01000
00001
00000
00001
00000
,  // measure 29
00001
00000
00000
00000
;
