#TITLE:Queen Of Love;
#SUBTITLE:;
#ARTIST:Wildside;
#TITLETRANSLIT:;
#SUBTITLETRANSLIT:;
#ARTISTTRANSLIT:;
#CREDIT:;
#BANNER:QueenOfLove-banner.png;
#SONGINFO:QueenOfLove-songinfo.png;
#BACKGROUND:QueenOfLove-bg.png;
#LYRICSPATH:;
#CDTITLE:./CDTITLES/neon.png;
#CHARACTER:default;
#MUSIC:Queen Of Love.mp3;
#OFFSET:-0.440;
#SAMPLESTART:41.180;
#SAMPLELENGTH:12.000;
#SELECTABLE:YES;
#BPMS:0.000=140.000;
#STOPS:;
#BGCHANGES:;
// cache tags:
#FIRSTBEAT:16.000;
#LASTBEAT:244.000;
#SONGFILENAME:Songs/Neon FM/Queen Of Love/Queen Of Love.sm;
#HASMUSIC:1;
#HASBANNER:1;
#MUSICLENGTH:107.271;
// end cache tags

//---------------pump-single - ----------------
#NOTES:
     pump-single:
     :
     Hard:
     85:
     0.635,0.654,0.401,0.093,0.158,424.000,43.000,10.000,0.000,0.000:
00000
00000
00000
00000
,
00000
00000
00000
00000
,
00000
00000
00000
00000
,
00000
00000
00000
00000
,
00100
00000
00010
00000
01000
00000
00001
00100
00001
00000
10000
00000
00100
00000
00000
00000
,
01000
00000
00010
00000
10000
00000
00100
01000
00100
00000
10000
00000
00001
00000
00000
00000
,
00010
00000
00001
00000
00100
00000
00010
01000
00010
00000
00100
00000
00001
00000
00000
00000
,
10000
00000
00010
00000
00100
00000
00001
01000
00001
00000
00100
00000
00010
00000
00000
00000
,
10100
00000
00101
00000
01000
00100
10000
00010
,
00100
00000
00000
00100
00000
00000
00100
00000
00000
00000
00001
00000
00001
00000
00000
00000
,
01100
00000
00110
00000
01000
00001
00010
00001
,
01000
00000
00000
01000
00000
00000
01000
00000
00000
00000
00100
00000
00100
00000
00000
00000
,
11000
00000
01100
00000
10000
00100
01000
00010
,
01000
00001
10000
00010
00100
00010
01000
00001
,
10000
00000
00000
10000
00000
00000
10000
00000
00010
00000
00010
00000
00010
00000
00000
00000
,
01000
00000
00000
00000
00001
00000
10000
00100
10000
00000
10000
00000
10000
00000
00000
00000
,
00101
00000
10100
00000
00010
00100
00001
01000
,
00100
00000
00000
00100
00000
00000
00100
00000
00000
00000
10000
00000
10000
00000
00000
00000
,
00110
00000
01100
00000
00010
10000
01000
10000
,
00010
00000
00000
00010
00000
00000
00010
00000
00000
00000
00100
00000
00100
00000
00000
00000
,
00011
00000
00110
00000
00001
00100
00010
01000
,
00010
10000
00001
01000
00100
01000
00010
10000
,
00001
00000
00000
00001
00000
00000
00001
00000
01000
00000
01000
00000
01000
00000
00000
00000
,
00010
00000
00000
00000
10000
00000
00001
00100
00001
00000
00001
00000
00000
00000
00001
00000
,
10001
10000
00100
01000
01010
00010
00100
00010
,
10010
10000
00100
01000
01001
00001
00101
00100
,
00110
00010
01000
00100
10100
10000
01000
10000
,
10010
00010
00100
00001
10001
10000
11000
01000
,
11000
10000
00010
00100
00110
00100
01000
10000
,
10010
00010
01000
00001
00101
00100
00110
00010
,
01010
01000
00001
00100
00101
00001
10000
00100
,
00110
00010
00001
00001
10000
10000
00010
00010
,
20000
00000
00000
00000
30100
00000
01000
00100
01000
00000
00001
00000
01000
00000
00000
00000
,
00020
00000
00000
00000
10030
00000
00100
10000
00100
00000
01000
00000
00010
00000
00000
00000
,
00200
00000
00000
00000
00301
00000
00100
00010
00100
00000
00001
00000
10000
00000
00000
00000
,
00020
00000
00000
00000
01030
00000
00001
10000
00001
00000
00100
00000
00001
00000
00000
00000
,
00100
00000
00010
00000
01000
00000
00001
00100
00001
00000
10000
00000
00100
00000
00000
00000
,
01000
00000
00010
00000
10000
00000
00100
01000
00100
00000
10000
00000
00001
00000
00000
00000
,
00010
00000
00001
00000
00100
00000
00010
01000
00010
00000
00100
00000
00001
00000
00000
00000
,
10000
00000
00010
00000
00100
00000
00001
01000
00001
00000
00100
00000
00010
00000
10000
01000
,
10000
00000
00001
00000
00001
00000
01000
00100
01000
00000
01000
00000
00001
00000
01000
00010
,
01000
00000
01000
00000
00100
00000
10000
00010
10000
00000
10000
00000
00100
00000
00000
01000
,
00010
00100
00010
00100
00010
10000
00010
10000
,
00010
00000
00100
00000
00001
00000
10000
00010
10000
00000
00001
00000
01000
00000
00010
00000
,
02010
00000
03001
10000
00020
00000
00130
00001
,
20000
00000
30001
00010
00001
01000
00100
10000
,
02000
00000
13000
00010
00200
00000
00310
01000
,
00002
00000
10003
10000
00100
10000
00100
10000
,
10010
00010
00100
00001
01001
01000
00010
00100
,
00110
00010
10000
01000
10100
00100
01100
01000
,
01001
00001
00010
00001
00101
00100
00010
01000
,
01100
00100
01000
00100
10001
10000
10001
00001
,
00100
00000
00001
00000
10000
00000
00010
00100
00010
00000
01000
00000
00100
00000
00000
00000
,
10000
00000
00001
00000
01000
00000
00100
10000
00100
00000
01000
00000
00010
00000
00000
00000
,
00001
00000
00010
00000
00100
00000
00001
10000
00001
00000
00100
00000
00010
00000
00000
00000
,
01000
00000
00001
00000
00100
00000
00010
10000
00010
00000
00100
00000
00001
00000
00000
00000
,
10000
00000
00100
00000
01000
00000
00010
00100
00010
00000
00100
00000
00001
00000
01000
00000
,
00100
00000
10000
00000
00010
00000
00100
00001
00100
00000
00010
00000
01000
00000
00010
00000
,
10000
00000
00001
00000
01000
00000
00010
10000
00010
00000
00100
00000
00001
00000
00100
00000
,
00010
00000
01000
00000
00100
00000
10000
00001
10000
00000
00100
00000
10000
00000
00010
00000
,
10000
00000
10010
00000
00010
00010
00110
00000
,
10000
00000
00000
00000
;

//---------------pump-single - ----------------
#NOTES:
     pump-single:
     :
     Medium:
     62:
     0.429,0.426,0.000,0.000,0.028,322.000,0.000,0.000,0.000,0.000:
00000
00000
00000
00000
,
00000
00000
00000
00000
,
00000
00000
00000
00000
,
00000
00000
00000
00000
,
01000
00010
01000
00100
10000
00001
00001
00000
,
10000
00010
00100
00010
01000
00100
00100
00000
,
01000
00001
10000
00100
01000
00010
00010
00000
,
10000
00100
00010
00100
10000
00010
00010
00000
,
10000
00000
00001
00000
01000
00100
01000
00000
,
00010
00000
00000
00010
00000
00000
00010
00000
00000
00000
00000
00000
00000
00000
00000
00000
,
00001
00000
01000
00000
00100
10000
00100
00000
,
01000
00000
00000
01000
00000
00000
01000
00000
00000
00000
00000
00000
00000
00000
00000
00000
,
00100
00000
10000
00000
00100
01000
00010
00100
,
00001
00000
10000
00010
10000
00000
00010
00100
,
00001
00000
00000
00001
00000
00000
00001
00000
00000
00000
00000
00000
00000
00000
00000
00000
,
10000
00010
01000
00001
,
00010
00000
01000
00000
00001
00100
00001
00000
,
10000
00000
00000
10000
00000
00000
10000
00000
00000
00000
00000
00000
00000
00000
00000
00000
,
01000
00000
00001
00000
00100
00010
00100
00000
,
00001
00000
00000
00001
00000
00000
00001
00000
00000
00000
00000
00000
00000
00000
00000
00000
,
00100
00000
00010
00000
00100
00001
10000
00100
,
01000
00000
00010
10000
00010
00000
10000
00100
,
01000
00000
00000
01000
00000
00000
01000
00000
00000
00000
00000
00000
00000
00000
00000
00000
,
00010
00000
10000
00000
00001
00000
01000
00100
,
00100
00000
00000
10000
00010
00000
00000
01000
,
00100
00000
00000
10000
00010
00100
00001
01000
,
00100
00000
00000
10000
00001
00000
00000
01000
,
00010
00000
00000
00100
00001
00010
00001
00010
,
00001
00000
00000
01000
00100
00000
00000
10000
,
00010
00000
00000
01000
00100
10000
01000
10000
,
00100
00000
00000
01000
00001
00000
00000
00100
,
00010
00000
00000
00100
00001
10000
00100
10000
,
00010
01000
00010
00100
00001
10000
10000
00000
,
00001
01000
00100
01000
00010
00100
00100
00000
,
00010
10000
00001
00100
00010
01000
01000
00000
,
00001
00100
01000
00100
00001
01000
01000
00000
,
00010
01000
00010
00100
00001
10000
10000
00000
,
00001
01000
00100
01000
00010
00100
00100
00000
,
00010
10000
00001
00100
00010
01000
01000
00000
,
00001
00100
01000
00100
00001
01000
01000
00000
,
00001
00010
00001
00000
10000
01000
10000
00000
,
00100
01000
00100
00000
00100
00010
00100
00000
,
01000
00001
01000
00000
00001
01000
00001
00000
,
10000
00010
10000
00000
00010
10000
00010
10000
,
00100
00000
00000
10000
00010
00000
00000
10000
,
00001
00000
00000
00100
00010
00100
00010
00100
,
00001
00000
00000
10000
01000
00000
00000
10000
,
00010
00000
00000
00100
00001
00001
00001
00001
,
01000
00000
00000
00100
01000
00000
00000
00010
,
10000
00000
00000
00010
01000
00010
01000
00010
,
00100
00000
00000
00001
10000
00000
00000
00010
,
10000
00000
00000
00100
10000
00010
10000
00010
,
00010
01000
00010
00100
00001
10000
10000
00000
,
00001
01000
00100
01000
00010
00100
00100
00000
,
00010
10000
00001
00100
00010
01000
01000
00000
,
00001
00100
01000
00100
00001
01000
01000
00000
,
00010
01000
00010
00100
00001
10000
10000
00000
,
00001
01000
00100
01000
00010
00100
00100
00000
,
00010
10000
00001
00100
00010
01000
01000
00000
,
00001
00100
01000
00100
00001
01000
01000
00000
,
00001
00000
00100
00000
00010
00100
00010
00000
,
00010
00000
00000
00000
;

//---------------pump-single - ----------------
#NOTES:
     pump-single:
     :
     Easy:
     31:
     0.221,0.256,0.000,0.000,0.000,166.000,0.000,0.000,0.000,0.000:
00000
00000
00000
00000
,
00000
00000
00000
00000
,
00000
00000
00000
00000
,
00000
00000
00000
00000
,
00100
00000
00001
00000
,
10000
00000
00010
00010
,
01000
00000
00001
00000
,
10000
00000
00100
01000
,
00100
00000
10000
00000
,
00010
00010
00010
00000
,
00001
00100
00010
00000
,
01000
01000
01000
00000
,
00001
10000
00100
00000
,
01000
00010
00100
00010
,
01000
01000
01000
00000
,
00001
00001
00001
00000
,
00100
10000
00010
00100
,
00001
00001
00001
00000
,
01000
00100
10000
00100
,
01000
01000
01000
00000
,
00010
00100
00010
01000
,
00100
01000
00010
10000
,
00001
00100
00001
00000
,
10000
00000
00001
00000
,
00100
00000
00100
00000
,
01000
00000
01000
00010
,
01000
00000
00100
00000
,
10000
00000
00001
10000
,
00001
00000
00100
00000
,
00010
00000
01000
00100
,
01000
00000
00010
00000
,
10000
00000
00001
01000
,
00001
00000
10000
00000
,
00100
00000
01000
00000
,
00010
00000
00100
00000
,
00001
00000
01000
00000
,
00100
10000
00010
00010
,
01000
00100
10000
00010
,
00010
10000
00100
01000
,
00001
00100
00010
00010
,
00100
00000
00000
00000
,
00001
00000
00000
00000
,
10000
00000
00000
00000
,
00010
00000
01000
00000
,
00001
00000
10000
00000
,
00100
00000
01000
00010
,
00100
00000
00001
00000
,
00100
00000
00010
10000
,
00010
00000
01000
00000
,
00100
00000
01000
00010
,
00100
00000
00001
00000
,
10000
00000
00001
10000
,
00001
01000
00100
01000
,
00010
00100
00010
00100
,
00001
00100
00001
00100
,
00001
10000
00100
01000
,
00100
10000
00010
00100
,
00010
01000
00100
10000
,
00001
00100
00010
00100
,
01000
00100
00010
10000
,
00001
00000
10000
00001
,
00001
00000
00000
00000
;

//---------------pump-single - Copied from----------------
#NOTES:
     pump-single:
     Copied from:
     Beginner:
     14:
     0.083,0.142,0.000,0.000,0.000,62.000,0.000,0.000,0.000,0.000:
00000
00000
00000
00000
,
00000
00000
00000
00000
,
00000
00000
00000
00000
,
00000
00000
00000
00000
,
10000
00000
00010
00000
,
10000
00000
00010
00000
,
10000
00000
00010
00000
,
10000
00000
00010
00000
,
01000
00000
00000
00000
,
00001
00000
00000
00000
,
00100
00000
00000
00000
,
00001
00000
00000
00000
,
10000
00000
00000
00000
,
00100
00000
00000
00000
,
10000
00000
00000
00000
,
00001
00000
00000
00000
,
01000
00000
00000
00000
,
00010
00000
00000
00000
,
00100
00000
00000
00000
,
00010
00000
00000
00000
,
01000
00000
00000
00000
,
00001
00000
00000
00000
,
01000
00000
00000
00000
,
00010
00000
00000
00000
,
10000
00000
00100
00000
,
10000
00000
00000
00000
,
10000
00000
00100
00000
,
10000
00000
00000
00000
,
00010
00000
01000
00000
,
00010
00000
00000
00000
,
00010
00000
01000
00000
,
00010
00000
00000
00000
,
00100
00000
00000
00000
,
10000
00000
00000
00000
,
00001
00000
00000
00000
,
00100
00000
00000
00000
,
00010
00000
00000
00000
,
00100
00000
00000
00000
,
01000
00000
00000
00000
,
10000
00000
00000
00000
,
00001
00000
00000
00000
,
00000
00000
00000
00000
,
10000
00000
00000
00000
,
00000
00000
00000
00000
,
01000
00000
00000
00000
,
00000
00000
00000
00000
,
00010
00000
00000
00000
,
00000
00000
00000
00000
,
01000
00000
00000
00000
,
00100
00000
00000
00000
,
01000
00000
00000
00000
,
00100
00000
00000
00000
,
10000
00000
00000
00000
,
00001
00000
00000
00000
,
00100
00000
00000
00000
,
00010
00000
00000
00000
,
00100
00000
00000
00000
,
00001
00000
00000
00000
,
10000
00000
00000
00000
,
00100
00000
00000
00000
,
01000
00000
00000
00000
,
00010
00000
00000
00000
;
