#TITLE:200 Gigs;
#SUBTITLE:;
#ARTIST:Infinity;
#TITLETRANSLIT:;
#SUBTITLETRANSLIT:;
#ARTISTTRANSLIT:;
#CREDIT:;
#BANNER:200gigs-banner.png;
#SONGINFO:200gigs-songinfo.png;
#BACKGROUND:200gigs-bg.png;
#LYRICSPATH:;
#CDTITLE:./CDTITLES/DPSC.png;
#CHARACTER:./SongCharacters/DJPotatoe;
#MUSIC:200 Gigs.mp3;
#OFFSET:-0.440;
#SAMPLESTART:8.580;
#SAMPLELENGTH:12.000;
#SELECTABLE:YES;
#BPMS:0.000=116.000;
#STOPS:;
#BGCHANGES:-2.000=visffd320.avi=1.000=1=1=0
;
// cache tags:
#FIRSTBEAT:16.000;
#LASTBEAT:193.000;
#SONGFILENAME:Songs/Neon FM/200Gigs/200 Gigs.sm;
#HASMUSIC:1;
#HASBANNER:1;
#MUSICLENGTH:100.844;
// end cache tags

//---------------pump-single - ----------------
#NOTES:
     pump-single:
     :
     Hard:
     80:
     0.537,0.526,0.159,0.436,0.342,319.000,16.000,44.000,0.000,0.000:
00000
00000
00000
00000
,
00000
00000
00000
00000
,
00000
00000
00000
00000
,
00000
00000
00000
00000
,
02000
00000
00000
03200
00000
00000
02300
00000
00000
03020
00000
00000
10030
00000
00000
00000
,
00002
00000
00000
00203
00000
00000
00310
00000
00100
00000
00000
00100
00001
00000
00000
00000
,
20000
00000
00000
30020
00000
00000
00230
00000
00000
00320
00000
00000
01030
00000
00000
00000
,
00100
10000
00100
00000
01000
00100
01000
00000
00001
00010
00000
00010
00001
00000
00001
00000
,
02000
00000
00000
03002
00000
00000
20003
00000
00000
32000
00000
00000
13000
00000
00000
00000
,
00020
00000
00000
00230
00000
00000
00310
00000
01000
00000
00000
00001
00100
00000
00000
00000
,
00020
00000
00000
20030
00000
00000
30020
00000
00000
02030
00000
00000
03010
00000
00000
00000
,
10000
00100
10000
00000
00001
00100
00001
00000
00010
01000
00000
01000
00010
00000
00000
00000
,
10000
00100
01000
00001
00101
00000
00101
00000
,
01000
00100
10000
01000
11000
00000
11000
00000
,
00010
00100
01000
00100
01010
00000
00101
00000
,
10000
00001
01000
00100
10100
00000
01010
00000
,
01000
00000
00100
00000
10000
00000
00001
00000
00100
00000
00000
00100
00000
00000
00100
00000
,
00010
00000
10000
00000
01000
00000
10000
00000
00001
00000
00000
00001
00000
00000
00001
00000
,
00100
00000
00010
00000
10000
00000
00100
00000
01000
00000
00000
01000
00000
00000
01000
00000
,
00001
00000
00010
00000
00100
00000
00010
00000
00001
00000
00000
00001
00000
00000
00001
00000
,
10000
10000
00100
00100
10000
10000
00001
00001
,
00100
00100
00010
00010
10000
10000
00100
00100
,
01000
01000
00010
00010
01000
01000
00001
00001
,
00100
00100
00010
00010
00100
00100
00001
00001
,
10000
01000
00100
00100
01000
10000
00010
00010
,
00100
00001
01000
01000
00100
00010
00100
00100
,
10000
00001
00100
00100
00010
01000
00100
00100
,
20000
30002
20003
30002
,
10003
00100
01100
01000
00001
00100
00110
00010
,
00000
00000
00100
00001
00000
00000
00100
00010
00000
00000
00100
00001
00000
00000
00100
00000
,
00010
01000
01100
00100
10000
00010
01010
01000
,
00000
00000
00100
10000
00000
00000
00100
01000
00000
00000
00100
10000
00000
00000
00100
00000
,
10000
00100
01100
01000
00001
00100
00110
00010
,
00000
00000
00100
00001
00000
00000
00100
00010
00000
00000
00100
00001
00000
00000
00100
00000
,
00010
01000
01100
00100
10000
00010
01010
01000
,
00000
00000
00100
10000
00000
00000
00100
01000
00000
00000
00100
10000
00000
00000
00100
00000
,
01000
00000
00000
00010
00000
00000
01000
00000
00010
01000
00000
00010
00000
00000
01000
00000
,
00001
00000
00000
10000
00000
00000
00001
00000
10000
00001
00000
10000
00000
00000
00001
00000
,
10000
00000
00000
00010
00000
00000
10000
00000
00010
10000
00000
00010
00000
00000
10000
00000
,
00001
00000
00000
00001
01000
00000
01000
00000
00010
00000
00010
00000
10000
00100
10000
00100
,
02000
00000
00000
03200
00000
00000
02300
00000
00000
03020
00000
00000
10030
00000
10000
00000
,
00002
00000
00000
00203
00000
00000
00310
00000
00100
00000
00000
00100
00001
00000
00001
00000
,
20000
00000
00000
30020
00000
00000
00230
00000
00000
00320
00000
00000
01030
00000
01000
00000
,
00100
10000
00100
00000
01000
00100
01000
00000
00001
00010
00000
00010
00001
00000
00001
00000
,
02000
00000
00000
03002
00000
00000
20003
00000
00000
32000
00000
00000
13000
00000
10000
00000
,
00020
00000
00000
00230
00000
00000
00310
00000
01000
00000
00000
00001
00100
00000
00100
00000
,
00020
00000
00000
20030
00000
00000
30020
00000
00000
02030
00000
00000
03010
00000
00010
00000
,
10000
00100
10000
00000
00001
00100
00001
00000
00010
01000
00000
01000
00010
00000
00000
00000
,
10000
00000
00001
00010
00001
00000
00000
00000
00000
00000
00000
00000
00000
00000
00000
00000
;

//---------------pump-single - ----------------
#NOTES:
     pump-single:
     :
     Medium:
     56:
     0.341,0.407,0.119,0.129,0.119,216.000,12.000,13.000,0.000,0.000:
00000
00000
00000
00000
,
00000
00000
00000
00000
,
00000
00000
00000
00000
,
00000
00000
00000
00000
,
00001
00000
00000
00010
00000
00000
00100
00000
00000
01000
00000
00000
10000
00000
00000
00000
,
01000
00000
00000
00010
00000
00000
10000
00000
00001
00000
00000
00000
10001
00000
00000
00000
,
10000
00000
00000
01000
00000
00000
00100
00000
00000
00010
00000
00000
00001
00000
00000
00000
,
00010
00000
00100
00000
00010
00000
01000
00000
00100
00000
00000
01000
00000
00000
00000
00000
,
10000
00000
00000
01000
00000
00000
00100
00000
00000
00010
00000
00000
00001
00000
00000
00000
,
10000
00000
00000
00010
00000
00000
01000
00000
00001
00000
00000
00000
00011
00000
00000
00000
,
10000
00000
00000
01000
00000
00000
00100
00000
00000
00010
00000
00000
00001
00000
00000
00000
,
00010
00000
00100
00000
00010
00000
00100
00000
00001
00000
00000
10000
00000
00000
00000
00000
,
00010
00100
00010
00000
10001
00000
10001
00000
,
01000
00100
01000
00000
10001
00000
10001
00000
,
10000
00100
10000
00000
01010
00000
01010
00000
,
00001
00100
00001
00000
01010
00000
01010
00000
,
00000
10000
00000
00100
00000
10000
00000
00010
,
00000
01000
00000
00001
00000
00100
00000
00001
,
00000
01000
00000
00100
00000
10000
00000
00010
,
00000
10000
00000
00001
00000
01000
00000
00010
,
10000
00010
00100
00010
02000
00000
00010
00000
,
03010
00100
00001
01000
00200
00000
10000
00000
,
10300
00001
01000
00010
20000
00000
00100
00000
,
30100
01000
00010
00100
00002
00000
10000
00000
,
10003
00010
00100
00010
02000
00010
00010
00000
,
03010
00100
00001
01000
00200
10000
10000
00000
,
10300
00001
01000
00010
20000
00100
00100
00000
,
30100
01000
00010
00100
00002
01000
01000
00000
,
01003
00010
10000
01000
,
10000
00010
01000
00100
,
00010
00100
10000
00001
,
00100
00010
01000
00001
,
00010
00001
10000
01000
,
10000
00100
01000
00010
,
00100
00001
10000
00010
,
00200
00302
00203
00302
,
10003
00000
00000
00000
00000
00000
00000
00100
,
01000
00000
00000
00010
,
00000
00000
00000
00000
00000
00000
00000
10000
,
00001
00000
00100
00100
00000
00000
00020
00000
,
00031
00000
00000
00010
00000
00000
00100
00000
00000
01000
00000
00000
10000
00000
00000
00000
,
01000
00000
00000
00010
00000
00000
10000
00000
00001
00000
00000
00000
10001
00000
00000
00000
,
10000
00000
00000
01000
00000
00000
00100
00000
00000
00010
00000
00000
00001
00000
00000
00000
,
00010
00000
00100
00000
00010
00000
01000
00000
00100
00000
00000
01000
00000
00000
00000
00000
,
10000
00000
00000
01000
00000
00000
00100
00000
00000
00010
00000
00000
00001
00000
00000
00000
,
10000
00000
00000
00010
00000
00000
01000
00000
00001
00000
00000
00000
00011
00000
00000
00000
,
10000
00000
00000
01000
00000
00000
00100
00000
00000
00010
00000
00000
00001
00000
00000
00000
,
00010
00000
00100
00000
00010
00000
00100
00000
00001
00000
00000
10000
00000
00000
00000
00000
,
00010
00100
00010
00000
00000
00000
00000
00000
;

//---------------pump-single - ----------------
#NOTES:
     pump-single:
     :
     Easy:
     27:
     0.173,0.215,0.010,0.010,0.000,120.000,1.000,1.000,0.000,0.000:
00000
00000
00000
00000
,
00000
00000
00000
00000
,
00000
00000
00000
00000
,
00000
00000
00000
00000
,
00001
00010
00100
01000
,
10000
01000
00100
00010
,
00001
00010
00100
01000
,
10000
01000
00100
10000
,
00001
00010
00100
01000
,
10000
01000
00100
00010
,
10000
01000
00100
00010
,
00100
01000
10000
00100
,
01000
00000
00001
00001
,
00100
00000
00010
00010
,
10000
00000
00100
00100
,
01000
00000
00001
00001
,
00100
00000
00010
00000
,
01000
00000
00010
00000
,
00100
00000
00001
00000
,
10000
00000
00000
00000
,
00100
01000
00100
00000
,
10000
00010
10000
00000
,
00001
00100
00001
00000
,
01000
00100
01000
00000
,
00010
10000
00100
00000
,
01000
00001
00100
00000
,
00010
00100
00001
00000
,
01000
00100
01000
00100
,
10000
00000
00000
00000
,
00010
00000
00000
00000
,
10000
00000
00000
00000
,
00010
00000
00000
00000
,
01000
00000
00000
00000
,
00001
00000
00000
00000
,
01000
00000
00000
00000
,
00002
00000
00000
00000
,
10003
00000
00000
00000
,
00000
00000
00000
00000
,
00101
00000
00000
00000
,
00000
00000
00000
00000
,
10000
01000
00100
00010
,
00001
00010
00100
01000
,
10000
01000
00100
00010
,
00001
00010
00100
00001
,
10000
01000
00100
00010
,
00001
00010
00100
00001
,
01000
00100
00010
00100
,
01000
00001
10000
00001
,
01000
00010
00000
00000
;

//---------------pump-single - Copied from----------------
#NOTES:
     pump-single:
     Copied from:
     Beginner:
     14:
     0.079,0.144,0.000,0.020,0.000,54.000,0.000,2.000,0.000,0.000:
00000
00000
00000
00000
,
00000
00000
00000
00000
,
00000
00000
00000
00000
,
00000
00000
00000
00000
,
00100
00000
00000
00000
,
00100
00000
00000
00000
,
00100
00000
00000
00000
,
00100
00000
00000
00000
,
00001
00000
00000
00000
,
00001
00000
00000
00000
,
00001
00000
00000
00000
,
00001
00000
00000
00000
,
00000
10000
00000
00000
,
10000
00000
00000
00000
,
00100
00000
00000
00000
,
00100
00000
00000
00000
,
01000
00000
00000
00000
,
00010
00000
00000
00000
,
01000
00000
00000
00000
,
00010
00000
00000
00000
,
10000
00000
00000
00000
,
00000
00000
00000
00001
,
01000
00000
00000
00000
,
00000
00000
00000
00100
,
01000
00000
00000
00000
,
00000
00000
00000
00000
,
00010
00000
00000
00000
,
10000
01000
10000
01000
,
10000
00000
00000
00000
,
00001
00000
00000
00000
,
00010
00000
00000
00000
,
00100
00000
00000
00000
,
00001
00000
00000
00000
,
00010
00000
00000
00000
,
00001
00000
00000
00000
,
01000
00000
00000
00000
,
00200
00000
00000
00000
,
00000
00000
00000
00000
,
02300
00000
00000
00000
,
00000
00000
00000
00000
,
03001
00000
10000
00000
,
00001
00000
10000
00000
,
00001
00000
10000
00000
,
00001
00000
10000
00000
,
00010
00000
01000
00000
,
00010
00000
01000
00000
,
00010
00000
01000
00000
,
00010
00000
01000
00000
,
00100
00100
00000
00000
;
