#TITLE:Get Down!;
#SUBTITLE:;
#ARTIST:Jakazid;
#TITLETRANSLIT:;
#SUBTITLETRANSLIT:;
#ARTISTTRANSLIT:;
#CREDIT:;
#BANNER:getdown-banner.png;
#SONGINFO:getdown-songinfo.png;
#BACKGROUND:getdown-bg.png;
#LYRICSPATH:;
#CDTITLE:./CDTITLES/neon.png;
#CHARACTER:./SongCharacters/jakazid;
#MUSIC:Get Down.ogg;
#OFFSET:-0.060;
#SAMPLESTART:23.020;
#SAMPLELENGTH:12.000;
#SELECTABLE:YES;
#BPMS:0.000=167.000;
#STOPS:;
#BGCHANGES:-2.000=visffd320.avi=1.000=1=1=0
;
// cache tags:
#FIRSTBEAT:16.000;
#LASTBEAT:256.000;
#SONGFILENAME:Songs/Neon FM/Get Down/Get Down.sm;
#HASMUSIC:1;
#HASBANNER:1;
#MUSICLENGTH:94.093;
// end cache tags

//---------------pump-single - ----------------
#NOTES:
     pump-single:
     :
     Hard:
     90:
     0.670,0.646,0.074,0.319,0.170,404.000,7.000,30.000,0.000,0.000:
00000
00000
00000
00000
,
00000
00000
00000
00000
,
00000
00000
00000
00000
,
00000
00000
00000
00000
,
10000
00000
00000
00000
,
00001
00000
00000
00000
00000
00000
00000
00010
,
01000
00000
00000
00000
,
00001
00000
10000
00000
00010
01000
00010
01000
,
00001
00010
00001
10000
01000
01000
10000
00000
,
00010
01000
01000
00100
10000
10000
00001
00000
,
00100
00010
00010
10000
00100
00100
01000
00000
,
00010
00100
00010
00100
00010
00100
00010
00000
,
10000
01000
10000
00001
00010
00010
00001
00000
,
01000
00010
00010
00100
00001
00001
10000
00000
,
00100
01000
01000
00001
00100
00100
00010
00000
,
01000
00100
01000
00100
01000
00100
02000
00000
00000
03001
00000
00000
,
00200
00000
00310
01000
00001
01000
00010
01000
,
00002
00000
10003
01000
10000
00100
01000
00100
,
20000
00000
30010
00100
01000
00100
00010
10000
,
01000
00000
01000
00000
10000
00000
00010
00100
00000
00000
00001
00000
00001
00000
00001
00000
,
00200
00000
00301
10000
00010
10000
00001
10000
,
00020
00000
01030
10000
01000
00100
10000
00100
,
01000
00020
00000
00000
00000
00000
00000
00000
00000
00000
00000
00000
00030
00000
00000
00000
,
01000
00000
00000
00001
00000
00000
00100
00000
00010
00000
00000
01000
00000
00000
00100
00000
,
01000
00001
00100
00010
01000
00010
10000
00100
,
01000
00100
10000
00001
00100
00010
00100
00010
,
01000
00100
01000
00010
10000
00001
01000
00100
,
01000
00001
00001
00100
00001
00001
00010
00001
,
10000
01000
00100
01000
10000
00010
01000
00100
,
01000
00010
01000
00001
10000
00100
01000
00001
,
00100
00010
00001
00010
00100
00001
10000
10000
,
10010
00000
00000
01010
00000
00000
01001
00000
02020
00000
00000
00000
00000
00000
03030
00000
,
00010
00000
00000
00100
00000
00000
00001
00000
10000
00000
01000
00000
10000
00000
00000
00000
,
00100
00000
00000
01000
00000
00000
00001
00000
10000
00000
01000
00000
00100
00000
00000
00000
,
01000
00000
00000
10000
00000
00000
00010
00000
00100
00000
00001
00000
00010
00000
00000
00000
,
00001
00000
00000
10000
00000
00010
00100
00000
00010
00000
00010
00000
10000
00000
00100
00000
,
01000
00000
00000
00100
00000
00000
10000
00000
00001
00000
00010
00000
00002
00000
00000
00000
,
00103
00000
00000
00010
00000
00000
10000
00000
00001
00000
00010
00000
00200
00000
00000
00000
,
00310
00000
00000
00001
00000
00000
01000
00000
00100
00000
10000
00000
02000
00000
00000
00000
,
23000
30002
00203
00000
,
00310
00000
10000
00000
00010
00000
01000
00100
01000
00000
00001
00000
00100
00000
00000
00000
,
00010
00000
10000
00100
00000
10000
00100
00000
01000
00000
00010
00000
10000
00000
00000
00000
,
00001
01000
00000
00001
01000
00000
00001
01000
00000
00001
01000
00000
00001
01000
00000
00001
,
01000
00010
10000
00010
01000
00100
01000
00000
,
00001
00010
00100
00010
00001
10000
00100
00000
,
01000
00010
00100
01000
00100
00010
10000
00000
,
00001
00010
00000
00001
00010
00000
00001
00010
00001
00000
01000
00000
10000
00000
00000
00000
,
10000
01000
00100
00010
00001
10000
01000
00100
,
00200
00000
00310
01000
00001
01000
00010
01000
,
00002
00000
10003
01000
10000
00100
01000
00100
,
20000
00000
30010
00100
01000
00100
00010
10000
,
01000
00000
01000
00000
10000
00000
00010
00100
00000
00000
00001
00000
00001
00000
00001
00000
,
00200
00000
00301
10000
00010
10000
00001
10000
,
00020
00000
01030
10000
01000
00100
10000
00100
,
02000
00000
03001
00100
00010
01000
00001
00001
,
10000
00000
10000
00000
00010
00000
00100
00002
00000
00000
01000
00000
01000
00000
01003
00000
,
00200
00000
01300
00010
10000
00010
01000
00010
,
20000
00000
30001
00010
00001
00100
00010
00100
,
00002
00000
01003
00100
00010
00100
01000
00001
,
00010
00000
00010
00000
00001
00000
01000
00100
00000
00000
10000
00000
10000
00000
10000
00000
,
00200
00000
10300
00001
01000
00001
10000
00001
,
02000
00000
03010
00001
00010
00100
00001
00100
,
00010
00010
01000
00100
10000
10000
00020
00000
,
01030
00001
00100
01010
02020
00000
00000
03030
,
10001
00000
00000
00000
;

//---------------pump-single - ----------------
#NOTES:
     pump-single:
     :
     Medium:
     68:
     0.531,0.578,0.000,0.308,0.011,321.000,0.000,29.000,0.000,0.000:
00000
00000
00000
00000
,
00000
00000
00000
00000
,
00000
00000
00000
00000
,
00000
00000
00000
00000
,
00001
00000
00000
00000
,
01000
00000
00000
00000
,
00100
00000
00000
00000
,
00000
00000
00000
00000
01000
00010
01000
00010
,
10000
01000
10000
01000
10000
01000
10000
00000
,
00100
01000
00100
01000
00100
01000
00100
00000
,
01000
00010
01000
00010
01000
00010
01000
00000
,
00010
00100
00010
00100
00010
00100
00010
00000
,
00100
00001
00100
00001
00100
00001
00100
00000
,
00001
00010
00001
00010
00001
00010
00001
00000
,
01000
00010
01000
00010
01000
00010
01000
00000
,
00020
00230
00302
10003
,
00010
00000
00100
00001
00100
00010
00100
00000
,
00001
00000
10000
01000
10000
00100
01000
00000
,
00010
00000
00100
00001
10000
00100
01000
00000
,
00100
00100
10000
00000
00001
00001
00100
00000
,
00010
00000
10000
00100
01000
00010
00100
00000
,
00001
00000
00100
00001
00010
00001
01000
00000
,
00200
00000
00000
00000
,
10300
00000
00000
00001
00000
00000
10000
00000
00020
00000
00000
00000
00000
00000
00000
00000
,
01030
00000
00100
00000
10000
00010
00100
00000
,
00001
00000
01000
00000
00010
00100
01000
00000
,
00100
00000
00010
00000
10000
00100
01000
00000
,
00010
00000
00100
00000
00010
01000
00001
00000
,
20000
00000
32000
00000
13000
00010
00100
00000
,
00020
00000
02030
00000
03010
10000
00100
00000
,
02000
00000
03200
00000
00310
00100
01000
00000
,
00001
00000
00000
01000
00000
00000
00001
00000
01000
00000
00000
00000
00000
00000
00000
00000
,
00020
02030
03020
00130
,
00001
00010
00001
00000
10000
00000
00100
00000
,
01000
00010
10000
00100
01000
00100
01000
00000
,
00010
00000
10000
00001
00002
00000
00103
00000
,
00010
00000
00100
00000
00001
01000
00001
00000
,
10000
00000
00100
00000
01000
00010
00100
00000
,
00010
00000
01000
00010
00100
00010
00100
00000
,
00002
00203
00320
00000
,
10030
01000
00100
01000
,
10000
00010
01000
00001
,
00100
00010
00001
00010
,
00100
00001
10000
00100
,
01000
00100
01000
00000
00010
00100
00010
00000
,
10000
00100
10000
00000
00001
00100
00001
00000
,
01000
00010
01000
00000
00010
01000
00010
00000
,
10000
00001
10000
00000
00001
10000
00001
10000
,
00010
00000
00100
00001
00100
00010
00100
00000
,
00001
00000
10000
01000
10000
00100
01000
00000
,
00010
00000
00100
00001
10000
00100
01000
00000
,
00100
00100
10000
00000
00001
00001
00100
00000
,
00010
00000
10000
00100
01000
00010
00100
00000
,
00001
00000
00100
00001
00010
00001
01000
00000
,
00100
00000
10000
01000
10000
00100
01000
00000
,
00010
00010
00100
00000
00010
00010
01000
00000
,
00200
00000
01300
00010
10000
00001
00200
00000
,
00320
00000
10030
00100
01000
00010
20000
00000
,
30002
00000
00103
00001
00010
00001
02000
00000
,
03100
00100
20000
00000
30010
00100
00100
00100
,
00020
00000
01030
00100
10000
00100
01000
00010
,
00200
00000
00301
01000
00100
00010
00100
01000
,
00020
00000
10030
01000
10000
00100
01000
00001
,
00010
00010
00002
00000
10000
00000
01000
00000
,
10003
00000
00000
00000
;

//---------------pump-single - ----------------
#NOTES:
     pump-single:
     :
     Easy:
     37:
     0.269,0.306,0.011,0.000,0.000,176.000,1.000,0.000,0.000,0.000:
00000
00000
00000
00000
,
00000
00000
00000
00000
,
00000
00000
00000
00000
,
00000
00000
00000
00000
,
00001
00000
00000
00000
,
01000
00000
00000
00000
,
00010
00000
00000
00000
,
10000
00100
01000
00100
,
10000
00010
01000
00100
,
10000
00001
00100
00001
,
00100
00010
00100
00001
,
01000
00100
10000
00010
,
00010
00100
00001
01000
,
00100
10000
00010
00100
,
00010
01000
00001
10000
,
00100
00100
00100
00100
,
01000
00000
00010
00100
,
00001
00000
10000
00100
,
01000
00000
00010
01000
,
00010
00000
10000
00100
,
01000
00000
00010
00100
,
00001
00000
10000
00001
,
10000
00000
00000
00000
,
01000
00010
00100
00000
,
00010
00000
01000
00000
,
00001
00000
00100
00010
,
01000
00000
00010
00000
,
10000
00000
00001
01000
,
00001
00000
10000
00000
,
00100
00000
01000
00100
,
10000
00000
00010
00000
,
00100
01000
00100
00010
,
00010
00000
01000
00000
,
00001
00000
10000
00000
,
00100
00000
10000
00000
,
00010
00000
00100
00001
,
01000
00000
00001
00000
,
00100
00000
00010
00000
,
10000
00000
00100
00000
,
01000
00000
00000
00000
,
00100
10000
00010
00000
,
00001
10000
00001
00000
,
01000
00100
10000
00000
,
00010
00100
00001
00000
,
00001
10000
00100
00000
,
00100
10000
00001
00000
,
01000
00010
01000
00000
,
00010
01000
00010
00010
,
10000
00000
00001
10000
,
00010
00000
00100
00001
,
01000
00000
00100
10000
,
00010
00100
00001
01000
,
00001
00000
10000
00100
,
01000
00000
10000
00010
,
00100
00000
00010
01000
,
00001
00100
00010
10000
,
10000
00000
00100
01000
,
00001
00000
00100
00001
,
10000
00000
00010
10000
,
00100
01000
00100
10000
,
00010
00000
00100
00010
,
01000
00000
00001
01000
,
00001
00000
10000
00010
,
10000
00100
01000
00100
,
10010
00000
00000
00000
;

//---------------pump-single - Copied from----------------
#NOTES:
     pump-single:
     Copied from:
     Beginner:
     24:
     0.161,0.238,0.000,0.000,0.000,106.000,0.000,0.000,0.000,0.000:
00000
00000
00000
00000
,
00000
00000
00000
00000
,
00000
00000
00000
00000
,
00000
00000
00000
00000
,
00010
00000
00000
00000
,
00000
00000
00000
00000
,
00100
00000
00000
00000
,
00001
01000
00001
01000
,
00001
00000
00000
00000
,
10000
00000
00000
00000
,
00010
00000
00000
00000
,
00100
00000
00000
00000
,
00010
00000
00000
00000
,
01000
00000
00000
00000
,
00001
00000
00000
00000
,
10000
00000
00000
00000
,
00010
01000
00100
00000
,
01000
00010
00100
00000
,
00010
01000
00100
00000
,
10000
00001
10000
00000
,
00100
01000
00010
00000
,
01000
00010
00100
00000
,
00010
01000
00000
00000
,
00001
10000
00000
00000
,
00100
00000
00010
00000
,
00100
00000
01000
00000
,
00100
00000
00010
00000
,
00100
00000
01000
00000
,
00100
00000
00010
00000
,
00100
00000
01000
00000
,
00100
00000
00010
00000
,
00100
00000
01000
00000
,
00001
00000
00000
00000
,
10000
00000
00000
00000
,
00010
00000
00000
00000
,
00100
00000
00000
00000
,
00001
00000
00000
00000
,
01000
00000
00000
00000
,
00100
00000
00000
00000
,
10000
00000
00000
00000
,
00010
00000
00000
00000
,
00000
00000
00000
00000
,
01000
00000
00000
00000
,
00001
00000
00000
00000
,
10000
00000
00000
00000
,
00000
00000
00000
00000
,
00100
00000
00000
00000
,
01000
00000
00000
00000
,
00010
00100
00001
01000
,
00000
00000
00000
00000
,
00001
10000
00010
00100
,
00000
00000
00000
00000
,
00010
01000
00100
10000
,
00000
00000
00000
00000
,
00001
10000
00010
00100
,
00000
00000
00000
00000
,
01000
00100
10000
00000
,
00010
00100
00001
00000
,
01000
00001
01000
00000
,
00010
10000
00010
00000
,
00100
00001
01000
00000
,
00100
10000
00010
00000
,
00100
00010
01000
00000
,
00100
00000
00100
00000
,
00100
00000
00000
00000
;
