#TITLE:Zap! (chip set remix);
#SUBTITLE:;
#ARTIST:DJ Potatoe VS Virt;
#TITLETRANSLIT:;
#SUBTITLETRANSLIT:;
#ARTISTTRANSLIT:;
#CREDIT:;
#BANNER:zap-banner.png;
#SONGINFO:zap-songinfo.png;
#BACKGROUND:zap-bg.png;
#LYRICSPATH:;
#CDTITLE:./CDTITLES/neon.png;
#CHARACTER:./SongCharacters/Virt;
#MUSIC:Zap remix.mp3;
#OFFSET:-0.640;
#SAMPLESTART:21.880;
#SAMPLELENGTH:12.000;
#SELECTABLE:YES;
#BPMS:0.000=180.020;
#STOPS:286.000=1.000
;
#BGCHANGES:-2.000=visffd320.avi=1.000=1=1=0
;
// cache tags:
#FIRSTBEAT:32.000;
#LASTBEAT:312.000;
#SONGFILENAME:Songs/Neon FM/Zap/Zap.sm;
#HASMUSIC:1;
#HASBANNER:1;
#MUSICLENGTH:108.851;
// end cache tags

//---------------pump-single - ----------------
#NOTES:
     pump-single:
     :
     Hard:
     83:
     0.617,0.681,0.340,0.496,0.579,379.000,37.000,54.000,0.000,0.000:
00000
00000
00000
00000
,
00000
00000
00000
00000
,
00000
00000
00000
00000
,
00000
00000
00000
00000
,
00000
00000
00000
00000
,
00000
00000
00000
00000
,
00000
00000
00000
00000
,
00000
00000
00000
00000
,
10000
00000
10000
00010
00000
00000
10000
00000
10000
00010
00000
00000
,
00100
00000
00100
00001
00000
00000
00100
00000
00100
00001
00000
00000
,
01000
00000
01000
00010
00000
00000
01000
00000
01000
00010
00000
00000
,
10000
00000
10000
00010
00000
00000
10000
00000
10000
00010
00000
00010
,
01000
00000
01000
00001
00000
00000
01000
00000
01000
00001
00000
00000
,
00100
00000
00100
00010
00000
00000
00100
00000
00100
00010
00000
00000
,
10000
00000
10000
00001
00000
00000
10000
00000
10000
00001
00000
00000
,
10100
01010
10100
01010
,
00200
00302
02003
03020
,
20030
00000
00000
30001
00000
00001
01000
00000
01000
00010
00000
00000
,
01000
00100
01000
00100
01000
00100
01000
00100
01000
00100
00000
00000
,
20000
30200
02300
03002
,
00023
00000
00000
00031
00000
00001
01000
00000
01000
00200
00000
00000
,
10300
00000
00100
00000
10000
00000
00001
00000
00100
00000
00001
00000
,
02000
03020
20030
30002
,
20003
00000
00000
30010
00000
00010
00100
00000
00100
00001
00000
00000
,
01000
00010
01000
00010
01000
00010
02000
00000
00000
03010
00000
00000
,
00200
00302
20003
30200
,
02300
00000
00000
03010
00000
00010
10000
00000
10000
00001
00000
00000
,
20002
30003
00101
20200
,
30300
02020
00000
03030
,
00100
00000
00100
10000
00000
00001
00100
00000
00010
01000
00000
00100
,
10000
00000
00010
10000
00000
00001
10000
00000
00100
10000
00000
00010
,
00100
00000
00001
00100
00000
00010
00100
00000
00001
00100
00000
00100
,
00001
00000
10000
00001
00000
10000
00010
00000
10000
00100
00000
10000
,
01000
00000
10000
00100
00000
01000
00010
00000
00100
00001
00000
01000
,
00001
00000
01000
00100
00000
10000
00010
00000
00100
00001
00000
01000
,
00100
00000
10000
00001
00000
01000
00010
00000
00100
00010
00000
01000
,
00010
00000
00010
01000
00000
01000
00001
00000
00000
01001
00000
00000
,
10000
01000
10000
01000
00000
00000
10000
00100
10000
00100
00000
00000
,
01000
00010
01000
00010
00000
00000
01000
00001
01000
00001
00000
00000
,
10000
00000
10000
00100
00000
00100
00000
00000
00100
10000
00000
00000
,
00101
01001
01010
10010
,
00100
00000
00100
00001
00000
00001
00000
00000
00001
01000
00000
00000
,
00110
00000
00000
10010
00000
00000
01010
00000
00000
01000
00100
01000
,
00100
00000
00100
10000
00000
10000
00000
00000
10000
00010
00000
00000
,
10010
00110
00101
10001
,
00010
00000
00010
10000
00000
10000
00000
00000
10000
00001
00000
00000
,
11000
00000
11000
00000
00000
00000
00011
00000
00011
00000
00000
00000
,
00100
00000
00000
10000
00000
00000
00010
00000
01000
01000
00000
00000
,
00001
00010
00100
00010
,
00001
00000
00000
10010
00000
00000
01000
00000
00001
00001
00000
00000
,
10000
00010
01001
10010
,
00001
00000
00000
00100
00000
00000
00001
00000
01000
01000
00000
00000
,
00100
10001
01010
00100
,
10000
00000
00000
00001
00000
00000
00100
00000
00010
00010
00000
00000
,
10100
01000
00100
10000
,
00100
00000
00000
01000
00000
00000
00010
00000
00010
10010
00000
00000
,
00100
00001
10000
00010
,
10001
00000
00000
00100
00000
00000
00010
00000
01000
01000
00000
00000
,
00001
00100
00010
01000
,
00001
00000
00000
10000
00000
00000
00100
00000
10000
10000
00000
00000
,
20000
00001
00100
00001
,
30100
00000
10000
00000
00001
00000
10000
00010
10000
00010
00000
00000
,
01000
00001
01000
00001
00000
00000
10000
00100
10000
00100
00000
00000
,
10000
00100
10000
00100
00000
00000
00200
00000
00000
20300
00000
00000
,
30020
00000
00000
02030
00000
00000
03002
00000
00000
10003
00000
10000
,
00010
00000
00010
01000
00000
00000
00010
00100
00010
00100
00010
00100
,
00010
01000
00010
01000
00000
00000
00002
00000
00000
00203
00000
00000
,
00320
00000
00000
20030
00000
00000
32000
00000
00000
13000
00000
10000
,
00010
00000
00010
00200
00000
00000
00301
00000
00100
00000
00001
00000
,
10000
00000
00100
00000
10000
00000
00020
00000
00000
02030
00000
00000
,
03002
00000
00000
20003
00000
00000
30002
00000
00000
01003
00000
01000
,
00100
00000
00100
10000
00000
00000
00010
00000
00000
00200
00000
00000
,
20300
30002
00203
00320
,
01030
00000
01000
00001
00000
00001
10000
00000
00000
10001
00000
00000
,
00000
10100
00202
00303
,
00110
02200
00000
00000
,
00000
00000
00000
00000
,
00000
00000
00000
00000
,
03300
00000
00000
00000
;

//---------------pump-single - ----------------
#NOTES:
     pump-single:
     :
     Medium:
     71:
     0.555,0.601,0.285,0.634,0.335,323.000,31.000,69.000,0.000,0.000:
00000
00000
00000
00000
,
00000
00000
00000
00000
,
00000
00000
00000
00000
,
00000
00000
00000
00000
,
00000
00000
00000
00000
,
00000
00000
00000
00000
,
00000
00000
00000
00000
,
00000
00000
00000
00000
,
10100
00000
00000
10100
00000
00000
01000
00000
00010
01000
00000
00000
,
00001
10000
00001
10000
,
00101
00000
00000
00101
00000
00000
00010
00000
01000
00010
00000
00000
,
10000
00010
01000
00001
,
10010
00000
00000
10010
00000
00000
00100
00000
00001
00100
00000
00000
,
00010
10000
00001
01000
,
01001
00000
00000
01001
00000
00000
00100
00000
00010
10000
00000
00000
,
10100
10010
10100
11000
,
00002
20003
30002
20003
,
30020
00000
00000
00130
00000
00001
00100
00000
00001
00100
00000
00000
,
00010
00000
00000
01000
00000
00000
00100
01000
00100
01000
00000
00000
,
00020
02030
03020
02030
,
03200
00000
00000
10300
00000
00010
10000
00000
00010
10000
00000
00000
,
00001
00000
10000
00000
00010
00000
10000
00000
00001
00000
01000
00000
,
00200
20300
30200
02300
,
03020
00000
00000
10030
00000
00010
10000
00000
00010
01000
00000
00000
,
01001
00000
00000
01000
00001
01000
00002
00000
00000
00003
00000
00000
,
20000
30200
02300
03002
,
00023
00000
00000
00031
00000
00001
01000
00000
01000
00001
00000
00000
,
02002
03003
00101
00202
,
00303
00000
00000
00022
00000
00000
00000
00000
00000
00033
00000
00001
,
00100
00000
00000
00001
00000
00000
10000
00000
00000
00010
00000
01000
,
00100
00000
00000
10000
00000
00000
00010
00000
00000
00100
00000
00001
,
00100
00000
00000
00010
00000
00000
01000
00000
00000
00010
00000
00100
,
00001
00000
00000
10000
00000
00000
01000
00000
00000
10000
00000
00100
,
01000
00000
00000
00001
00000
00000
01000
00000
00000
00010
00000
10000
,
00010
00000
00000
01000
00000
00000
00010
00000
00000
00010
00000
10000
,
00200
01300
00002
10003
,
00020
10030
00200
00000
,
10300
00010
10000
00010
00000
00000
10000
00010
10000
00010
00000
00000
,
01000
00001
01000
00001
00000
00000
01000
00001
01000
00001
00000
00000
,
00100
00000
00100
00010
00000
00010
00000
00000
00010
00100
00000
00000
,
00002
20003
30020
02030
,
03001
00000
00001
00100
00000
00100
00000
00000
00100
00001
00000
00000
,
02000
03020
20030
30002
,
00103
00000
00100
00010
00000
00010
00000
00000
00010
00100
00000
00000
,
00002
20003
30020
02030
,
03001
00000
00001
00100
00000
00100
00000
00000
00100
00001
00000
00000
,
01000
00000
01010
00000
00000
00000
00010
00000
01010
00000
00000
00000
,
10000
00010
10000
00010
,
01000
00001
01000
00001
,
00100
10001
00100
00001
,
01000
00001
10010
10010
,
00100
01000
00010
00100
,
00001
01001
01001
10000
,
00001
10000
00001
10000
,
01010
00010
01000
00001
,
10000
00100
10000
01010
,
00001
00100
00001
01000
,
00101
10000
00100
01000
,
00010
00100
00001
10000
,
00100
01000
00010
00100
,
00001
10000
00001
00001
,
01000
00000
00010
00000
00100
00000
00001
00100
00001
00100
00000
00000
,
00001
00100
00001
00100
00000
00000
00100
00001
00100
00001
00000
00000
,
00100
00001
00100
00001
00000
00000
20000
00000
00000
30002
00000
00000
,
20003
00000
00000
30002
00000
00000
02003
00000
00000
03100
00000
10000
,
00100
00000
10000
00100
00000
00000
01000
00000
00000
00010
00000
00000
,
00100
00010
00100
00010
00000
00000
02000
00000
00000
03020
00000
00000
,
02030
00000
00000
03020
00000
00000
00230
00000
00000
00301
00000
01000
,
00001
00000
01000
00001
00000
00000
10000
00000
00001
00000
01000
00000
,
00001
00000
10000
00000
00010
00000
00200
00000
00000
00302
00000
00000
,
00203
00000
00000
00320
00000
00000
02030
00000
00000
03001
00000
01000
,
00001
00000
01000
00010
00000
00000
10000
00000
00000
00002
00000
00000
,
00203
00320
20030
32000
,
13000
00000
10000
00010
00000
00010
10000
00000
00000
20020
00000
00000
,
30030
10100
20200
30300
,
00000
20200
00000
00000
,
00000
00000
00000
00000
,
30300
00000
00000
00000
;

//---------------pump-single - ----------------
#NOTES:
     pump-single:
     :
     Easy:
     35:
     0.231,0.322,0.000,0.009,0.000,175.000,0.000,1.000,0.000,0.000:
00000
00000
00000
00000
,
00000
00000
00000
00000
,
00000
00000
00000
00000
,
00000
00000
00000
00000
,
00000
00000
00000
00000
,
00000
00000
00000
00000
,
00000
00000
00000
00000
,
00000
00000
00000
00000
,
00001
00000
00001
00000
,
10000
00000
10000
00000
,
00100
00000
00100
00000
,
01000
00000
01000
00000
,
00010
00000
00010
00000
,
00100
00000
00100
00000
,
00001
00000
00001
00000
,
01000
00000
00000
00000
,
00001
10000
00100
10000
,
00001
00100
00001
10000
,
00010
00000
01000
00000
,
00001
10000
00010
10000
,
00001
01000
00001
00000
,
10000
00000
00010
00000
,
00001
01000
00001
10000
,
00010
00100
00001
00000
,
00001
00000
01000
00000
,
10000
00100
10000
00010
,
00100
00001
01000
00000
,
00001
00000
10000
00001
,
00000
00100
00000
00000
,
00001
10000
00000
00000
,
00001
10000
00000
00000
,
01000
00010
00000
00000
,
01000
00010
00000
00000
,
00100
00100
00000
00000
,
00001
00001
00000
00000
,
10000
10000
00000
00000
,
00010
00010
00000
00000
,
10000
00000
00001
00000
,
10000
00000
00001
00000
,
10000
00100
10000
00000
,
00001
00100
00001
00000
,
01000
00010
01000
00000
,
00100
10000
00100
00000
,
00001
00100
00001
00000
,
01000
00001
01000
00000
,
00010
00100
00010
00000
,
10000
00000
00001
00000
,
10000
00000
10000
00000
,
00001
00000
00100
00000
,
10000
00000
10000
00000
,
00001
00000
00100
00000
,
00010
00000
00010
00000
,
00100
00100
00100
00000
,
01000
00000
00001
00000
,
01000
00000
01000
00000
,
00001
00000
00001
00000
,
10000
00100
10000
00000
,
00010
00000
00100
00000
,
00001
10000
00001
00000
,
00010
00000
01000
00000
,
00100
01000
00010
00000
,
10000
00000
10000
00000
,
00001
00000
00001
00000
,
00001
00000
10000
00001
,
10000
00100
01000
00010
,
00100
00001
01000
00000
,
01000
00000
00010
10000
,
00100
01000
00100
10000
,
00001
00000
00010
00000
,
00010
00000
10000
00001
,
00100
00001
10000
00010
,
01000
00100
10000
00001
,
10000
00010
00100
00010
,
01000
00001
10000
00100
,
00000
10000
00001
00000
,
10000
00020
00000
00000
,
00000
00000
00000
00000
,
00000
00000
00000
00000
,
00030
00000
00000
00000
;

//---------------pump-single - Copied from----------------
#NOTES:
     pump-single:
     Copied from:
     Beginner:
     24:
     0.148,0.251,0.000,0.009,0.000,112.000,0.000,1.000,0.000,0.000:
00000
00000
00000
00000
,
00000
00000
00000
00000
,
00000
00000
00000
00000
,
00000
00000
00000
00000
,
00000
00000
00000
00000
,
00000
00000
00000
00000
,
00000
00000
00000
00000
,
00000
00000
00000
00000
,
00010
00000
00000
00000
,
01000
00000
00000
00000
,
00010
00000
00000
00000
,
01000
00000
00000
00000
,
00100
00000
00000
00000
,
10000
00000
00000
00000
,
00100
00000
00000
00000
,
10000
00000
00000
00000
,
00001
00100
00001
00000
,
10000
00100
10000
00000
,
00010
01000
00010
00000
,
00100
10000
00100
00000
,
01000
00010
01000
00000
,
00001
00000
00000
00000
,
00100
00001
00100
00000
,
00010
01000
00010
00000
,
10000
00100
10000
00000
,
00100
00001
00100
00000
,
01000
00010
01000
00000
,
00100
00000
00100
00000
,
00000
00000
00000
00000
,
00001
00000
00000
00000
,
10000
00000
00000
00000
,
00010
00000
00000
00000
,
01000
00000
00000
00000
,
00100
00000
00000
00000
,
10000
00000
00000
00000
,
00010
00000
00000
00000
,
00100
00000
00000
00000
,
00001
00000
00001
00000
,
00001
00000
00001
00000
,
00001
00000
00000
00000
,
10000
00000
00000
00000
,
00010
00000
00000
00000
,
00010
00000
00000
00000
,
01000
00000
00000
00000
,
01000
00000
00000
00000
,
00100
00000
00000
00000
,
00100
00000
00100
00000
,
10000
00000
00000
00000
,
00000
00000
00000
00000
,
00001
00000
00000
00000
,
00000
00000
00000
00000
,
00000
00100
00000
00000
,
00000
00100
00000
00000
,
00000
00100
00000
00000
,
00000
00100
00000
00000
,
00000
00100
00000
00000
,
00000
00100
00000
00000
,
00000
00010
00000
00000
,
00000
01000
00000
00000
,
00000
00001
00000
10000
,
00000
10000
00000
10000
,
00001
00000
00000
00000
,
00000
00000
00000
00000
,
00000
00000
10000
00001
,
10000
00000
00100
10000
,
00100
00000
01000
00001
,
01000
00000
00010
00100
,
00010
00000
10000
00100
,
10000
00000
00001
00000
,
00001
00000
00100
00001
,
00100
00000
01000
00100
,
01000
00000
00010
10000
,
00100
10000
00000
00001
,
00100
00010
00000
00010
,
00000
00010
00010
00000
,
00001
00002
00000
00000
,
00000
00000
00000
00000
,
00000
00000
00000
00000
,
00003
00000
00000
00000
;
