#TITLE:Ondo;
#SUBTITLE:;
#ARTIST:Pop'nKO;
#TITLETRANSLIT:;
#SUBTITLETRANSLIT:;
#ARTISTTRANSLIT:;
#CREDIT:PopnKO;
#BANNER:ondo-banner.png;
#SONGINFO:ondo-songinfo.png;
#BACKGROUND:ondo-bg.png;
#LYRICSPATH:;
#CDTITLE:./CDTITLES/PopnkoCD.png;
#CHARACTER:./SongCharacters/popnko;
#MUSIC:Ondo.mp3;
#OFFSET:-0.040;
#SAMPLESTART:28.240;
#SAMPLELENGTH:12.000;
#SELECTABLE:YES;
#BPMS:0.000=102.000,32.000=51.000,48.000=102.000;
#STOPS:;
#BGCHANGES:-2.000=visffd320.avi=1.000=1=1=0
;
// cache tags:
#FIRSTBEAT:8.500;
#LASTBEAT:160.000;
#SONGFILENAME:Songs/Neon FM/Ondo/Ondo.sm;
#HASMUSIC:1;
#HASBANNER:1;
#MUSICLENGTH:110.601;
// end cache tags

//---------------pump-single - ----------------
#NOTES:
     pump-single:
     :
     Hard:
     70:
     0.499,0.532,0.380,0.506,0.167,288.000,42.000,56.000,0.000,0.000:
00000
00000
00000
00000
,
00000
00000
00000
00000
,
00000
01000
00010
00100
00100
00000
00000
00000
,
00000
00000
01000
00000
00010
00000
00100
00000
00100
00000
00000
00010
00100
00000
00100
00000
,
00010
10010
00100
10010
01000
10010
00100
10010
,
20000
30020
20030
30200
,
01300
01001
00100
01001
00010
01001
00100
01001
,
00002
00000
02003
00000
03002
00000
00203
00010
,
00310
00000
01000
00001
00100
00001
00010
00001
02000
00000
03002
00000
00023
00000
00032
00000
,
01003
00000
00010
10000
00100
10000
01000
10000
00020
00000
20030
00000
32000
00000
23000
00000
,
30001
00000
10000
00010
00100
00010
00001
00010
20000
00000
30020
00000
00230
00000
00320
00000
,
10030
00000
00001
01000
00100
01000
10000
01000
00002
00000
02003
00000
03200
00000
02300
00000
,
03100
00010
00001
00010
00100
00000
01000
00000
10000
00000
01000
00000
10000
00000
01000
00000
,
00100
01000
10000
01000
00100
00000
00010
00000
00001
00000
00010
00000
00001
00000
00010
00000
,
00100
00010
00100
01000
00100
00000
00010
00000
00001
00000
00010
00000
00001
00000
00010
00000
,
00100
01000
00100
00010
00000
01000
10000
00100
01000
00000
10000
00000
01000
00000
00100
00000
,
00011
01100
00011
01100
00100
10000
01000
00100
,
00010
00200
00300
00200
00000
00000
00000
00300
,
11000
00110
11000
00110
00100
01000
00100
00010
,
00001
00011
00010
00110
00100
01100
01000
11000
,
11000
00110
11000
00110
00100
01000
00100
00010
,
00100
00200
00300
00200
00000
00000
00000
00300
,
00020
02030
03200
20300
30020
02030
03020
00032
,
00023
00100
00230
01000
02300
10000
23000
00100
,
30100
01000
10000
01000
00100
00000
00010
00000
00001
00000
00010
00000
00001
00000
00010
00000
,
00100
00010
00001
00010
00100
00000
01000
00000
10000
00000
01000
00000
10000
00000
01000
00000
,
00100
01000
00100
00010
00100
00000
01000
00000
10000
00000
01000
00000
10000
00000
01000
00000
,
00100
00010
00100
01000
00000
00010
00001
00100
00010
00000
00001
00000
00010
00000
00100
00000
,
11000
00110
11000
00110
00100
00001
00010
00100
,
01000
00200
00300
00200
00000
00000
00000
00300
,
00011
01100
00011
01100
00100
00010
00100
01000
,
10000
11000
01000
01100
00100
00110
00010
00011
,
00011
01100
00011
01100
00100
00010
00100
01000
,
00100
00200
00300
00200
00000
00000
00000
00300
,
02000
03020
00230
00302
02003
03020
02030
23000
,
32000
00100
03200
00010
00320
00001
00032
00100
,
00103
00010
00010
01000
01000
00100
00100
10000
,
10010
00000
00000
00000
01001
00000
00000
00000
10000
01000
10000
01000
00100
00010
00100
00010
;

//---------------pump-single - ----------------
#NOTES:
     pump-single:
     :
     Medium:
     61:
     0.389,0.597,0.217,0.325,0.136,241.000,24.000,36.000,0.000,0.000:
00000
00000
00000
00000
,
00000
00000
00000
00000
,
00000
00000
00000
00000
,
00000
00000
00000
00000
,
20000
00000
30010
00100
00010
00001
00010
00100
,
00002
20003
30200
02300
,
03200
00000
10300
00010
01000
00100
10000
00001
,
02000
03200
00320
00230
,
20300
00000
30010
00100
00001
00100
00010
01000
00002
00000
20003
00000
30020
00000
02030
00000
,
03002
00000
01003
00100
00010
00100
01000
00001
20000
00000
32000
00000
23000
00000
30200
00000
,
01300
01000
00010
10000
00001
01000
00010
00100
00110
00000
01100
00000
00101
00000
10100
00000
,
01000
01000
00001
00010
00001
01000
00010
00100
00101
00000
10100
00000
01100
00000
00110
00000
,
10000
00100
00000
00100
10000
00000
00100
00000
01000
00000
01000
00000
02000
00000
00000
00000
,
03010
10000
00000
10000
00010
00000
10000
00000
00001
00000
00001
00000
00002
00000
00000
00000
,
00103
00010
00000
00010
00100
00000
00010
00000
10000
00000
10000
00000
20000
00000
00000
00000
,
30010
01000
00000
01000
00010
00000
01000
00000
00001
00000
10000
00000
00001
00000
10000
00000
,
00010
00100
01000
00200
00000
00310
10000
00100
,
01000
02000
00000
00001
03000
00001
00100
00000
,
00001
00010
00100
02000
00000
03010
10000
00010
,
10010
10010
10010
10010
,
01000
00100
00010
00200
00000
01300
00001
00100
,
00010
00020
00000
10000
00030
10000
00100
00000
,
10000
01000
00100
00010
00010
01000
00001
01000
,
01001
01001
01001
01001
,
00010
00100
00000
00100
00010
00000
00100
00000
00001
00000
00001
00000
00002
00000
00000
00000
,
10003
00010
00000
00010
10000
00000
00010
00000
01000
00000
01000
00000
02000
00000
00000
00000
,
03100
10000
00000
10000
00100
00000
10000
00000
00010
00000
00010
00000
00020
00000
00000
00000
,
10030
00001
00000
00001
10000
00000
00001
00000
01000
00000
00010
00000
01000
00000
00010
00000
,
10000
01000
10000
02000
00000
13000
00010
10000
,
00001
00200
00000
00010
00000
00010
00000
00310
,
01000
00100
10000
00100
00000
00100
01000
00010
,
01010
01010
01010
01010
,
00100
01000
00010
00200
00000
00301
10000
00001
,
01000
00200
00000
01300
00000
01000
00010
00000
,
10000
00100
01000
00100
10000
00001
00100
00010
,
00110
00110
00110
00110
,
00000
10000
00000
00010
00000
10000
00000
00010
,
00100
00001
00100
00001
00100
00001
00100
00001
,
00200
00000
00000
00000
,
00000
00000
00000
00000
,
00300
00000
00000
00000
;

//---------------pump-single - ----------------
#NOTES:
     pump-single:
     :
     Easy:
     26:
     0.154,0.253,0.000,0.009,0.000,118.000,0.000,1.000,0.000,0.000:
00000
00000
00000
00000
,
00000
00000
00000
00000
,
00000
00000
00000
00000
,
00000
00000
00000
00000
,
10000
00100
01000
00010
,
00100
00001
00100
00001
,
10000
00100
01000
00100
,
10000
00010
10000
00010
,
00100
00010
00100
00000
01000
01000
01000
01000
,
00001
00010
00001
00000
00100
00000
00100
00000
,
00010
00010
10000
00000
01000
00010
01000
00001
,
10000
00000
00100
00000
01000
00100
01000
00001
,
00001
00100
00000
00000
,
00010
10000
00000
00000
,
00100
01000
00000
00000
,
00001
01000
00010
10000
,
00100
01000
00100
00000
,
10000
00001
00100
00000
,
00010
01000
00100
00000
,
10000
00010
10000
00010
,
01000
00001
00100
00000
,
00010
00100
00001
00000
,
00100
10000
00001
00000
,
00010
00100
00010
00100
,
10000
00000
00001
00000
,
00100
00000
00010
00000
,
01000
00000
00001
00000
,
10000
00000
00100
00100
,
10000
00010
01000
00000
,
00001
10000
00100
00000
,
01000
00010
00100
00000
,
10000
00100
01000
00100
,
10000
00000
00001
00000
,
00100
00000
00010
00000
,
01000
00000
00001
00000
,
00100
00001
00100
00001
,
10000
10000
10000
10000
,
10000
10000
10000
10000
,
00002
00000
00000
00000
,
00000
00000
00000
00000
,
00003
00000
00000
00000
;

//---------------pump-single - Copied from----------------
#NOTES:
     pump-single:
     Copied from:
     Beginner:
     17:
     0.101,0.163,0.000,0.009,0.000,77.000,0.000,1.000,0.000,0.000:
00000
00000
00000
00000
,
00000
00000
00000
00000
,
00000
00000
00000
00000
,
00000
00000
00000
00000
,
10000
00000
00001
00000
,
10000
00000
00001
00000
,
01000
00000
00010
00000
,
01000
00000
00010
00000
,
00100
00001
10000
00100
,
10000
00001
00100
00010
,
01000
00010
00100
00001
,
10000
00100
01000
00100
,
10000
10000
00000
00000
,
00010
00010
00000
00000
,
01000
01000
00000
00000
,
00001
00001
00000
00000
,
00100
00100
00000
00000
,
00010
00010
00000
00000
,
10000
10000
00000
00000
,
00001
00000
00001
00000
,
01000
00100
00000
00000
,
10000
00010
00000
00000
,
00100
00001
00000
00000
,
01000
00100
00000
00000
,
10000
00000
00001
00000
,
10000
00000
00010
00000
,
01000
00000
00010
00000
,
00100
00000
00001
00000
,
10000
00000
00100
00000
,
01000
00000
00001
00000
,
01000
00000
00010
00000
,
00100
00000
00010
00000
,
10000
00000
00100
00000
,
01000
00000
00100
00000
,
10000
00000
00001
00000
,
00100
00000
00001
00000
,
00001
00000
00001
00000
,
00001
00000
00001
00000
,
00002
00000
00000
00000
,
00000
00000
00000
00000
,
00003
00000
00000
00000
;
