#TITLE:Hanky Panky;
#SUBTITLE:(e=mc² mix);
#ARTIST:Jenny Rom VS The Zippers;
#TITLETRANSLIT:;
#SUBTITLETRANSLIT:(e=mc2 mix);
#ARTISTTRANSLIT:;
#CREDIT:;
#BANNER:hankypanky-banner.png;
#SONGINFO:hankypanky-songinfo.png;
#BACKGROUND:hankypanky-bg.png;
#LYRICSPATH:;
#CDTITLE:./CDTITLES/neon.png;
#CHARACTER:default;
#MUSIC:Hanky Panky.mp3;
#OFFSET:-0.220;
#SAMPLESTART:59.080;
#SAMPLELENGTH:12.000;
#SELECTABLE:YES;
#BPMS:0.000=173.000;
#STOPS:166.000=0.720
;
#BGCHANGES:;
// cache tags:
#FIRSTBEAT:20.000;
#LASTBEAT:304.000;
#SONGFILENAME:Songs/Neon FM/Hanky Panky/Hanky Panky.sm;
#HASMUSIC:1;
#HASBANNER:1;
#MUSICLENGTH:109.021;
// end cache tags

//---------------pump-single - ----------------
#NOTES:
     pump-single:
     :
     Hard:
     93:
     0.689,0.837,0.376,0.101,0.280,474.000,41.000,11.000,0.000,0.000:
00000
00000
00000
00000
,
00000
00000
00000
00000
,
00000
00000
00000
00000
,
00000
00000
00000
00000
,
00000
00000
00000
00000
,
00000
00100
00000
01000
,
00000
00010
00000
10000
,
00000
00010
00000
00100
,
00000
00000
00001
00000
00000
00000
10000
10000
,
00100
00000
00000
01000
00000
00000
00010
00000
00100
00000
00100
00000
00001
00000
00001
00000
,
10000
00000
00000
00010
00000
00000
01000
00000
00100
00000
00100
00000
10000
00000
10000
00000
,
00100
00000
00000
01000
00000
00000
00001
00000
01000
00000
01000
00000
00010
00000
00010
00000
,
10000
00000
00000
00010
00000
00000
01000
00000
00001
00000
00001
00000
00100
00000
00100
00000
,
00010
00000
00000
00100
00000
00000
01000
00000
10000
00000
10000
00000
00100
00000
00100
00000
,
00010
00000
00000
00001
00000
00000
00010
00000
00001
00000
00001
00000
01000
00000
01000
00000
,
00001
00000
00000
00010
00000
00000
00100
00000
01000
00000
01000
00000
10000
00000
10000
00000
,
01000
00000
00000
00010
00000
00000
00100
00000
00001
00000
00010
00000
00001
00000
00000
00000
,
10000
00100
10000
00100
,
01000
00001
00100
10100
,
00101
00000
00001
00100
00001
00000
00001
00100
00001
00000
01000
00000
00100
00000
10000
00000
,
00010
00000
00000
00100
00010
00000
01000
00000
00001
00000
00000
00100
00000
00000
00010
00000
,
10010
00000
10000
00100
10000
00000
10000
00100
10000
00000
00010
00000
00100
00000
00010
00000
,
01000
00000
00001
01000
00000
00000
00010
00000
01000
00000
00000
00001
00000
00000
01000
00000
,
01100
00000
01000
00100
01000
00000
01000
00100
01000
00000
00001
00000
00100
00000
00010
00000
,
10000
00000
00000
00100
10000
00000
00001
00000
01000
00000
00000
00100
00000
00000
10000
00000
,
10001
00000
00001
10000
00001
00000
00001
10000
00001
00000
00010
00000
00100
00000
02000
00000
,
00001
00000
03001
00000
00100
00100
00110
00000
,
01010
00000
01000
00010
01000
00000
00010
01000
00010
00000
00010
00000
10010
00000
00000
00000
,
01001
00000
00001
01000
00001
00000
01000
00001
01000
00000
01000
00000
01100
00000
00000
00000
,
10001
00000
00001
10000
00001
00000
10000
00001
10000
00000
10000
00000
10010
00000
00000
00000
,
01001
00000
01000
00001
01000
00000
00001
01000
00001
00000
00001
00000
00101
00000
00000
00000
,
10100
00000
10000
00100
10000
00000
00100
10000
00100
00000
00100
00000
01100
00000
00000
00000
,
00110
00000
00010
00100
00010
00000
00100
00010
00100
00000
00100
00000
00101
00000
00000
00000
,
01001
00000
01000
00100
01000
00000
00100
01000
00100
00000
10000
00000
00001
00000
00010
00000
,
00001
00000
10000
00010
20000
00000
30100
00100
,
01100
00000
00000
01000
00000
00000
00001
00000
00101
00000
00000
00100
00000
00000
00010
00000
,
01010
00000
00000
01000
00000
00000
00001
00000
20001
00000
00000
00000
30010
00000
00000
00000
,
01010
00000
00000
01000
00000
00000
00100
00000
10100
00000
00000
10000
00000
00000
00010
00000
,
00110
00100
00000
00001
00000
10000
00010
00000
,
01001
00000
00000
01000
00000
00000
00010
00000
10010
00000
00000
10000
00000
00000
00100
00000
,
01100
00000
00000
01000
00000
00000
00010
00000
00110
00000
00000
00000
00110
00000
00000
00000
,
10001
00001
01000
00010
01000
00000
00000
00000
,
10000
00100
01000
00001
00000
00101
00000
00001
,
00100
00010
01000
00100
00000
01100
00000
00000
,
00010
10000
00100
10000
00000
00001
01000
00001
,
10000
00100
01000
01010
00000
00010
01000
00010
,
10000
01000
00100
00010
00000
10000
00000
00001
,
10000
01000
00100
00010
00000
10000
00000
00100
,
01000
00010
01000
00010
01000
00010
01000
00010
,
00100
00001
10000
10100
00000
00000
00000
00000
,
00100
00000
00000
01000
00000
00000
00010
00000
00100
00000
00100
00000
00001
00000
00001
00000
,
10000
00000
00000
00010
00000
00000
01000
00000
00100
00000
00100
00000
10000
00000
10000
00000
,
00100
00000
00000
01000
00000
00000
00001
00000
01000
00000
01000
00000
00010
00000
00010
00000
,
10000
00000
00000
00010
00000
00000
01000
00000
00001
00000
00001
00000
00100
00000
00100
00000
,
00010
00000
00000
00100
00000
00000
01000
00000
10000
00000
10000
00000
00100
00000
00100
00000
,
00010
00000
00000
00001
00000
00000
00010
00000
00001
00000
00001
00000
01000
00000
01000
00000
,
00001
00000
00000
00010
00000
00000
00100
00000
01000
00000
01000
00000
10000
00000
10000
00000
,
01000
00000
00000
00010
00000
00000
00100
00000
00001
00000
00010
00001
00010
00000
00001
00000
,
02000
00000
00000
00000
00010
00000
00010
00000
00000
00000
03010
00100
00010
00000
10000
00000
,
00200
00000
00000
00000
10000
00000
10000
00000
00000
00000
10300
00100
10000
00000
00010
00000
,
00200
00000
00000
00000
00001
00000
00001
00000
00000
00000
00301
00100
00001
00000
01000
00000
,
00020
00000
00000
00000
01000
00000
01030
00000
00001
00000
00001
01000
00001
00000
00100
00000
,
00002
00000
00000
00000
10000
00000
10000
00000
00000
00000
10003
00100
10000
00000
00010
00000
,
00200
00000
00000
00000
00010
00000
00010
00000
00000
00000
00310
00100
00010
00000
10000
00000
,
00200
00000
00000
00000
01000
00000
01000
00000
00000
00000
01300
00100
01000
00000
00001
00000
,
10000
00000
00000
00010
00000
00000
01000
00000
00001
00000
00100
00000
00110
00000
00000
00000
,
00001
00100
00010
10000
00000
10100
00000
10000
,
00100
01000
00010
00100
00000
00110
00000
00000
,
01000
00001
00100
00001
00000
10000
00010
10000
,
00001
00100
00010
01010
00000
01000
00010
01000
,
00001
00010
00100
01000
00000
00001
00000
10000
,
00001
00010
00100
01000
00000
00001
00000
00100
,
00010
01000
00010
01000
00010
01000
00000
01000
,
00100
10000
00100
10000
00100
10000
00000
10000
,
00001
00100
00001
00100
00001
00100
00001
00100
,
00010
01000
00100
00020
00000
00000
00130
01000
,
01010
00000
00000
00000
;

//---------------pump-single - ----------------
#NOTES:
     pump-single:
     :
     Medium:
     73:
     0.594,0.593,0.229,0.376,0.115,387.000,25.000,41.000,0.000,0.000:
00000
00000
00000
00000
,
00000
00000
00000
00000
,
00000
00000
00000
00000
,
00000
00000
00000
00000
,
00000
00000
00000
00000
,
00100
00000
10000
00000
,
01000
00000
00010
00000
,
01000
00000
00001
00000
,
00001
00000
00100
00000
,
00020
00000
00000
01030
00000
00000
00010
00000
00100
00000
00001
00000
00100
00000
00001
00000
,
20000
00000
00000
30100
00000
00000
10000
00000
00010
00000
01000
00000
00010
00000
01000
00000
,
00002
00000
00000
00013
00000
00000
00001
00000
10000
00000
01000
00000
10000
00000
01000
00000
,
20000
00000
00000
30001
00000
00000
01000
00000
00010
00000
10000
00000
00010
00000
00000
00000
,
02000
00000
00000
03010
00000
00000
01000
00000
00100
00000
10000
00000
00100
00000
10000
00000
,
00002
00000
00000
00103
00000
00000
00001
00000
01000
00000
00010
00000
01000
00000
00010
00000
,
20000
00000
00000
31000
00000
00000
10000
00000
00001
00000
00010
00000
00001
00000
00010
00000
,
00002
00000
00000
10003
00000
00000
00010
00000
01000
00000
00001
00000
01000
00000
00000
00000
,
00001
10000
00010
01000
,
00001
10000
10000
00020
,
10030
01000
10000
00100
01000
00010
01000
00000
,
00101
01010
00101
01010
,
00100
10000
00001
01000
00010
00100
00010
00000
,
10100
01010
10100
01010
,
10000
01000
00100
01000
10000
00001
00100
00000
,
01010
10100
00101
01010
,
00100
00001
01000
00001
00010
00001
10000
00200
,
00000
00000
10300
00000
00010
00100
00010
00000
,
00010
00001
00010
00100
00001
10000
00001
00000
,
01100
10001
01100
10001
,
00100
00010
01000
00001
10000
00100
10000
00000
,
00110
10001
00110
10001
,
00010
00001
00100
00001
00010
01000
00100
00000
,
10001
00110
01100
10001
,
00100
01000
00001
01000
10000
01000
00010
00200
,
00000
00000
00310
02010
00000
00000
03010
00000
,
00100
00000
00000
00001
00000
00000
10000
00000
00100
00000
00000
01000
00000
00000
00010
00000
,
10000
00000
00000
00010
00000
00000
00100
00000
00002
00000
00000
00000
00000
00000
01003
00000
,
00100
00000
00000
10000
00000
00000
00010
00000
00100
00000
00000
00001
00000
00000
00100
00000
,
00010
00010
00010
00010
,
01000
00000
00000
10000
00000
00000
01000
00000
00001
00000
00000
10000
00000
00000
00010
00000
,
01000
00000
00000
00100
00000
00000
01000
00000
00002
00000
00000
00000
00000
00000
00000
00000
,
10003
00000
00000
00100
00000
00000
10000
00000
00100
00000
00000
00000
00000
00000
00000
00000
,
02000
00000
03001
00100
00000
00100
00000
00010
,
02000
00000
03100
10000
00000
10000
00000
00001
,
00020
00000
00031
01000
00000
01000
00100
01000
,
00010
00100
00000
00100
00000
00100
00010
01000
,
00002
00000
10003
00100
00000
00100
00000
00100
,
20000
00000
30010
00100
00000
00100
00000
01000
,
00100
00010
00100
00010
00100
00010
00100
00010
,
01000
00100
00010
00001
00000
00000
00000
00000
,
00020
00000
00000
01030
00000
00000
00010
00000
00100
00000
00001
00000
00100
00000
00001
00000
,
20000
00000
00000
30100
00000
00000
10000
00000
00010
00000
01000
00000
00010
00000
01000
00000
,
00002
00000
00000
00013
00000
00000
00001
00000
10000
00000
01000
00000
10000
00000
01000
00000
,
20000
00000
00000
30001
00000
00000
01000
00000
00010
00000
10000
00000
00010
00000
00000
00000
,
02000
00000
00000
03010
00000
00000
01000
00000
00100
00000
10000
00000
00100
00000
10000
00000
,
00002
00000
00000
00103
00000
00000
00001
00000
01000
00000
00010
00000
01000
00000
00010
00000
,
20000
00000
00000
31000
00000
00000
10000
00000
00001
00000
00010
00000
00001
00000
00010
00000
,
00002
00000
00000
10003
00000
00000
00010
00000
01000
00000
00001
00000
01000
00000
00001
00000
,
20000
00000
00000
00000
00000
30010
00100
00001
,
02000
00000
00000
00000
00000
03100
10000
00001
,
00200
00000
00000
00000
00000
00310
10000
00001
,
00020
00000
00000
00000
00000
00031
10000
00100
,
02000
00000
00000
00000
00000
03100
01000
00001
,
00200
00000
00000
00000
00000
00310
10000
00100
,
02000
00000
00000
00000
00000
03001
00010
00100
,
00020
00000
00001
00001
00001
00000
00031
00000
,
02000
00000
03001
00100
00000
00100
00000
00010
,
02000
00000
03100
10000
00000
10000
00000
00001
,
00020
00000
00031
01000
00000
01000
00100
01000
,
00010
00100
00000
00100
00000
00100
00010
01000
,
00002
00000
10003
00100
00000
00100
00000
00100
,
20000
00000
30010
00100
00000
00100
00000
01000
,
00100
00010
00100
00010
00100
00010
00000
01000
,
00010
01000
00010
01000
00010
01000
00000
00001
,
00100
00010
00100
00010
00100
00010
00100
00010
,
00100
00001
10000
00200
00000
00000
10000
10000
,
10300
00000
00000
00000
;

//---------------pump-single - ----------------
#NOTES:
     pump-single:
     :
     Easy:
     40:
     0.278,0.383,0.046,0.073,0.000,199.000,5.000,8.000,0.000,0.000:
00000
00000
00000
00000
,
00000
00000
00000
00000
,
00000
00000
00000
00000
,
00000
00000
00000
00000
,
00000
00000
00000
00000
,
01000
00000
00000
00000
,
00001
00000
00000
00000
,
00010
00000
00000
00000
,
00001
00000
00000
00000
,
10000
00100
10000
00010
,
01000
00100
10000
00100
,
00001
00100
00010
01000
,
00001
00100
00010
01000
,
00100
10000
00010
00100
,
00010
01000
00001
00100
,
00010
00000
00010
00000
,
01000
00000
01000
00000
,
00100
00000
00000
00000
,
00100
00000
00000
10000
,
00001
01000
00100
01000
,
00000
00000
00000
00000
,
00010
10000
00100
01000
,
00000
00000
00000
00000
,
00001
00100
00001
10000
,
00000
00000
00000
00000
,
00010
01000
00100
01000
,
00010
00000
00000
00000
,
10000
00100
00100
10000
,
00001
00100
00010
01000
,
00001
10000
00010
00100
,
00010
01000
00100
10000
,
01000
00100
01000
10000
,
00010
00100
00010
00001
,
00010
00100
00001
01000
,
00100
00000
00000
00000
,
10000
00000
00010
00000
,
01000
00000
00100
00000
,
10000
00000
00001
00000
,
00100
00000
00000
00000
,
00010
00000
01000
00000
,
00100
00000
10000
00000
,
00001
00000
00100
00000
,
00101
10000
00010
01000
,
00100
10000
00010
00010
,
10100
00010
01000
00100
,
10000
00010
00100
00001
,
01100
10000
00010
00100
,
00101
01000
00100
10000
,
00010
00010
00010
00010
,
00010
10000
00100
00000
,
10000
00001
00100
00001
,
10000
00010
01000
00100
,
00010
00100
01000
00001
,
10000
01000
00100
00010
,
00001
00010
00100
00010
,
01000
00001
10000
00100
,
01000
00100
00010
00100
,
01000
00001
10000
00010
,
00200
00000
00000
00001
,
00302
00000
00000
10000
,
20003
00000
00000
00100
,
30200
00000
00000
01000
,
02000
00300
00000
00010
,
03020
00000
00000
00100
,
00230
00000
00000
00001
,
00302
00000
00000
00000
,
10003
00000
00100
00000
,
10000
00000
00010
00000
,
00100
00000
00001
00000
,
10000
00000
00010
00000
,
01000
00100
10000
00000
,
00010
00100
00001
00000
,
10000
00100
01000
00000
,
00010
00100
00001
00000
,
10000
00100
10000
00001
,
00100
00000
00010
00000
,
10001
00000
00000
00000
;

//---------------pump-single - Copied from----------------
#NOTES:
     pump-single:
     Copied from:
     Beginner:
     21:
     0.148,0.174,0.000,0.073,0.000,105.000,0.000,8.000,0.000,0.000:
00000
00000
00000
00000
,
00000
00000
00000
00000
,
00000
00000
00000
00000
,
00000
00000
00000
00000
,
00000
00000
00000
00000
,
00000
00000
00000
00000
,
00000
00000
00000
00000
,
00000
00000
00000
00000
,
00000
00000
00000
00000
,
00100
00000
10000
00000
,
00001
00000
01000
00000
,
00100
00000
10000
00000
,
01000
00000
10000
00000
,
00010
00000
01000
00000
,
00100
00000
10000
00000
,
00001
00000
00100
00000
,
00010
00000
01000
00000
,
00001
00000
00000
00000
,
00000
00000
00000
00001
,
00001
00000
00000
00000
,
10000
00000
00000
00000
,
00010
00000
00000
00000
,
01000
00000
00000
00000
,
00100
00000
00000
00000
,
00100
00000
00000
00000
,
10000
00000
00001
00000
,
00100
00000
00000
00000
,
00010
00000
00000
00000
,
10000
00000
00000
00000
,
00001
00000
00000
00000
,
01000
00000
00000
00000
,
00100
00000
00000
00000
,
01000
00000
00000
00000
,
00010
00000
00100
00000
,
00001
00000
00000
00000
,
10000
00000
00000
00000
,
00100
00000
00000
00000
,
10000
00000
00000
00000
,
00100
00000
00000
00000
,
10000
00000
00000
00000
,
00100
00000
00000
00000
,
10000
00000
00100
00000
,
10000
00000
00001
00000
,
00100
00000
00010
00000
,
01000
00000
00001
00000
,
10000
00000
00100
00000
,
10000
00000
00010
00000
,
01000
00000
00100
00000
,
10000
00000
10000
00000
,
10000
00000
00001
00000
,
00100
00000
00010
00000
,
00010
00000
00010
00000
,
01000
00000
00100
00000
,
00100
00000
00100
00000
,
10000
00000
01000
00000
,
01000
00000
01000
00000
,
10000
00000
00001
00000
,
00001
00000
00001
00000
,
20000
00000
00000
00000
,
30002
00000
00000
00000
,
02003
00000
00000
00000
,
03020
00000
00000
00000
,
00230
00000
00000
00000
,
00302
00000
00000
00000
,
20003
00000
00000
00000
,
30200
00000
00000
00000
,
01300
00000
00010
00000
,
00100
00000
00010
00000
,
01000
00000
00100
00000
,
00010
00000
00001
00000
,
10000
00000
00010
00000
,
01000
00000
00001
00000
,
10000
00000
10000
00000
,
00001
00000
00001
00000
,
10000
00000
10000
00000
,
00001
00000
00001
00000
,
10000
00000
00000
00000
;
