#TITLE:Super-Sprode;
#SUBTITLE:;
#ARTIST:Freezepop;
#TITLETRANSLIT:;
#SUBTITLETRANSLIT:;
#ARTISTTRANSLIT:;
#CREDIT:PopnKO;
#BANNER:supersprode-banner.png;
#SONGINFO:supersprode-songinfo.png;
#BACKGROUND:supersprode-bg.png;
#LYRICSPATH:;
#CDTITLE:./CDTITLES/freezepop-hi-five.png;
#CHARACTER:./SongCharacters/freezepop;
#MUSIC:Super Sprode.mp3;
#OFFSET:-0.400;
#SAMPLESTART:73.960;
#SAMPLELENGTH:12.000;
#SELECTABLE:YES;
#BPMS:0.000=150.000;
#STOPS:;
#BGCHANGES:-1.000=SuperSprode320.avi=1.000=0=1=0
;
// cache tags:
#FIRSTBEAT:16.000;
#LASTBEAT:249.000;
#SONGFILENAME:Songs/Neon FM/Super Sprode/Super Sprode.sm;
#HASMUSIC:1;
#HASBANNER:1;
#MUSICLENGTH:99.604;
// end cache tags

//---------------pump-single - ----------------
#NOTES:
     pump-single:
     :
     Hard:
     71:
     0.551,0.620,0.131,0.201,0.000,351.000,13.000,20.000,0.000,0.000:
00000
00000
00000
00000
,
00000
00000
00000
00000
,
00000
00000
00000
00000
,
00000
00000
00000
00000
,
10000
01000
10000
10000
,
00100
00010
00100
00100
,
01000
00010
01000
00010
00100
00001
00100
00001
,
00010
00000
00010
00100
00000
00010
00100
00000
,
00001
00000
00001
00100
00000
00001
00100
00010
,
01000
01000
00010
01000
,
00001
00001
00100
00001
,
00100
01000
00100
01000
00100
00001
00100
00001
,
00010
00000
00010
00000
01000
00010
01000
00000
,
00100
10000
01000
00100
00000
00010
00001
00000
,
00100
00001
00010
00100
00000
01000
01000
00000
,
10000
00100
00010
00001
00000
01000
10000
00000
,
10000
01000
00100
01000
00001
00010
00100
01000
,
10000
01000
00100
01000
,
10000
00010
00100
01000
,
00100
00001
00100
00001
00010
00100
00010
00100
,
01000
00000
01000
00000
01000
01000
01000
00000
,
00002
00000
00103
00020
00000
01030
00200
00000
,
10300
02000
00000
20000
00000
33000
00000
00000
,
20000
00000
30100
02000
00000
03010
00200
00000
,
00301
00020
00000
00002
00000
00033
00000
00000
,
10000
00100
01000
00100
01000
00010
00100
00010
,
00100
00001
00010
00001
00000
00101
00101
00000
,
00001
00100
00010
00100
00010
01000
00100
01000
,
00100
10000
01000
10000
00000
10010
10010
00000
,
10100
00000
01000
00000
00001
00010
01000
00100
,
10000
00000
00100
01000
00000
00001
00010
00000
,
01000
00100
01000
00100
10000
01000
00010
00100
,
00001
00010
00100
00010
00000
10000
01000
00000
,
10010
00000
00100
01000
00001
00010
00100
10000
,
00100
00000
01000
00001
00000
00100
00010
00000
,
00010
00000
00010
10000
00000
00100
01000
00000
,
10000
00010
10000
00010
00100
01000
00100
01000
,
10000
00000
01000
00001
00100
00010
01000
00100
,
10000
00000
01000
10000
00000
01000
10000
00000
,
00100
00000
00010
00001
00000
00010
00001
00000
,
00100
00001
00010
00100
10000
01000
00100
00001
,
00010
00100
10000
01000
00100
00010
00001
00010
,
00100
10000
10000
01000
,
10000
01000
00010
01000
,
01000
00010
01000
00010
00001
00010
00001
00010
,
01000
00100
01000
00100
10100
10100
10100
00100
,
02000
00000
03100
20000
00000
30001
00020
00000
,
00130
02000
00000
20000
00000
33000
00000
00000
,
00020
00000
00130
00002
00000
10003
02000
00000
,
03100
00020
00000
00032
00003
00010
00001
00010
,
00100
01000
10000
01000
00000
01000
10000
01000
,
00010
00001
00010
00001
00000
01000
00010
01000
,
10000
01000
00100
01000
00000
00001
00010
00001
,
00100
10000
00100
10000
00000
01000
00001
00010
,
00100
00010
00001
00010
00000
00100
01000
00100
,
10000
00010
10000
00010
01000
00001
01000
00001
,
10000
00010
01000
00100
00000
00010
00100
00010
,
00001
01000
00001
01000
00010
10000
00010
10000
,
01000
10000
00100
10000
01000
00100
01000
00010
,
00100
00001
00100
00001
00000
01001
01001
00000
,
00001
00010
00001
00100
00010
00100
00010
01000
,
00100
01000
00100
10000
00000
10010
10010
00000
;

//---------------pump-single - ----------------
#NOTES:
     pump-single:
     :
     Medium:
     58:
     0.417,0.403,0.000,0.201,0.000,271.000,0.000,20.000,0.000,0.000:
00000
00000
00000
00000
,
00000
00000
00000
00000
,
00000
00000
00000
00000
,
00000
00000
00000
00000
,
01000
00000
00010
00000
00000
01000
00010
10000
,
00100
00000
10000
00000
00000
00001
01000
00010
,
00100
00000
00010
00000
01000
00100
01000
00000
,
00001
00000
10000
00000
00001
00100
00001
00000
,
01000
00000
00010
00000
10000
00100
10000
00100
,
10000
00000
00010
00000
00000
00100
00001
01000
,
00100
00000
10000
00000
00000
00010
01000
00010
,
00100
00000
00010
00000
01000
00001
01000
00000
,
00010
00000
00100
00000
00001
10000
00001
10000
,
00100
00000
01000
00000
00000
00010
00100
00001
,
10000
00000
00010
00000
00000
00100
00010
00100
,
00001
00000
01000
00000
00010
00100
00001
00000
,
01000
00000
00001
00000
10000
00100
10000
00100
,
10000
00000
00001
00000
00000
10000
00001
00100
,
00001
00000
01000
00000
00000
00010
00100
00001
,
01000
00000
00001
00000
00000
00100
00010
10000
,
00001
10000
00010
01000
,
00002
00000
00000
02003
00000
00000
03020
00000
,
00000
20030
00000
30002
00000
00000
00103
00000
,
20000
00000
00000
30020
00000
00000
02030
00000
,
00000
03002
00000
20003
00000
00000
30100
00000
,
00000
01000
00000
00010
00000
00100
00000
00001
,
00000
10000
00000
00001
00000
01000
01000
00000
,
00000
00010
00000
00100
00000
00001
00000
01000
,
00000
00010
00000
10000
00000
00100
00100
00000
,
00010
00000
01000
00000
00000
00010
01000
00001
,
00100
00000
00001
00000
00000
10000
00010
01000
,
00100
00000
01000
00000
00010
00100
00010
00000
,
10000
00000
00001
00000
10000
00100
10000
00000
,
00010
00000
01000
00000
00001
00100
00001
00100
,
00001
00000
01000
00000
00000
00100
10000
00010
,
00100
00000
00001
00000
00000
01000
00010
01000
,
00100
00000
01000
00000
00010
10000
00010
00000
,
01000
00000
00100
00000
10000
00001
10000
00001
,
00100
00000
00010
00000
00000
01000
00100
10000
,
00001
00000
01000
00000
00000
00100
01000
00100
,
10000
00000
00010
00000
01000
00100
10000
00000
,
00010
00000
10000
00000
00001
00100
00001
00100
,
00001
00000
10000
00000
00000
00001
10000
00100
,
10000
00000
00010
00000
00000
01000
00100
10000
,
00010
00000
10000
00000
00000
00100
01000
00001
,
10000
00001
01000
00010
,
20000
00000
00000
30002
00000
00000
02003
00000
,
00000
03020
00000
00230
00000
00000
00301
00000
,
20000
00000
00000
30200
00000
00000
02300
00000
,
00000
03020
00000
00230
00000
00000
00301
00010
,
00001
00000
01000
00000
00010
00100
00010
00000
,
01000
00000
00001
00000
10000
00000
00100
01000
,
00100
00000
10000
00000
00010
01000
00010
00000
,
00100
00000
00001
00000
00000
10000
00100
10000
,
00010
00000
00100
00000
00001
10000
00010
00000
,
01000
00000
00100
00000
10000
00000
00001
00100
,
00010
00000
00100
00000
00001
01000
00100
00000
,
10000
00000
00010
00000
01000
00100
01000
00000
,
00000
00001
00000
00100
00000
00010
00000
00100
,
00000
00001
00000
10000
00000
00010
00010
00000
,
00000
01000
00000
00100
00000
10000
00000
00100
,
00000
01000
00000
00010
00000
00100
00100
00000
;

//---------------pump-single - ----------------
#NOTES:
     pump-single:
     :
     Easy:
     23:
     0.156,0.186,0.000,0.000,0.000,109.000,0.000,0.000,0.000,0.000:
00000
00000
00000
00000
,
00000
00000
00000
00000
,
00000
00000
00000
00000
,
00000
00000
00000
00000
,
00100
00000
00000
00001
,
00010
00000
00000
01000
,
00100
00000
10000
00000
,
00001
00000
00100
00000
,
00010
00000
10000
00000
,
00001
00000
00000
00100
,
01000
00000
00000
00100
,
10000
00000
00000
00000
,
00000
00001
10000
00001
,
10000
00000
00000
00010
,
00000
00100
00000
01000
,
00000
00100
00000
00010
,
00000
00100
00000
01000
,
00001
00000
00000
10000
,
00100
00000
00000
10000
,
00010
00000
00000
00100
,
00001
00000
10000
00000
,
00001
00000
00000
00000
,
10000
00000
00000
00000
,
00001
00000
00000
00000
,
10000
00000
00000
00000
,
00010
00000
00000
00000
,
01000
00000
00000
00100
,
00000
10000
00000
00001
,
00000
00100
00000
00010
,
00000
00010
00000
00010
,
00000
01000
00000
01000
,
00000
00100
00000
00100
,
10000
00000
00001
00000
,
10000
00000
00010
00100
,
00001
00000
00000
10000
,
00100
00000
00000
01000
,
00010
00000
00000
00001
,
00000
00001
00100
00001
,
01000
00000
00000
00000
,
01000
00000
00000
00010
,
00100
00000
00000
00000
,
00000
00001
10000
00100
,
00100
00000
00000
01000
,
00010
00000
00000
10000
,
00001
00000
00000
00100
,
00001
00000
00010
00000
,
00010
00000
00000
00000
,
01000
00000
00000
00000
,
00001
00000
00000
00000
,
10000
00000
00000
00000
,
00100
00100
00000
00000
,
00010
00010
01000
00000
,
00100
00100
00000
00000
,
10000
10000
00001
00000
,
00100
00100
00000
00000
,
01000
01000
00010
00000
,
00100
00100
00000
00000
,
00001
00001
10000
00000
,
00100
00000
00000
00000
,
00010
00000
00000
00000
,
01000
00000
00000
00000
,
00001
00000
00000
10000
;

//---------------pump-single - Copied from----------------
#NOTES:
     pump-single:
     Copied from:
     Beginner:
     10:
     0.077,0.093,0.030,0.030,0.000,48.000,3.000,3.000,0.000,0.000:
00000
00000
00000
00000
,
00000
00000
00000
00000
,
00000
00000
00000
00000
,
00000
00000
00000
00000
,
00001
00000
00000
00000
,
01000
00000
00000
00000
,
00010
00000
00000
00000
,
20000
00000
00000
00000
,
00000
00000
00000
00000
,
30100
00000
00000
00000
,
00100
00000
00000
00000
,
00100
00000
00000
00000
,
00000
00000
00000
00000
,
01000
00000
00000
00000
,
00010
00000
00000
00000
,
00100
00000
00000
00000
,
00001
00000
00000
00000
,
01000
00000
00000
00000
,
00100
00000
00000
00000
,
10000
00000
00000
00000
,
00010
00000
00000
00000
,
10001
00000
00000
00000
,
00000
00000
00000
00000
,
10001
00000
00000
00000
,
00000
00000
00000
00000
,
00100
00000
00000
00000
,
00000
00000
00000
00001
,
00100
00000
00000
00000
,
00000
00000
00000
00001
,
01000
00000
00000
00000
,
00010
00000
00000
00000
,
01000
00000
00000
00000
,
00010
00000
00000
00000
,
00000
00000
00000
00000
,
10000
00000
00000
00000
,
00001
00000
00000
00000
,
01000
00000
00000
00000
,
00000
00000
00000
00000
,
00010
00000
00000
00000
,
00100
00000
00000
00000
,
00001
00000
00000
00000
,
00000
00000
00000
00000
,
00001
00000
00000
00000
,
10000
00000
00000
00000
,
00010
00000
00000
00000
,
00100
00000
00000
00000
,
02000
00000
00000
00000
,
00000
00000
00000
00000
,
03020
00000
00000
00000
,
00000
00000
00000
00000
,
01030
00000
00000
00000
,
00001
00000
00000
00000
,
10000
00000
00000
00000
,
00100
00000
00000
00000
,
10000
00000
00000
00000
,
00001
00000
00000
00000
,
01000
00000
00000
00000
,
00010
00000
00000
00000
,
00100
00000
00000
00000
,
00000
00000
00000
00000
,
00100
00000
00000
00000
,
00000
00000
00000
10001
;

//---------------pump-double - ----------------
#NOTES:
     pump-double:
     :
     Medium:
     6:
     0.442,0.434,0.281,0.000,0.000,280.000,28.000,0.000,0.000,0.000:
0000000000
0000000000
0000000000
0000000000
,
0000000000
0000000000
0000000000
0000000000
,
0000000000
0000000000
0000000000
0000000000
,
0000000000
0000000000
0000000000
0000000000
,
0001000000
0000000000
0000100000
0000010000
0000000000
0000100000
0000010000
0000000000
,
0000001000
0000000000
0000010000
0000100000
0000000000
0000010000
0000100000
0000000000
,
0000001000
0000010000
0000000100
0000000010
,
0000000001
0000000000
0000000101
0000000000
0000000010
0000001000
0000000010
0000000000
,
0000010000
0000000000
0000010100
0000000000
0000001000
0000100000
0000001000
0000000000
,
0000010000
0000000000
0001000000
0000100000
0000000000
0001000000
0000100000
0000000000
,
0010000000
0000000000
0001000000
0100000000
0000000000
0001000000
0100000000
0000000000
,
1000000000
0000000000
0100000000
0001000000
0000000000
0010000000
0000100000
0000000000
,
0001000000
0000010000
0000100000
0000101000
,
0000110000
0000000000
0000001000
0000000000
0000010000
0000000100
0000010000
0000000000
,
0000000010
0000000000
0000000101
0000000000
0000001000
0000000010
0000001000
0000000000
,
0000010000
0000000000
0000100000
0000000000
0000001000
0000100000
0000010000
0000000000
,
0010000000
0000000000
0000100000
0000000000
1000000000
1000000000
0010000000
0000000000
,
0100100000
0000000000
0001000000
0010000000
0000000000
0000010000
0000000000
0001000000
,
0000000000
0000100000
0000000000
0000001000
0000000000
0000000100
0000000000
0000001000
,
0000000000
0000000010
0000000000
0000000100
0000000000
0000000001
0000000000
0000001000
,
0000000100
0000000000
0000010000
0000000100
0000010000
0000000100
0000010000
0000000000
,
0000000101
0000000000
0000000000
0000010100
0000000000
0000000000
0000110000
0000000000
,
0000000000
0010100000
0000000000
0001000000
0000000000
1000000000
0010000000
1000000000
,
1010000000
0000000000
0000000000
0010100000
0000000000
0000000000
0000110000
0000000000
,
0000000000
0000010100
0000000000
0000001000
0000000000
0000000001
0000000100
0000000001
,
0000000100
0000000000
0000000001
0000000000
0000001000
0000001000
0000000100
0000000000
,
0000010000
0000000000
0000001000
0000000000
0001000000
0001000000
0000010000
0000000000
,
0001000000
0000000000
0000100000
0000000000
0010000000
0010000000
0001000000
0000000000
,
0100000000
0000000000
0010000000
0000000000
1000000000
1000000000
1010000000
0000000000
,
1000000000
0000000000
0001000000
0100000000
0000000000
0000100000
0010000000
0000000000
,
0000010000
0000000000
0000100000
0000001000
0000000000
0000010000
0000000100
0000000000
,
0000001000
0000000000
0000000010
0000000100
0000000000
0000000001
0000000010
0000000000
,
0000000100
0000000000
0000001000
0000000000
0000010000
0000000000
0000100000
0001000000
,
0010000000
0000000000
0100000000
0000000000
1000000000
0100000000
0010000000
0001000000
,
0000100000
0001000000
0010000000
0001000000
,
0000010000
0000001000
0000100000
0000000100
,
0000001000
0000000000
0000000010
0000000100
0000000001
0000000000
0000001000
0000000100
,
0000010000
0000000000
0000001100
0000000000
0000010100
0000000000
0000001000
0000000100
,
0000010000
0000000100
0000100000
0000010000
,
0010000000
0000000000
0000100000
0000000000
1000000000
0010000000
1000000000
0010000000
,
1000000000
0001000000
0100000000
0000100000
,
0001000000
0000000000
0000010000
0000000000
0000100000
0000001000
0000010000
0000000100
,
0000001000
0000000000
0000010000
0000000000
0000000000
0000000001
0000000100
0000000001
,
0000000100
0000000000
0000000010
0000000000
0000000000
0000001000
0000000100
0000010000
,
0000000100
0000000000
0000100000
0000000000
0000000000
0000010000
0001000000
0000100000
,
0010000000
0000000000
0000100000
0010000000
0000100000
0010000000
0000100000
0000000000
,
1010000000
0000000000
0000000000
0101000000
0000000000
0000000000
0010100000
0000000000
,
0000000000
0001010000
0000000000
0000100000
0000000000
0000000000
0000010000
0000000000
,
0000101000
0000000000
0000000000
0000010100
0000000000
0000000000
0000001010
0000000000
,
0000000000
0000000101
0000000000
0000000010
0000000000
0000000001
0000000100
0000000010
,
0000001000
0000000000
0000001000
0000000000
0000010000
0000010000
0000010000
0000000000
,
0000100000
0000000000
0000010000
0000000000
0000000000
0001000000
0001000000
0001000000
,
0000100000
0000000000
0010000000
0000000000
0001000000
0001000000
0001000000
0000000000
,
1000000000
0000000000
0100000000
0000000000
0001000000
0010000000
0000100000
0010000000
,
0001000000
0000000000
0010000000
0000000000
0001000000
0000100000
0000010000
0000000000
,
0000100000
0000000000
0000010000
0000000000
0000100000
0000010000
0000001000
0000000000
,
0000000100
0000000000
0000010000
0000000000
0000000010
0000001000
0000000100
0000000000
,
0000010000
0000000000
0000010000
0000000000
0000000100
0000000100
0000000100
0000000000
,
0000010000
0000001000
0000010000
0000000000
0000100100
0000000000
0000010000
0000000000
,
0000100000
0001000000
0000100000
0000000000
0010010000
0000000000
0000100000
0000000000
,
0001000000
0000100000
0010000000
0000000000
0000010000
0001000000
0000100000
0000000000
,
0010000000
0000100000
1000000000
0000000000
0100000000
0000000000
0010100000
0000000000
;

//---------------pump-double - ----------------
#NOTES:
     pump-double:
     :
     Hard:
     8:
     0.545,0.527,0.211,0.161,0.000,343.000,21.000,16.000,0.000,0.000:
0000000000
0000000000
0000000000
0000000000
,
0000000000
0000000000
0000000000
0000000000
,
0000000000
0000000000
0000000000
0000000000
,
0000000000
0000000000
0000000000
0000000000
,
0001010000
0000000000
0000100000
0000001000
0000000000
0001000000
0000010000
0000000000
,
0000101000
0000000000
0000010000
0000000100
0000000000
0000001000
0000000010
0000000100
,
0000000001
0000000000
0000000000
0000001000
0000000100
0000000010
0000000100
0000100000
,
0000010000
0001000000
0010100000
0011000000
,
0100000000
0000000000
0010000000
0100000000
0001000000
0010000000
0001000000
0000100000
,
0000010000
0000100000
0000000100
0000010000
,
0000000001
0000000000
0000000010
0000000100
0000001000
0000000000
0000010000
0000000000
,
0000100000
0000000000
0001000000
0010000000
0100000000
0000000000
0010000000
0000000000
,
0000100000
0010000000
0001000000
0000000000
0010000000
0001000000
0000100000
0000010000
,
0000001000
0000010000
0000110000
0000000100
,
0000010100
0000000000
0000000001
0000000000
0000000101
0000000000
0000001000
0000010000
,
0000000100
0000000000
0000001000
0000010000
0000100000
0000000000
0001000000
0000100000
,
0000010000
0000000000
0000001000
0000010000
0000100000
0001000000
0010000000
0000100000
,
0001000000
0000000000
0010000000
0000000000
0001000000
0000000000
0000100000
0000100000
,
0000100000
0000000000
0001000000
0000000000
0000001000
0000000000
0000100000
0000100000
,
0000100000
0000000000
0000001000
0000000000
0000000100
0000000000
0000000010
0000000100
,
0000000010
0000000000
0000000100
0000000001
0000000100
0000000001
0000000100
0000000000
,
0000000020
0000000000
0000000000
0000020030
0000000000
0000000000
0002030000
0000000000
,
0000000000
2003000000
0000000000
3010000000
0000000000
0001000000
0100000000
0010000000
,
2000000000
0000000000
0000000000
3002000000
0000000000
0000000000
0003020000
0000000000
,
0000000000
0000030020
0000000000
0000000031
0000000000
0000000000
0000001000
0000000000
,
0000000001
0000000100
0000000001
0000000100
0000000010
0000001000
0000000010
0000001000
,
0000000100
0000010000
0000001000
0000100000
0000000000
0000010000
0001010000
0000000000
,
0000100000
0010000000
0000100000
0010000000
0001000000
0100000000
0001000000
0100000000
,
0010000000
0001000000
0000100000
0010000000
0000000000
0000010000
0000110000
0000000000
,
0001010000
0000000000
0000100000
0000001000
0000000000
0001000000
0000010000
0000000000
,
0000101000
0000000000
0000010000
0001000000
0000000000
0000001000
0000100000
0000001000
,
0000010000
0000000000
0000000100
0000000000
0000001000
0000010000
0000100000
0001000000
,
0010000000
0000000000
0000100000
0010000000
0000000000
0010000000
0000100000
0000000000
,
0001000000
0000000000
0000100000
0010000000
0000100000
0001000000
0000001000
0000100000
,
0000010000
0000000000
0000100000
0000000000
0000110000
0000000000
0000000100
0000010000
,
0000000100
0000000000
0000001000
0000000000
0000001100
0000000000
0000000010
0000000100
,
0000000001
0000000010
0000001100
0000010000
,
0000001000
0000100000
0000010000
0001000000
0000010000
0000100000
0000001000
0000010000
,
0000000100
0000000000
0000010000
0000020000
0000000000
0000000100
0000030200
0000000000
,
0000200300
0000000000
0000310000
0000020000
0000000000
0010030000
0010000000
0000100000
,
0000100000
0000000000
0001000000
0010000000
0000000000
0010000000
0001000000
0000000000
,
1000000000
0000100000
0010000000
0000010000
0000100000
0000000100
0000010000
0000000001
,
0000000101
0000000000
0000010000
0000000000
0000010100
0000000000
0000100000
0000010000
,
0000100000
0000000000
0001000000
0010000000
0000100000
0000000000
0000001000
0000000100
,
0000010000
0000000000
0001000000
0000100000
0000010000
0001000000
0000100000
0010000000
,
0001000000
0000000000
1000000000
1000000000
0010000000
0010000000
0100000000
0010000000
,
1000000000
0100000000
0010000000
0002000000
0000000000
0003100000
0000010000
0000001000
,
0000000100
0000000010
0000000001
0000000011
0000000000
0000001000
0000000010
0000000100
,
0000000001
0000000010
0000000100
0000002000
0000000000
0000013000
0000100000
0001000000
,
0010000000
0100000000
1000000000
1100000000
0000000000
1000000000
0001000000
0100000000
,
0000100000
0000000000
1000000000
0010000000
0100000000
0001000000
0000100000
0000000000
,
0000010000
0000001000
0000000100
0000010000
0000000100
0000010000
0000000100
0000010000
,
0000001000
0000100000
0000001000
0000100000
0000010000
0001000000
0000010000
0001000000
,
0000100000
0010000000
0001000000
0100000000
0010000000
1000000000
1000000000
0000000000
,
1000000000
0010000000
0100000000
0001000000
0010000000
0000100000
0001000000
0000010000
,
0000100000
0000001000
0000010000
0000000100
0000001000
0000000010
0000000100
0000000001
,
0000000001
0000000100
0000000101
0000010000
,
0000010100
0000100000
0000110000
0010000000
,
0000100000
0001000000
0000100000
0001000000
0000001000
0000010000
0000001000
0000010000
,
0000000100
0000001000
0000000100
0000002000
0000000000
0000000001
0000003001
0000000000
,
0000000001
0000000100
0000000001
0000000100
0000000010
0000001000
0000000010
0000001000
,
0000010000
0000100000
0000010000
0000200000
0000000000
0001000000
0001300000
0000000000
;

//---------------pump-double - ----------------
#NOTES:
     pump-double:
     :
     Easy:
     4:
     0.245,0.281,0.090,0.010,0.000,161.000,9.000,1.000,0.000,0.000:
0000000000
0000000000
0000000000
0000000000
,
0000000000
0000000000
0000000000
0000000000
,
0000000000
0000000000
0000000000
0000000000
,
0000000000
0000000000
0000000000
0000000000
,
1000000000
0010000000
0100000000
0000000000
,
0010100000
0000000000
0000110000
0000000000
,
0000001000
0000000100
0000010000
0000000000
,
0000000010
0000000000
0000000010
0000000000
,
0000000100
0000000000
0000000010
0000001000
,
0000000100
0000000000
0000010000
0000000000
,
0000001000
0000000000
0000000000
0000100000
,
0000100000
0000000000
0000010000
0000000000
,
0001000000
0000000000
0000000000
0010000000
,
0010000000
0000000000
1000000000
0000000000
,
0100000000
0000000000
0000000000
0001000000
,
0001000000
0000000000
0010000000
0000000000
,
0000100000
0001000000
0000010000
0000100000
,
0000001000
0000000000
0000010000
0000010000
,
0000010000
0000000000
0000001000
0000000000
,
0000000100
0000000000
0000000010
0000000000
,
0000000001
0000000000
0000000100
0000000010
,
0000001000
0000000000
0000000000
0000000100
0000000000
0000000000
0000010000
0000000000
,
0000000000
0000001000
0000000000
0000100000
0000000000
0000000000
0000000000
0000000000
,
0000010000
0000000000
0000000000
0001000000
0000000000
0000000000
0000100000
0000000000
,
0000000000
0010000000
0000000000
0001000000
0000000000
0000000000
0010000000
0000000000
,
0100000000
1000000000
0010000000
0100000000
,
0001000000
0010000000
0000100000
0000000000
,
0001000000
0000010000
0000100000
0000001000
,
0000010000
0000000100
0000001000
0000000010
,
0000000100
0000000000
0000000101
0000000000
,
0000010000
0000000000
0000010100
0000000000
,
0000100000
0000000000
0000110000
0000000000
,
0010000000
0001000000
0100000000
0000100000
,
0010000000
0001000000
0100000000
0000100000
,
0010000000
0000000000
0010100000
0000000000
,
0000010000
0000000000
0000110000
0000000000
,
0000001000
0000000000
0000010000
0000000000
,
0000001000
0000010000
0000000100
0000001000
,
0000000010
0000000000
0000000100
0000000000
,
0000000010
0000000000
0000001010
0000000000
,
0000010100
0000000000
0000001000
0000000000
,
0000100000
0000010000
0001000000
0000100000
,
0010000000
0000000000
0000100000
0000100000
,
0000100000
0000000000
0001000000
0001000000
,
0001000000
0000000000
0000010000
0000100000
,
0000010000
0000000000
0000001000
0000000100
,
0000001000
0000000000
0000000000
0000000100
0000000000
0000000000
0000010000
0000000000
,
0000000000
0000001000
0000000000
0000001000
0000000000
0000000000
0000000000
0000000000
,
0000100000
0000000000
0000000000
0000010000
0000000000
0000000000
0001000000
0000000000
,
0000000000
0000100000
0000000000
0000100000
0000000000
0000000000
0000000000
0000000000
,
0010000000
0001000000
0100000000
0000000000
,
0010000000
0100000000
0001000000
0000000000
,
0010000000
0000100000
0001000000
0000000000
,
0000100000
0001000000
0000010000
0000000000
,
0000100000
0000001000
0000010000
0000000000
,
0000001000
0000010000
0000000100
0000000000
,
0000010000
0000000100
0000001000
0000000000
,
0000000100
0000001000
0000000010
0000000000
,
0000010000
0000010000
0000001000
0000001000
,
0000100000
0000000000
0000010000
0000010000
,
0001000000
0010000000
0100000000
0010000000
,
1000000000
0000000000
0001000000
0002000000
,
0000000000
0003000000
0000000000
0000000000
;

//---------------pump-double - ----------------
#NOTES:
     pump-double:
     :
     Beginner:
     1:
     0.006,0.124,0.010,0.000,0.000,1.000,1.000,0.000,0.000,1.000:
0000000000
0000000000
0000000000
0000000000
,
0000000000
0000000000
0000000000
0000000000
,
0000000000
0000000000
0000000000
0000000000
,
0000000000
0000000000
0000000000
0000000000
,
0000000000
0000000000
0000000000
0000000000
,
0000000000
0000000000
0000000000
0000000000
,
0000000000
0000000000
0000000000
0000000000
,
0000000000
0000000000
0000000000
0000000000
,
0000000000
0000000000
0000000000
0000000000
,
0000000000
0000000000
0000000000
0000000000
,
0000000000
0000000000
0000000000
0000000000
,
0000000000
0000000000
0000000000
0000000000
,
0000000000
0000000000
0000000000
0000000000
,
0000000000
0000000000
0000000000
0000000000
,
0000000000
0000000000
0000000000
0000000000
,
0000000000
0000000000
0000000000
0000000000
,
0000000000
0000000000
0000000000
0000000000
,
0000000000
0000000000
0000000000
0000000000
,
0000000000
0000000000
0000000000
0000000000
,
0000000000
0000000000
0000000000
0000000000
,
0000000000
0000000000
0000000000
0000000000
,
0000000000
0000000000
0000000000
0000000000
,
0000000000
0000000000
0000000000
0000000000
,
0000000000
0000000000
0000000000
0000000000
,
0000000000
0000000000
0000000000
0000000000
,
0000000000
0000000000
0000000000
0000000000
,
0000000000
0000000000
0000000000
0000000000
,
0000000000
0000000000
0000000000
0000000000
,
0000000000
0000000000
0000000000
0000000000
,
0000000000
0000000000
0000000000
0000000000
,
0000000000
0000000000
0000000000
0000000000
,
0000000000
0000000000
0000000000
0000000000
,
0000000000
0000000000
0000000000
0000000000
,
0000000000
0000000000
0000000000
0000000000
,
0000000000
0000000000
0000000000
0000000000
,
0000000000
0000000000
0000000000
0000000000
,
0000000000
0000000000
0000000000
0000000000
,
0000000000
0000000000
0000000000
0000000000
,
0000000000
0000000000
0000000000
0000000000
,
0000000000
0000000000
0000000000
0000000000
,
0000000000
0000000000
0000000000
0000000000
,
0000000000
0000000000
0000000000
0000000000
,
0000000000
0000000000
0000000000
0000000000
,
0000000000
0000000000
0000000000
0000000000
,
0000000000
0000000000
0000000000
0000000000
,
0000000000
0000000000
0000000000
0000000000
,
0000000000
0000000000
0000000000
0000000000
,
0000000000
0000000000
0000000000
0000000000
,
0000000000
0000000000
0000000000
0000000000
,
0000000000
0000000000
0000000000
0000000000
,
0000000000
0000000000
0000000000
0000000000
,
0000000000
0000000000
0000000000
0000000000
,
0000000000
0000000000
0000000000
0000000000
,
0000000000
0000000000
0000000000
0000000000
,
0000000000
0000000000
0000000000
0000000000
,
0000000000
0000000000
0000000000
0000000000
,
0000000000
0000000000
0000000000
0000000000
,
0000000000
0000000000
0000000000
0000000000
,
0000000000
0000000000
0000000000
0000000000
,
0000000000
0000000000
0000000000
0000000000
,
0000000000
0000000000
0000000000
0000000000
,
0000000000
0000000000
0000000000
0000000000
,
1111000000
0000000000
0000000000
0000000000
;

//---------------pump-double - Medium Edit----------------
#NOTES:
     pump-double:
     Medium Edit:
     Edit:
     64:
     0.442,0.434,0.281,0.000,0.000,280.000,28.000,0.000,0.000,0.000:
0000000000
0000000000
0000000000
0000000000
,
0000000000
0000000000
0000000000
0000000000
,
0000000000
0000000000
0000000000
0000000000
,
0000000000
0000000000
0000000000
0000000000
,
0001000000
0000000000
0000100000
0000010000
0000000000
0000100000
0000010000
0000000000
,
0000001000
0000000000
0000010000
0000100000
0000000000
0000010000
0000100000
0000000000
,
0000001000
0000010000
0000000100
0000000010
,
0000000001
0000000000
0000000101
0000000000
0000000010
0000001000
0000000010
0000000000
,
0000010000
0000000000
0000010100
0000000000
0000001000
0000100000
0000001000
0000000000
,
0000010000
0000000000
0001000000
0000100000
0000000000
0001000000
0000100000
0000000000
,
0010000000
0000000000
0001000000
0100000000
0000000000
0001000000
0100000000
0000000000
,
1000000000
0000000000
0100000000
0001000000
0000000000
0010000000
0000100000
0000000000
,
0001000000
0000010000
0000100000
0000101000
,
0000110000
0000000000
0000001000
0000000000
0000010000
0000000100
0000010000
0000000000
,
0000000010
0000000000
0000000101
0000000000
0000001000
0000000010
0000001000
0000000000
,
0000010000
0000000000
0000100000
0000000000
0000001000
0000100000
0000010000
0000000000
,
0010000000
0000000000
0000100000
0000000000
1000000000
1000000000
0010000000
0000000000
,
0100100000
0000000000
0001000000
0010000000
0000000000
0000010000
0000000000
0001000000
,
0000000000
0000100000
0000000000
0000001000
0000000000
0000000100
0000000000
0000001000
,
0000000000
0000000010
0000000000
0000000100
0000000000
0000000001
0000000000
0000001000
,
0000000100
0000000000
0000010000
0000000100
0000010000
0000000100
0000010000
0000000000
,
0000000101
0000000000
0000000000
0000010100
0000000000
0000000000
0000110000
0000000000
,
0000000000
0010100000
0000000000
0001000000
0000000000
1000000000
0010000000
1000000000
,
1010000000
0000000000
0000000000
0010100000
0000000000
0000000000
0000110000
0000000000
,
0000000000
0000010100
0000000000
0000001000
0000000000
0000000001
0000000100
0000000001
,
0000000100
0000000000
0000000001
0000000000
0000001000
0000001000
0000000100
0000000000
,
0000010000
0000000000
0000001000
0000000000
0001000000
0001000000
0000010000
0000000000
,
0001000000
0000000000
0000100000
0000000000
0010000000
0010000000
0001000000
0000000000
,
0100000000
0000000000
0010000000
0000000000
1000000000
1000000000
1010000000
0000000000
,
1000000000
0000000000
0001000000
0100000000
0000000000
0000100000
0010000000
0000000000
,
0000010000
0000000000
0000100000
0000001000
0000000000
0000010000
0000000100
0000000000
,
0000001000
0000000000
0000000010
0000000100
0000000000
0000000001
0000000010
0000000000
,
0000000100
0000000000
0000001000
0000000000
0000010000
0000000000
0000100000
0001000000
,
0010000000
0000000000
0100000000
0000000000
1000000000
0100000000
0010000000
0001000000
,
0000100000
0001000000
0010000000
0001000000
,
0000010000
0000001000
0000100000
0000000100
,
0000001000
0000000000
0000000010
0000000100
0000000001
0000000000
0000001000
0000000100
,
0000010000
0000000000
0000001100
0000000000
0000010100
0000000000
0000001000
0000000100
,
0000010000
0000000100
0000100000
0000010000
,
0010000000
0000000000
0000100000
0000000000
1000000000
0010000000
1000000000
0010000000
,
1000000000
0001000000
0100000000
0000100000
,
0001000000
0000000000
0000010000
0000000000
0000100000
0000001000
0000010000
0000000100
,
0000001000
0000000000
0000010000
0000000000
0000000000
0000000001
0000000100
0000000001
,
0000000100
0000000000
0000000010
0000000000
0000000000
0000001000
0000000100
0000010000
,
0000000100
0000000000
0000100000
0000000000
0000000000
0000010000
0001000000
0000100000
,
0010000000
0000000000
0000100000
0010000000
0000100000
0010000000
0000100000
0000000000
,
1010000000
0000000000
0000000000
0101000000
0000000000
0000000000
0010100000
0000000000
,
0000000000
0001010000
0000000000
0000100000
0000000000
0000000000
0000010000
0000000000
,
0000101000
0000000000
0000000000
0000010100
0000000000
0000000000
0000001010
0000000000
,
0000000000
0000000101
0000000000
0000000010
0000000000
0000000001
0000000100
0000000010
,
0000001000
0000000000
0000001000
0000000000
0000010000
0000010000
0000010000
0000000000
,
0000100000
0000000000
0000010000
0000000000
0000000000
0001000000
0001000000
0001000000
,
0000100000
0000000000
0010000000
0000000000
0001000000
0001000000
0001000000
0000000000
,
1000000000
0000000000
0100000000
0000000000
0001000000
0010000000
0000100000
0010000000
,
0001000000
0000000000
0010000000
0000000000
0001000000
0000100000
0000010000
0000000000
,
0000100000
0000000000
0000010000
0000000000
0000100000
0000010000
0000001000
0000000000
,
0000000100
0000000000
0000010000
0000000000
0000000010
0000001000
0000000100
0000000000
,
0000010000
0000000000
0000010000
0000000000
0000000100
0000000100
0000000100
0000000000
,
0000010000
0000001000
0000010000
0000000000
0000100100
0000000000
0000010000
0000000000
,
0000100000
0001000000
0000100000
0000000000
0010010000
0000000000
0000100000
0000000000
,
0001000000
0000100000
0010000000
0000000000
0000010000
0001000000
0000100000
0000000000
,
0010000000
0000100000
1000000000
0000000000
0100000000
0000000000
0010100000
0000000000
;

//---------------pump-double - Hard Edit----------------
#NOTES:
     pump-double:
     Hard Edit:
     Edit:
     74:
     0.562,0.558,0.151,0.171,0.000,360.000,15.000,17.000,0.000,0.000:
0000000000
0000000000
0000000000
0000000000
,
0000000000
0000000000
0000000000
0000000000
,
0000000000
0000000000
0000000000
0000000000
,
0000000000
0000000000
0000000000
0000000000
,
0000100000
0001000000
0000100000
0000001000
,
0000001000
0000010000
0000000100
0000001000
,
0000010000
0000100000
0000010000
0000100000
0001000000
0000100000
0001000000
0000100000
,
0000010000
0000000000
0010000000
0010000000
0000000000
0001000000
0001000000
0000000000
,
1000000000
0010000000
0100000000
0100000000
0001000000
0010000000
0000100000
0000100000
,
0001000000
0100100000
0010000000
1001000000
,
1000000000
0010000000
1000000000
0010000000
0100000000
0001000000
0100000000
0001000000
,
0010000000
0000100000
0010000000
0000100000
0001000000
0000010000
0000100000
0000001000
,
0000010000
0000000100
0000001000
0000000010
0000000100
0000001000
0000010000
0000000010
,
0000001000
0000000000
0000000100
0000000100
0000000000
0000010000
0000010000
0000000000
,
0000001000
0000000000
0001000000
0001000000
0000000000
0000100000
0000100000
0000000000
,
0010000000
0000000000
0001000000
0001000000
0000000000
0100000000
0100000000
0000000000
,
0001000000
1000000000
0100000000
0010000000
0001000000
0100000000
0010000000
0001000000
,
0000100000
0001010000
0000100000
0000101000
,
0000010000
0000000000
0001010000
0000000000
0000100000
0000001000
0000010000
0000000100
,
0000001100
0000000000
0000100000
0000010000
0000100000
0000010000
0001000000
0000100000
,
0001000000
0000100000
0100000000
0010000000
1000000000
1000000000
1000000000
1000000000
,
2000000000
0000000000
0000000000
3002000000
0000000000
0000000000
0003020000
0000000000
,
0000000000
0000030020
0000000000
0000001030
0000000000
0000000001
0000010000
0000010000
,
0000000020
0000000000
0000000000
0000020030
0000000000
0000000000
0002030000
0000000000
,
0000000000
2003000000
0000000000
3100000000
0000000000
0000000000
0100100000
0000000000
,
1000000000
0001000000
1000000000
0001000000
0100000000
0000100000
0100000000
0000100000
,
0010000000
0000010000
0010000000
0000010000
0000000000
0000110000
0000110000
0000000000
,
0000100000
0000000100
0000100000
0000000100
0000010000
0000000010
0000010000
0000000010
,
0000001000
0000000001
0000001000
0000000001
0000000000
0000000001
0000000201
0000000000
,
0000000310
0000000000
0000001000
0000001000
0000000000
0000000100
0000010000
0000001000
,
0000001000
0000000000
0000100000
0000010000
0000000000
0001000000
0000100000
0010000000
,
0010000000
0000000000
0001000000
0100000000
0010000000
0010000000
0010000000
1000000000
,
0000100000
0001000000
0000010000
0000100000
0000000000
0000100000
0000001000
0000000000
,
0000010000
0000000000
0000001000
0000100000
0000010000
0001000000
0000010000
0000100000
,
0000000100
0000000000
0000010000
0000001000
0000000000
0000010000
0000001000
0000000000
,
0000000100
0000000000
0000000001
0000000010
0000000000
0000000001
0000000010
0000000100
,
0000010000
0000010000
0000001000
0000000100
0000000001
0000000001
0000000010
0000000100
,
0000010000
0000001000
0000100000
0000001000
0000100000
0000010000
0001000000
0000010000
,
0001000000
0000000000
0000100000
0010000000
0000000000
0001000000
0100000000
0000000000
,
1001000000
0000000000
0100000000
0001000000
0000000000
0010000000
0000100000
0001000000
,
0000010000
0000000000
0010000000
0001000000
0000000000
0100000000
0010000000
1000000000
,
0000100000
0010000000
0000010000
0000100000
0000000100
0000010000
0000000001
0000000100
,
0000000101
0000000000
0000000000
0000000000
0000000000
0000000010
0000001000
0000000100
,
0000010000
0000000000
0000000000
0000000000
0000000000
0000001000
0000100000
0000010000
,
0001000000
0000000000
0000000000
0000000000
0000000000
0000100000
0010000000
0001000000
,
1000000000
0010000000
0100000000
0100000000
0100000000
0100000000
0100000000
0010000000
,
2000000000
0000000000
0000000000
3002000000
0000000000
0000000000
0003020000
0000000000
,
0000000000
0000030020
0000000000
0000001030
0000000001
0000010000
0000000010
0000001000
,
0000000002
0000000000
0000000000
0000002003
0000000000
0000000000
0000203000
0000000000
,
0000000000
0200300000
0000000000
0301000000
0000000000
1000000000
0010000000
0100000000
,
0101000000
0001000000
0010000000
0001000000
0010000000
0000100000
0001000000
0000100000
,
0001000000
0000001000
0000010000
0000001000
0000010000
0000000100
0000001000
0000000100
,
0000001000
0000000010
0000000100
0000001000
0000000100
0000000010
0000000100
0000001000
,
0000000100
0000000001
0000010000
0000000100
0000010000
0000000001
0000010000
0000000100
,
0000100000
0000001000
0000100000
0000001000
0001000000
0000010000
0001000000
0000010000
,
0010000000
0000100000
0010000000
0000100000
0100000000
0001000000
0100000000
0001000000
,
1000000000
0100000000
0010000000
0001000000
0000100000
0001000000
0010000000
0100000000
,
1000000000
0000100000
0001000000
0010000000
1000000000
0100000000
0010000000
0000100000
,
1000000000
0001000000
1000000000
0001000000
0100000000
0000100000
0100000000
0000100000
,
0010000000
0001000000
0010000000
0001000000
0000000000
0010000000
0010010000
0000000000
,
0000100000
0000001000
0000010000
0000001000
0001000000
0000100000
0001000000
0000010000
,
0010000000
0001000000
0000100000
0000010000
0000000000
0001000000
0001010000
0000000000
;

//---------------pump-double - Easy Edit----------------
#NOTES:
     pump-double:
     Easy Edit:
     Edit:
     36:
     0.245,0.281,0.090,0.010,0.000,161.000,9.000,1.000,0.000,0.000:
0000000000
0000000000
0000000000
0000000000
,
0000000000
0000000000
0000000000
0000000000
,
0000000000
0000000000
0000000000
0000000000
,
0000000000
0000000000
0000000000
0000000000
,
1000000000
0010000000
0100000000
0000000000
,
0010100000
0000000000
0000110000
0000000000
,
0000001000
0000000100
0000010000
0000000000
,
0000000010
0000000000
0000000010
0000000000
,
0000000100
0000000000
0000000010
0000001000
,
0000000100
0000000000
0000010000
0000000000
,
0000001000
0000000000
0000000000
0000100000
,
0000100000
0000000000
0000010000
0000000000
,
0001000000
0000000000
0000000000
0010000000
,
0010000000
0000000000
1000000000
0000000000
,
0100000000
0000000000
0000000000
0001000000
,
0001000000
0000000000
0010000000
0000000000
,
0000100000
0001000000
0000010000
0000100000
,
0000001000
0000000000
0000010000
0000010000
,
0000010000
0000000000
0000001000
0000000000
,
0000000100
0000000000
0000000010
0000000000
,
0000000001
0000000000
0000000100
0000000010
,
0000001000
0000000000
0000000000
0000000100
0000000000
0000000000
0000010000
0000000000
,
0000000000
0000001000
0000000000
0000100000
0000000000
0000000000
0000000000
0000000000
,
0000010000
0000000000
0000000000
0001000000
0000000000
0000000000
0000100000
0000000000
,
0000000000
0010000000
0000000000
0001000000
0000000000
0000000000
0010000000
0000000000
,
0100000000
1000000000
0010000000
0100000000
,
0001000000
0010000000
0000100000
0000000000
,
0001000000
0000010000
0000100000
0000001000
,
0000010000
0000000100
0000001000
0000000010
,
0000000100
0000000000
0000000101
0000000000
,
0000010000
0000000000
0000010100
0000000000
,
0000100000
0000000000
0000110000
0000000000
,
0010000000
0001000000
0100000000
0000100000
,
0010000000
0001000000
0100000000
0000100000
,
0010000000
0000000000
0010100000
0000000000
,
0000010000
0000000000
0000110000
0000000000
,
0000001000
0000000000
0000010000
0000000000
,
0000001000
0000010000
0000000100
0000001000
,
0000000010
0000000000
0000000100
0000000000
,
0000000010
0000000000
0000001010
0000000000
,
0000010100
0000000000
0000001000
0000000000
,
0000100000
0000010000
0001000000
0000100000
,
0010000000
0000000000
0000100000
0000100000
,
0000100000
0000000000
0001000000
0001000000
,
0001000000
0000000000
0000010000
0000100000
,
0000010000
0000000000
0000001000
0000000100
,
0000001000
0000000000
0000000000
0000000100
0000000000
0000000000
0000010000
0000000000
,
0000000000
0000001000
0000000000
0000001000
0000000000
0000000000
0000000000
0000000000
,
0000100000
0000000000
0000000000
0000010000
0000000000
0000000000
0001000000
0000000000
,
0000000000
0000100000
0000000000
0000100000
0000000000
0000000000
0000000000
0000000000
,
0010000000
0001000000
0100000000
0000000000
,
0010000000
0100000000
0001000000
0000000000
,
0010000000
0000100000
0001000000
0000000000
,
0000100000
0001000000
0000010000
0000000000
,
0000100000
0000001000
0000010000
0000000000
,
0000001000
0000010000
0000000100
0000000000
,
0000010000
0000000100
0000001000
0000000000
,
0000000100
0000001000
0000000010
0000000000
,
0000010000
0000010000
0000001000
0000001000
,
0000100000
0000000000
0000010000
0000010000
,
0001000000
0010000000
0100000000
0010000000
,
1000000000
0000000000
0001000000
0002000000
,
0000000000
0003000000
0000000000
0000000000
;

//---------------pump-double - Beginner Edit----------------
#NOTES:
     pump-double:
     Beginner Edit:
     Edit:
     14:
     0.118,0.153,0.010,0.040,0.000,77.000,1.000,4.000,0.000,0.000:
0000000000
0000000000
0000000000
0000000000
,
0000000000
0000000000
0000000000
0000000000
,
0000000000
0000000000
0000000000
0000000000
,
0000000000
0000000000
0000000000
0000000000
,
0000010000
0000000000
0000000000
0000000000
,
0000010000
0000000000
0000000000
0000000000
,
0000001000
0000000000
0000000000
0000000000
,
0000010000
0000000000
0000000100
0000000000
,
0000001000
0000000000
0000000010
0000000000
,
0000000100
0000000000
0000000000
0000000000
,
0000000001
0000000000
0000000000
0000000000
,
0000000100
0000000000
0000000000
0000000000
,
0000010000
0000000000
0000001000
0000000000
,
0001000000
0000000000
0000000000
0000000000
,
0000100000
0000000000
0000000000
0000000000
,
0010000000
0000000000
0000000000
0000000000
,
0001000000
0000000000
0000000000
0100000000
,
0010000000
0000000000
0000000000
0000000000
,
1000000000
0000000000
0000000000
0000000000
,
0010000000
0000000000
0000000000
0100000000
,
0001000000
0000000000
0010000000
0000000000
,
0000200000
0000000000
0000000000
0000000000
,
0000000000
0000000000
0000000000
0000000000
,
0000320000
0000000000
0000000000
0000000000
,
0000000000
0000000000
0000030000
0000000000
,
0000001000
0000000000
0000001000
0000000000
,
0000000100
0000000000
0000000000
0000000000
,
0000100000
0000000000
0000100000
0000000000
,
0000010000
0000000000
0000000000
0000000000
,
0001000000
0000000000
0000000000
0001000000
,
0000100000
0000000000
0000000000
0000100000
,
0010000000
0000000000
0000000000
0000000000
,
0100000000
0000000000
0000000000
0000000000
,
0010000000
0000000000
0000000000
0000000000
,
1000000000
0000000000
0000000000
0000000000
,
0100000000
0000000000
0000000000
0000000000
,
0000100000
0000000000
0000000000
0000000000
,
0000010000
0000000000
0000000000
0000000000
,
0000100000
0000000000
0000000000
0000000000
,
0000001000
0000000000
0000000000
0000001000
,
0000000100
0000000000
0000000000
0000000000
,
0000000100
0000000000
0000000100
0000000000
,
0000000100
0000000000
0000000000
0000001000
,
0000100000
0000000000
0000000000
0000010000
,
0001000000
0000000000
0000000000
0000100000
,
0000001000
0000000000
0000000000
0000000000
,
0000020000
0000000000
0000000000
0000000000
,
0000000000
0000000000
0000000000
0000000000
,
0000230000
0000000000
0000000000
0000000000
,
0000000000
0000000000
0000300000
0000000000
,
0001000000
0000000000
0001000000
0000000000
,
0000100000
0000000000
0000100000
0000000000
,
0010000000
0000000000
0010000000
0000000000
,
0000010000
0000000000
0000010000
0000000000
,
0000001000
0000000000
0000001000
0000000000
,
0000000100
0000000000
0000000100
0000000000
,
0000000001
0000000000
0000000001
0000000000
,
0000010000
0000000000
0000010000
0000000000
,
0000001000
0000000000
0000000000
0000000000
,
0000001000
0000000000
0000000000
0000000000
,
0000001000
0000000000
0000000000
0000000000
,
0000011000
0000000000
0000000000
0000000000
;
