#TITLE:Bach Alive;
#SUBTITLE:;
#ARTIST:BeautifulDay;
#TITLETRANSLIT:;
#SUBTITLETRANSLIT:;
#ARTISTTRANSLIT:;
#CREDIT:PopnKO;
#BANNER:bachalive-banner.png;
#SONGINFO:bachalive-songinfo.png;
#BACKGROUND:bachalive-bg.png;
#LYRICSPATH:;
#CDTITLE:./CDTITLES/o2jam.png;
#CHARACTER:default;
#MUSIC:Bach Alive.mp3;
#OFFSET:-0.440;
#SAMPLESTART:24.800;
#SAMPLELENGTH:16.000;
#SELECTABLE:YES;
#BPMS:0.000=130.000;
#STOPS:;
#BGCHANGES:-2.000=visffd320.avi=1.000=1=1=0
;
// cache tags:
#FIRSTBEAT:12.000;
#LASTBEAT:214.000;
#SONGFILENAME:Songs/Neon FM/Bach Alive/Bach Alive.sm;
#HASMUSIC:1;
#HASBANNER:1;
#MUSICLENGTH:102.124;
// end cache tags

//---------------pump-single - Copied from----------------
#NOTES:
     pump-single:
     Copied from:
     Beginner:
     17:
     0.104,0.183,0.000,0.010,0.000,73.000,0.000,1.000,0.000,0.000:
00000
00000
00000
00000
,
00000
00000
00000
00000
,
00000
00000
00000
00000
,
00010
00000
00000
00000
,
00000
00000
00000
00000
,
10000
00000
00001
00000
,
10000
00000
00001
00000
,
01000
00000
00010
00000
,
01000
00000
00010
00000
,
00100
00000
00000
00000
,
00001
00000
00000
00000
,
10000
00000
00000
00000
,
00010
00000
00000
00000
,
00100
00000
00000
00000
,
00001
00000
00000
00000
,
01000
00000
00000
00000
,
00100
00000
00000
00000
,
10000
00000
00000
00000
,
00010
00000
00000
00000
,
10000
00000
00000
00000
,
01000
00000
00000
00000
,
10000
00000
00000
00000
,
00001
00000
00000
00000
,
00100
00000
00000
00000
,
00010
00000
00000
00000
,
10000
00000
00000
00000
,
00010
00000
00000
00000
,
01000
00000
00000
00000
,
00001
00000
00000
00000
,
00100
00000
00000
00000
,
00010
00000
00000
00000
,
00000
00000
00000
00000
,
00100
00000
00000
00000
,
00000
00000
00000
00000
,
00000
10000
00000
00001
,
00000
10000
00000
00100
,
00000
00010
00000
00100
,
00000
00010
00000
10000
,
00000
00001
00000
10000
,
00000
00001
00000
10000
,
00000
00100
00000
10000
,
00000
00010
00000
00010
,
00000
01000
00000
01000
,
00001
00000
00000
00000
,
00100
00000
01000
00000
,
00010
00000
10000
00000
,
00001
00000
01000
00000
,
00100
00000
10000
00000
,
00010
00000
00100
00000
,
00001
00000
01000
00000
,
00010
00000
00100
00001
,
10000
00000
00001
10000
,
00100
00000
01000
00010
,
00200
00000
00300
00000
;

//---------------pump-single - ----------------
#NOTES:
     pump-single:
     :
     Hard:
     97:
     0.712,0.760,0.186,0.137,0.627,476.000,19.000,14.000,0.000,0.000:
00000
00000
00000
00000
,
00000
00000
00000
00000
,
00000
00000
00000
00000
,
10010
00000
00100
00000
,
10000
00000
00010
00000
00100
00001
01000
00100
,
10000
10000
00010
00100
00001
00001
01000
00100
,
10000
10000
00010
00100
00001
00001
10000
00100
,
01000
01000
00001
00100
00010
00010
10000
00100
,
01000
01000
00001
00100
00010
00010
01000
00100
,
10000
10000
00010
00010
01000
01000
00001
00001
,
10000
00100
10000
00100
01000
00100
01000
00100
10000
00000
00100
00000
01000
00000
00010
00000
,
00100
00001
00100
00001
00010
00001
00010
00001
00100
00000
00010
00000
01000
00000
00100
00000
,
10000
00100
10000
00100
10000
01000
10000
01000
10000
00000
00100
00000
01000
00000
00010
00000
,
00100
00001
00100
00001
00100
00010
00100
00010
00100
00000
00001
00000
00101
00000
00100
00000
,
00001
00100
00001
00100
00001
00010
00001
00010
00001
00000
00100
00000
00010
00000
01000
00000
,
00100
10000
00100
10000
00100
01000
00100
01000
00100
00000
01000
00000
00010
00000
00100
00000
,
00001
00100
00001
00100
00010
00100
00010
00100
00010
00000
01000
00000
00010
00000
10000
00000
,
00100
10000
00100
10000
01000
10000
01000
10000
00100
00000
01000
00000
01001
00000
10000
00000
,
00010
10000
00010
10000
01000
10000
01000
10000
00010
00000
01000
00000
00100
00000
10000
00000
,
00001
01000
00001
01000
00001
00010
00001
00010
00001
00000
01000
00000
00010
00000
00100
00000
,
00001
10000
00001
10000
00100
10000
00100
10000
00001
00000
01000
00000
00100
00000
10000
00000
,
00010
00100
01000
00100
00010
00100
01000
00100
00010
00100
01000
00100
00010
00100
01000
00100
,
00010
00000
01000
00000
00001
00000
00100
00000
00001
01000
00001
01000
00001
00100
00001
00100
,
00001
00000
01000
00000
00010
00000
00100
00000
00010
10000
00010
10000
00100
10000
00100
10000
,
00010
00000
01000
00000
10010
00000
00100
00000
10000
00010
10000
00010
10000
00100
10000
00100
,
10000
00000
00001
00000
01001
00000
00100
00000
01000
00001
01000
00001
00100
00001
00100
00001
,
01000
00001
01000
00001
10000
00001
10000
00001
01000
00000
01000
00000
00010
00000
00010
00000
,
10000
00010
10000
00010
10000
00001
10000
00001
10000
00000
10000
00000
00001
00000
00001
00000
,
00001
01000
00001
01000
00001
10000
00001
10000
00001
00000
00001
00000
01000
00000
01000
00000
,
00010
10000
00010
10000
00001
10000
00001
10000
00010
10000
00010
10000
00001
10000
00001
10000
,
00000
00000
10000
00100
00000
00000
01000
00010
00000
00000
00100
00001
00000
00000
01000
00001
,
00000
00000
00001
00100
00000
00000
00010
01000
00000
00000
00100
10000
00000
00000
00010
10000
,
00000
00000
10000
00001
00000
00000
00001
01000
00000
00000
01000
00010
00000
00000
00010
10000
,
00000
00000
10000
01000
00000
00000
01000
00100
00000
00000
00100
00010
00000
00000
00010
00001
,
00010
00000
01010
00000
00100
10000
10010
00000
,
00100
00000
00001
00000
01000
00010
10010
00100
,
00001
00000
01000
00000
00100
10000
10001
00000
,
01000
00000
00010
00000
10000
00001
01001
00100
,
10010
00000
00000
00000
,
10000
00100
00010
00100
01000
10001
01001
00100
,
00001
00100
01000
00100
00010
01001
10010
00100
,
10000
01000
00100
00001
00010
10100
10001
00100
,
00001
00010
00100
10000
01000
00101
01010
00100
,
00002
00000
02003
00000
03200
10000
01300
00000
,
20000
00000
30002
00000
00203
00010
01300
00000
,
00020
00000
02030
00000
03002
00100
01003
00000
,
00200
00000
00320
00000
20030
00100
30001
00000
,
10000
00100
10000
00010
01000
00010
01000
00001
,
10000
00100
10000
00100
10000
00010
10000
00010
01000
00010
01000
00010
01000
00001
01000
00001
,
10000
00010
10000
00100
10000
00100
01000
00001
,
10000
00010
10000
00010
10000
00100
10000
00100
01000
00100
01000
00100
01000
00001
01000
00001
,
01000
00001
10000
00001
10000
00010
00100
00010
,
01000
00001
01000
00001
10000
00001
10000
00001
10000
00010
10000
00010
00100
00010
00100
00020
,
20000
00000
30030
00000
;

//---------------pump-single - ----------------
#NOTES:
     pump-single:
     :
     Medium:
     54:
     0.364,0.393,0.059,0.088,0.000,245.000,6.000,9.000,0.000,0.000:
00000
00000
00000
00000
,
00000
00000
00000
00000
,
00000
00000
00000
00000
,
00000
00000
00000
00000
,
00000
00000
00000
00000
,
10000
00100
00000
00100
01000
00010
00000
00010
,
00100
00001
00000
00001
00100
00010
00000
00010
,
00100
01000
00000
01000
00100
00010
00000
10000
,
00100
01000
00000
01000
00100
10000
00000
00000
,
00010
00100
00010
00100
00010
00100
00010
00100
,
00001
10000
00100
00010
,
00100
01000
00010
10000
,
00001
00100
00010
01000
,
00001
00100
00010
01000
,
00001
00010
00001
00000
01000
00100
01000
00000
,
00010
00100
00010
00000
10000
00100
10000
00000
,
01000
00001
01000
00000
00100
00001
00100
00000
,
00010
10000
00010
00000
01000
00100
01000
00000
,
00001
00100
01000
00000
00100
00010
01000
00000
,
00001
10000
00100
00000
01000
00100
10000
00000
,
00001
00100
00010
00000
00010
10000
00100
00000
,
01000
00100
10000
00000
00100
01000
00010
00000
,
00100
00001
00100
00001
00100
00000
00100
00000
,
00010
01000
00010
01000
00010
00000
00010
00000
,
10000
00001
10000
00001
10000
00000
10000
00000
,
00100
01000
00100
01000
00100
00000
00100
00000
,
01000
00001
01000
00001
01000
00001
01000
00000
,
00010
10000
00010
10000
00010
10000
00010
00000
,
10000
01000
00100
01000
10000
01000
00100
00000
,
01000
10000
00010
10000
01000
10000
00010
00000
,
01000
01001
00001
00101
,
00100
00110
00010
10010
,
10000
10001
00001
00101
,
00100
00010
00000
00000
00100
00010
00000
00010
,
20000
00000
30100
00000
00000
01000
01000
00000
,
00002
00000
01003
00000
00000
00010
00010
00000
,
02000
00000
03100
00000
00000
10000
10000
00000
,
00200
00000
02300
00000
00000
00001
03001
00000
,
00100
00000
00010
00010
,
10000
00000
00100
00000
00000
00100
00100
00000
,
01000
00000
00001
00000
00000
00010
00010
00000
,
00001
10000
00001
10000
,
00020
02030
03200
01300
,
00001
00000
00001
00000
00001
00100
00000
00010
,
01000
01000
01000
00000
,
00100
00000
00100
00000
00100
10000
00000
10000
,
01000
01000
01000
00000
,
10000
00100
01000
00010
,
10000
00100
01000
00010
,
00100
00001
00010
00001
,
00100
00001
00010
00001
,
01000
00010
01000
00000
00001
01000
00001
00000
,
10000
00010
10000
00000
00100
01000
00100
00100
,
20000
00000
30000
00000
;

//---------------pump-single - ----------------
#NOTES:
     pump-single:
     :
     Easy:
     28:
     0.192,0.236,0.000,0.010,0.000,136.000,0.000,1.000,0.000,0.000:
00000
00000
00000
00000
,
00000
00000
00000
00000
,
00000
00000
00000
00000
,
00001
00000
10000
00000
,
00001
00000
10000
00000
,
00100
00000
00100
00000
,
01000
00000
01000
00000
,
00010
00000
00010
00000
,
10000
00000
10000
00000
,
00001
00100
00010
01000
,
00100
00000
00100
00000
,
10000
00000
10000
00000
,
00100
00000
00100
00000
,
01000
00000
01000
00000
,
00010
00000
00010
00000
,
00100
00000
00100
00000
,
00001
00000
00001
00000
,
00100
00000
00100
00000
,
00010
01000
00010
00000
,
10000
00001
10000
00000
,
00010
00100
00001
00000
,
01000
00100
10000
00000
,
00010
01000
00100
00000
,
00100
01000
00010
00000
,
10000
00001
00100
00000
,
00001
10000
00100
00000
,
01000
00100
10000
00100
,
01000
00100
10000
00100
,
01000
00010
00100
00001
,
00100
00010
01000
00010
,
00100
00001
00000
00001
,
00000
00001
00000
00100
,
00000
00010
00000
00010
,
00000
10000
00000
00100
,
01000
00100
00000
00000
,
00010
00100
00000
00000
,
00001
00100
00000
00000
,
01000
00100
00100
00100
,
01000
00100
00100
00100
,
10000
00000
00010
00000
,
00100
00000
00010
00000
,
01000
00000
00010
00000
,
01000
00000
00001
00000
,
10000
00100
10000
00000
,
00100
10000
00100
00000
,
00010
01000
00010
00000
,
01000
00010
01000
00000
,
00001
00100
00001
00100
,
00001
10000
00001
10000
,
00001
01000
00001
01000
,
00010
00100
00010
00100
,
00010
00000
00010
00000
,
01000
00000
01000
00000
,
00002
00000
00003
00000
;
