#TITLE:Control;
#SUBTITLE:(Domination Mix);
#ARTIST:TheNine;
#TITLETRANSLIT:;
#SUBTITLETRANSLIT:;
#ARTISTTRANSLIT:;
#CREDIT:Pop"nKO;
#BANNER:thenine-control-banner.png;
#SONGINFO:thenine-control-songinfo.png;
#BACKGROUND:thenine-control-bg.png;
#LYRICSPATH:;
#CDTITLE:./CDTITLES/thenine-invasion.png;
#CHARACTER:./SongCharacters/TheNine;
#MUSIC:Control.ogg;
#OFFSET:0.000;
#SAMPLESTART:50.580;
#SAMPLELENGTH:12.000;
#SELECTABLE:YES;
#BPMS:0.000=138.000;
#STOPS:;
#BGCHANGES:-2.000=visffd320.avi=1.000=1=1=0
;
// cache tags:
#FIRSTBEAT:16.000;
#LASTBEAT:220.000;
#SONGFILENAME:Songs/Neon FM/Control/control.sm;
#HASMUSIC:1;
#HASBANNER:1;
#MUSICLENGTH:97.169;
// end cache tags

//---------------pump-single - ----------------
#NOTES:
     pump-single:
     :
     Hard:
     81:
     0.529,0.478,0.144,0.165,0.139,330.000,14.000,16.000,0.000,0.000:
00000
00000
00000
00000
,
00000
00000
00000
00000
,
00000
00000
00000
00000
,
00000
00000
00000
00000
,
10000
00000
00010
00000
10100
00000
00010
01000
,
00001
00000
01000
00000
00101
00000
01000
00010
,
10000
00000
00010
00000
10100
00000
00010
01000
,
00001
00000
01000
00000
00001
01000
00010
10000
,
00100
00000
10000
00000
00101
00000
01000
00010
,
00100
00000
00001
00000
10100
00000
00010
01000
,
00100
00000
10000
00000
00101
00000
01000
00010
,
00100
00000
00001
00000
10000
00010
01000
00001
,
00100
00000
00001
00000
01000
00010
00000
00010
01000
00000
00100
00000
10000
00000
00000
00000
,
00100
00000
01000
00000
00001
00010
00000
00010
00001
00000
01000
00000
10000
00000
00000
00000
,
00100
00000
10000
00000
00010
01000
00000
01000
00010
00000
00100
00000
00001
00000
00000
00000
,
00100
00000
00010
00000
10000
01000
00000
01000
10000
00000
00010
00000
00001
00000
00000
00000
,
10000
00000
00001
00000
00010
00001
00000
00001
01000
00000
00100
00000
10000
00000
00000
00000
,
00010
00000
01000
00000
10000
01000
00000
01000
00001
00000
00100
00000
00010
00000
00000
00000
,
00001
00000
10000
00000
01000
10000
00000
10000
00010
00000
00100
00000
00001
00000
00000
00000
,
01000
00010
00001
00010
10000
00100
01000
10000
,
01000
00100
00020
00000
00001
00000
00031
00000
,
00010
00100
00000
01000
00000
11000
00000
11000
,
00000
00100
00020
00000
00001
00000
00031
00000
,
00010
00100
00000
00100
00000
00011
00000
00011
,
00000
00100
00010
00100
02000
00000
03001
00000
,
00100
00010
00100
01000
00000
11000
00000
11000
,
00000
00100
00010
00100
02000
00000
03001
00000
,
00100
00010
00100
01000
00000
11000
00000
11000
,
01000
00100
00010
10000
00100
01000
00001
01000
,
00001
00100
00001
00100
10000
00100
10000
00100
,
01000
00000
00100
00000
00010
00000
00100
00001
00000
00000
00001
00000
00010
00000
00100
00000
,
10000
00100
10000
00100
00001
00100
00001
00100
,
01000
00100
00010
00100
01000
00100
00010
00100
,
10000
00100
10000
00100
00001
00100
00001
00100
,
00010
00000
00100
00000
01000
00000
00100
10000
00000
00000
10000
00000
01000
00000
00100
00000
,
00002
00000
00013
00100
20000
00000
31000
00100
,
00002
00000
00013
00100
20000
00000
30100
00000
,
20000
00000
31000
00100
00002
00000
00013
00100
,
20000
00000
31000
00100
00002
00000
00103
00000
,
00100
00000
00001
00000
01000
00000
00010
01000
00000
00000
00100
00000
10000
00000
01000
00000
,
00100
00000
00010
00000
01000
00000
00010
00001
00000
00000
01000
00000
10000
00000
00100
00000
,
01000
00000
10000
00000
01000
00000
00010
01000
00000
00000
00010
00000
00100
00000
00001
00000
,
00100
00000
00010
00000
10000
00000
01000
10000
00000
00000
00010
00000
00001
00000
01000
00000
,
10000
00000
00001
00000
00010
00000
00001
01000
00000
00000
00100
00000
10000
00000
00100
00000
,
00010
00000
10000
00000
01000
00000
00100
00010
00000
00000
01000
00000
00100
00000
01000
00000
,
00010
00000
10000
00000
01000
00000
10000
00010
00000
00000
00100
00000
00001
00000
00100
00000
,
01000
00000
10000
00000
00001
00000
01000
00010
00000
00000
00010
00000
10000
00000
00010
00000
,
02000
00010
00000
00010
00000
00010
00000
03010
,
00000
00000
00100
00000
00000
00000
00001
01000
00000
00000
00001
00000
01000
00000
00010
00000
,
00020
01000
00000
01000
00000
01000
00000
01030
,
00000
00000
00100
00000
00000
00000
10000
00010
00000
00000
10000
00000
00010
00000
01000
00000
,
02000
00010
00000
00010
00000
00010
00000
03010
,
00000
00000
00100
00000
00000
00000
00001
01000
00000
00000
00001
00000
01000
00000
00010
00000
,
00020
01000
00000
01000
00000
01000
00000
01030
,
00000
00001
00000
00001
00000
00001
00000
00000
;

//---------------pump-single - ----------------
#NOTES:
     pump-single:
     :
     Medium:
     55:
     0.369,0.368,0.000,0.103,0.021,241.000,0.000,10.000,0.000,0.000:
00000
00000
00000
00000
,
00000
00000
00000
00000
,
00000
00000
00000
00000
,
00000
00000
00000
00000
,
00000
01000
00100
10000
00100
01000
00100
00000
,
10000
00001
01000
00010
,
00100
00010
00100
00000
00100
00001
00100
00010
,
00000
10000
00001
10000
,
00000
00010
00100
00001
00100
00010
00100
00000
,
00001
01000
00100
10000
,
00001
00100
00010
00000
00010
00100
00001
00000
,
01000
00010
10000
00001
,
00100
00100
00000
00000
00010
00010
00000
00000
,
01000
01000
00000
00000
00001
00001
00000
00000
,
10000
00000
00100
00000
01000
00001
01000
00000
,
00010
00000
10000
00000
00100
01000
00100
00000
,
10000
10000
00000
00000
00010
00010
00000
00000
,
01000
01000
00000
00000
00100
00100
00000
00000
,
10000
00000
00010
00000
01000
00010
01000
00000
,
00002
00000
00000
00000
,
00003
01000
00010
01000
00001
00000
10000
00000
,
00100
10000
00000
10000
00000
00001
00000
00001
,
00000
00100
00010
00100
00001
00000
01000
00000
,
00100
10000
00000
10000
00000
00001
00000
00001
,
00000
01000
00010
01000
00001
00000
10000
00000
,
00100
10000
00000
10000
00000
00001
00000
00001
,
00000
00100
00010
00100
00001
00000
01000
00000
,
00100
10000
00100
00000
00100
00000
00100
00000
,
00200
01000
10000
01300
,
00000
01000
00010
00000
01000
00001
00100
00020
,
00000
10030
00000
10000
,
00001
00100
00010
02000
00000
00000
03001
00000
,
00001
00100
00010
02000
00000
00000
03001
00000
,
00000
01000
00100
10000
01000
00000
10000
00000
,
00001
00100
00001
00200
00000
00000
00310
00000
,
01000
00000
00000
00001
00000
00000
10000
00000
00010
00000
00000
00000
00100
00000
00001
00000
,
00100
00000
00000
00010
00000
00000
01000
00000
00100
00000
00000
00000
10000
00000
00000
00000
,
00001
00000
00000
00100
00000
00000
00001
00000
01000
00000
00000
00000
00010
00000
00000
00000
,
10000
00000
00000
00100
00000
00000
10000
00000
00010
00000
00000
00000
00100
00000
00000
00000
,
00001
00100
00001
00100
00000
00100
00001
00000
,
10000
00100
10000
00100
00000
00100
10000
00000
,
00010
01000
00010
01000
00000
01000
00010
00000
,
10000
00001
10000
00001
00000
00001
10000
00000
,
00010
00100
00000
00100
00001
00000
10000
00100
,
01000
00100
00000
00100
10000
00000
00001
00100
,
00010
00100
00000
00100
00001
00000
10000
00100
,
01000
00100
00000
00100
10000
00000
00001
00100
,
00000
00010
00000
01000
00000
00010
00000
10000
,
00000
00001
00000
00100
00000
00020
00000
00030
,
00000
00010
00000
00100
00000
00001
00000
10000
,
00000
00100
00000
10000
00000
00020
00000
00030
,
00000
01000
00000
00100
00000
10000
00000
00100
,
00000
10000
00000
00001
00000
00020
00000
00030
,
00000
00001
00000
00010
00000
00100
00000
01000
,
00000
10000
00000
01000
00000
00002
00000
00000
,
00003
00000
00000
00000
;

//---------------pump-single - ----------------
#NOTES:
     pump-single:
     :
     Easy:
     31:
     0.232,0.255,0.000,0.021,0.000,156.000,0.000,2.000,0.000,0.000:
00000
00000
00000
00000
,
00000
00000
00000
00000
,
00000
00000
00000
00000
,
00000
00000
00000
00000
,
00010
10000
00010
10000
,
00001
01000
00001
01000
,
00100
10000
00001
00100
,
00001
10000
00100
10000
,
00010
10000
00010
10000
,
00001
01000
00001
01000
,
00100
00001
10000
00100
,
10000
00010
10000
00010
,
00100
00100
00000
00000
,
00001
00001
00000
00000
,
10000
10000
00000
00000
,
00100
00100
00000
00000
,
00010
00010
00000
00000
,
10000
10000
00000
00000
,
01000
01000
00000
00000
,
00002
00000
00000
00000
,
10003
00100
10000
00010
,
00000
00001
00000
10000
,
00100
00010
00100
00001
,
00000
01000
00000
01000
,
00000
00010
10000
00100
,
00000
01000
00000
00001
,
00000
00100
00001
10000
,
00010
00000
00100
00000
,
00010
00000
01000
00010
,
01000
00000
00001
00000
,
10000
00100
10000
00000
,
00010
00000
01000
00000
,
00001
00100
00001
00000
,
10000
00000
00010
00000
,
00100
00001
01000
00000
,
00001
00000
00001
00000
,
10000
00000
10000
00000
,
00010
00000
00010
00000
,
01000
00000
01000
00000
,
00100
10000
00100
10000
,
00001
00100
00001
00100
,
10000
00100
00001
00100
,
10000
00100
00001
00100
,
01000
00010
01000
00010
,
10000
00010
10000
00010
,
01000
00001
01000
00001
,
00100
00001
00100
00001
,
10000
00001
10000
00100
,
10000
00010
10000
00001
,
01000
00001
00100
00001
,
10000
10000
00001
00001
,
10000
00010
00100
00010
,
01000
00100
10000
00001
,
01000
00001
10000
00001
,
00020
00000
00000
00000
,
00030
00000
00000
00000
;

//---------------pump-single - Copied from----------------
#NOTES:
     pump-single:
     Copied from:
     Beginner:
     12:
     0.074,0.113,0.000,0.031,0.000,47.000,0.000,3.000,0.000,0.000:
00000
00000
00000
00000
,
00000
00000
00000
00000
,
00000
00000
00000
00000
,
00000
00000
00000
00000
,
00001
00000
00000
00000
,
00001
00000
00000
00000
,
00001
00000
00000
00000
,
00001
00000
00000
00000
,
10000
00000
00000
00000
,
10000
00000
00000
00000
,
10000
00000
00000
00000
,
10000
00000
00000
00000
,
00010
00000
00000
00000
,
00000
00000
00000
00000
,
01000
00000
00000
00000
,
00000
00000
00000
00000
,
00010
00000
00000
00000
,
00000
00000
00000
00000
,
01000
00000
00000
00000
,
00200
00000
00000
00000
,
00301
00000
00000
00000
,
00001
00000
00000
00000
,
01000
00000
00000
00000
,
01000
00000
00000
00000
,
00010
00000
00000
00000
,
00010
00000
00000
00000
,
10000
00000
00000
00000
,
20000
00000
00000
00000
,
00000
00000
00000
00000
,
30001
00000
00000
00000
,
01000
00000
00000
00000
,
00010
00000
00000
00000
,
10000
00000
00000
00000
,
00100
00000
00000
00000
,
10000
00000
00000
00000
,
00001
00000
00000
00000
,
00100
00000
00000
00000
,
00001
00000
00000
00000
,
01000
00000
00000
00000
,
00010
00010
00000
00000
,
00000
00000
00000
00000
,
10000
10000
00000
00000
,
00000
00000
00000
00000
,
00001
00001
00000
00000
,
00000
00000
00000
00000
,
00100
00100
00000
00000
,
00000
00000
00000
00000
,
00010
00000
00000
00000
,
01000
00000
00000
00000
,
00010
00000
00000
00000
,
01000
00000
00000
00000
,
00001
00000
00000
00000
,
10000
00000
00000
00000
,
00001
00000
00000
00000
,
20000
00000
00000
00000
,
30000
00000
00000
00000
;
