#TITLE:A Ridiculous Dentist;
#SUBTITLE:;
#ARTIST:Voice Box Express;
#TITLETRANSLIT:;
#SUBTITLETRANSLIT:;
#ARTISTTRANSLIT:;
#CREDIT:;
#BANNER:ridiculousdentist-banner.png;
#SONGINFO:ridiculousdentist-songinfo.png;
#BACKGROUND:ridiculousdentist-bg.png;
#LYRICSPATH:;
#CDTITLE:./CDTITLES/DPSC.png;
#CHARACTER:./SongCharacters/djpotatoe;
#MUSIC:Ridiculous Dentist.mp3;
#OFFSET:-0.600;
#SAMPLESTART:38.480;
#SAMPLELENGTH:12.000;
#SELECTABLE:YES;
#BPMS:0.000=126.000;
#STOPS:;
#BGCHANGES:;
// cache tags:
#FIRSTBEAT:12.000;
#LASTBEAT:228.000;
#SONGFILENAME:Songs/Neon FM/Ridiculous Dentist/Ridiculous Dentist.sm;
#HASMUSIC:1;
#HASBANNER:1;
#MUSICLENGTH:109.949;
// end cache tags

//---------------pump-single - ----------------
#NOTES:
     pump-single:
     :
     Hard:
     85:
     0.556,0.518,0.000,0.136,0.518,413.000,0.000,15.000,0.000,0.000:
00000
00000
00000
00000
,
00000
00000
00000
00000
,
00000
00000
00000
00000
,
01000
00000
00000
00010
00000
00000
10000
00000
00000
00010
00000
00000
00100
00000
00001
00000
00100
00000
00001
00000
00000
00000
00000
00000
,
10000
00000
00000
10000
00000
00000
10000
00000
00010
00000
00000
00010
00000
00000
00010
00000
,
00100
00000
00000
00100
00000
00000
00100
00000
00001
00000
10000
00000
00010
00000
10000
00000
,
00100
00000
00000
00100
00000
00000
00100
00000
01000
00000
00000
01000
00000
00000
01000
00000
,
00010
00000
00000
00010
00000
00000
00010
00000
10000
00000
00001
00000
01000
00000
00100
00000
,
01000
00000
00000
01000
00000
00000
01000
00000
00010
00000
00100
00000
00001
00000
10000
00000
,
00010
00000
00000
00010
00000
00000
00010
00000
01000
00000
00100
00000
10000
00000
00100
00000
,
10000
00000
00000
10000
00000
00000
10000
00000
00001
00000
00100
00000
00010
00000
01000
00000
,
00001
00000
00000
00001
00000
00000
00001
00000
01000
00000
00001
01000
00000
00001
01000
00000
,
00010
00000
01000
00000
00000
00100
00000
01000
00010
00000
00010
00000
00000
10000
00000
00100
,
01000
00000
01000
00000
00000
00001
00000
10000
00010
00000
00100
00000
00000
00000
00100
00000
,
00001
00000
00001
00000
00000
01000
00000
00100
10000
00000
10000
00000
00000
01000
00000
10000
,
00100
00000
00100
00000
00000
00100
00000
00000
01000
00000
01000
00000
00010
00000
00010
00000
,
00010
00000
01000
00000
00000
00100
00000
01000
00010
00000
00010
00000
00000
10000
00000
00100
,
01000
00000
01000
00000
00000
00001
00000
10000
00010
00000
00100
00000
00000
00000
00100
00000
,
00001
00000
00001
00000
00000
01000
00000
00100
10000
00000
10000
00000
00000
01000
00000
10000
,
00100
00000
00000
00000
00000
00000
00100
00000
00000
00000
00000
00000
00000
00000
00000
00100
00000
00000
00000
00000
00000
00000
00000
00000
01000
00000
00000
00000
00010
00000
00000
00000
01000
00000
00000
00000
00010
00000
00000
00000
00000
00000
00000
00000
00000
00000
00000
00000
,
00100
00000
00000
00001
00100
00000
00010
00000
01000
00000
00000
00001
01000
00000
00100
00000
,
10000
00000
00000
00001
01000
00000
00010
00000
00200
00000
00302
00000
20003
00000
00000
00000
,
30100
00000
00000
10000
00100
00000
01000
00000
00010
00000
00000
10000
00010
00000
00100
00000
,
00001
00000
00000
10000
00010
00000
01000
00000
00200
00000
20300
00000
30002
00000
00000
00000
,
01003
00000
00000
00010
01000
00000
00001
00000
01000
00000
00000
00100
01000
00000
00010
00000
,
10000
00000
00000
00010
01000
00000
00001
00000
00200
00000
00320
00000
00032
00000
00000
00000
,
00013
00000
00000
01000
00010
00000
10000
00000
00010
00000
00000
00100
00010
00000
01000
00000
,
00001
00000
00000
01000
00010
00000
10000
00000
00200
00000
02300
00000
03020
00000
00000
00000
,
10030
00000
00000
00100
10000
00000
10000
00000
00010
00000
00100
00000
00010
00000
01000
00000
,
00001
00000
00000
00100
00001
00000
00001
00000
01000
00000
00100
00000
00010
00000
00100
00000
,
01000
00000
00000
00100
01000
00000
01000
00000
00001
00000
00100
00000
00010
00000
00100
00000
,
00010
00000
00000
10000
00001
00000
00001
00000
10000
00000
00010
10000
00000
00010
00100
00000
,
00001
00000
00000
00100
00001
00000
00001
00000
01000
00000
00100
00000
01000
00000
00010
00000
,
10000
00000
00000
00100
10000
00000
10000
00000
00010
00000
00100
00000
01000
00000
00100
00000
,
00010
00000
00000
00100
00010
00000
00010
00000
10000
00000
00100
00000
01000
00000
00100
00000
,
01000
00000
00000
00000
00000
00000
00000
00000
00000
00001
00000
00000
10000
00000
00000
00000
00000
00000
10000
00000
00000
00000
00000
00000
00001
00000
00000
00000
00010
00000
00000
00000
00100
00000
00000
00000
01000
00000
00000
00000
00000
00000
00000
00000
00000
00000
00000
00000
,
00001
00000
10000
00100
00000
00100
00000
10000
00001
00000
00001
01000
00000
01000
00000
00100
,
10000
00000
10000
00010
00000
00010
00000
01000
00001
00000
00100
00010
00000
00000
00100
00000
,
00010
00000
00010
10000
00000
10000
00000
00100
01000
00000
01000
10000
00000
10000
00000
01000
,
00100
00000
00100
10000
00000
00100
10000
00000
10000
00000
10000
00000
00001
00000
00001
00000
,
00001
00000
10000
00100
00000
00100
00000
10000
00001
00000
00001
01000
00000
01000
00000
00100
,
10000
00000
10000
00010
00000
00010
00000
01000
00001
00000
00100
00010
00000
00000
00100
00000
,
00010
00000
00010
10000
00000
10000
00000
00100
01000
00000
01000
10000
00000
10000
00000
01000
,
00100
00000
00000
00000
00000
00000
00100
00000
00000
10000
00000
00000
00000
00000
00000
00100
00000
00000
01000
00000
00000
00000
00000
00000
00001
00000
00000
00000
10000
00000
00000
00000
00001
00000
00000
00000
10000
00000
00000
00000
00000
00000
00000
00000
00000
00000
00000
00000
,
00100
00000
01000
00000
00010
00000
01000
00000
00001
00000
00000
10000
00000
00010
00100
00000
,
00001
00100
00010
00001
00010
01000
00010
10000
,
01000
00000
10000
00000
00010
00000
00100
00000
00010
00000
00000
01000
00000
00100
10000
00000
,
01000
00100
00010
01000
00001
00010
00100
00010
,
00100
00000
01000
00000
00010
00000
01000
00000
00002
00000
00000
10003
00000
00010
00100
00000
,
00001
00100
00010
00001
00010
01000
00010
10000
,
01000
00000
10000
00000
00010
00000
00100
00000
00020
00000
00000
01030
00000
00100
10000
00000
,
01000
00100
00010
01000
00001
00010
00100
00010
,
00001
00000
00000
00001
00000
00000
00001
00000
01000
00000
00000
01000
00000
00000
00100
00000
,
10000
00000
00000
10000
00000
00000
10000
00000
00001
00000
00100
00000
00010
00000
00000
00000
,
01000
00000
00000
01000
00000
00000
01000
00000
00100
00000
00000
00100
00000
00000
00100
00000
,
10000
00000
00000
10000
00000
00000
10000
00000
00010
00000
00100
00000
00001
00000
00000
00000
,
00200
00000
00000
00000
,
00300
00000
00000
00000
;

//---------------pump-single - ----------------
#NOTES:
     pump-single:
     :
     Medium:
     66:
     0.434,0.389,0.000,0.009,0.250,333.000,0.000,1.000,0.000,0.000:
00000
00000
00000
00000
,
00000
00000
00000
00000
,
00000
00000
00000
00000
,
10000
00000
00000
01000
00000
00000
10000
00000
00000
01000
00000
00000
10000
00000
00100
00000
10000
00000
00100
00000
00000
00000
00000
00000
,
01000
00000
00000
00010
00000
00000
01000
00000
00010
00000
01000
00000
00010
00000
01000
00000
,
00001
00000
00000
00100
00000
00000
00001
00000
00100
00000
00001
00000
00100
00000
00001
00000
,
10000
00000
00000
00010
00000
00000
10000
00000
00010
00000
10000
00000
00010
00000
10000
00000
,
00001
00000
00000
01000
00000
00000
00001
00000
01000
00000
00000
00001
00000
00000
01000
00000
,
00010
00000
00000
01000
00000
00000
00010
00000
01000
00000
00010
00000
01000
00000
00010
00000
,
10000
00000
00000
00100
00000
00000
10000
00000
00100
00000
10000
00000
00100
00000
10000
00000
,
00001
00000
00000
01000
00000
00000
00001
00000
01000
00000
00001
00000
01000
00000
00001
00000
,
10000
00000
00000
00010
00000
00000
10000
00000
00010
00000
00000
10000
00000
00000
00010
00000
,
00100
00100
00000
00000
00001
00001
00000
00000
,
10000
10000
00000
00000
01000
01000
00000
00000
,
00100
00100
00000
00000
00010
00010
00000
00000
,
10000
10000
00000
00000
00001
00010
00001
00010
,
00001
00001
01000
00000
01000
01000
00100
00000
,
00100
00100
01000
00000
01000
01000
00010
00000
,
00010
00010
00100
00000
00100
00100
00001
00000
,
00001
00000
00000
00001
00000
00000
10000
00000
00000
00000
00000
00000
10000
00000
00100
00000
10000
00000
00100
00000
00000
00000
00000
00000
,
10000
00010
00100
00010
00000
00010
01000
00000
,
00001
10000
00100
01000
00000
01000
00010
00000
,
00100
00001
10000
00100
00000
00100
01000
00000
,
00010
00100
00001
10000
00100
01000
00100
00000
,
01000
00001
00100
00001
00000
00001
10000
00000
,
00010
01000
00100
10000
00000
10000
00001
00000
,
00100
00010
01000
00100
00000
00100
10000
00000
,
00001
00100
00010
01000
00100
10000
00100
00000
,
01000
00000
00000
00010
00000
00000
01000
00000
00010
00000
01000
00000
00010
00000
01000
00000
,
00001
00000
00000
00100
00000
00000
00001
00000
00100
00000
00001
00000
00100
00000
00001
00000
,
10000
00000
00000
00010
00000
00000
10000
00000
00010
00000
10000
00000
00010
00000
10000
00000
,
00001
00000
00000
01000
00000
00000
00001
00000
01000
00000
00000
00001
00000
00000
01000
00000
,
00010
00000
00000
01000
00000
00000
00010
00000
01000
00000
00010
00000
01000
00000
00010
00000
,
10000
00000
00000
00100
00000
00000
10000
00000
00100
00000
10000
00000
00100
00000
10000
00000
,
00001
00000
00000
01000
00000
00000
00001
00000
01000
00000
00001
00000
01000
00000
00001
00000
,
10000
00000
00000
00000
00000
00000
00000
00000
00000
00010
00000
00000
00000
00000
00000
00000
00000
00000
10000
00000
00000
00000
00000
00000
00010
00000
00000
00000
01000
00000
00000
00000
00010
00000
00000
00000
01000
00000
00000
00000
00000
00000
00000
00000
00000
00000
00000
00000
,
00001
00000
01000
00000
00000
00100
00000
00000
01000
00000
00010
00000
00000
10000
00000
00000
,
00100
00000
01000
00000
00000
00001
00000
00000
10000
00000
00000
10000
00000
00000
10000
00000
,
00010
00000
00100
00000
00000
01000
00000
00000
00100
00000
00001
00000
00000
00010
00000
00000
,
00001
00000
00000
00100
00000
00000
00010
00000
00000
00000
10000
00000
00001
00000
00000
00000
,
10000
00000
00010
00000
00000
00100
00000
00000
00010
00000
01000
00000
00000
00001
00000
00000
,
00100
00000
00010
00000
00000
10000
00000
00000
00001
00000
00000
00001
00000
00000
00001
00000
,
01000
00000
00100
00000
00000
00010
00000
00000
00100
00000
10000
00000
00000
01000
00000
00000
,
10000
00000
00000
00000
00000
00000
00100
00000
00000
00000
00000
00000
00000
00000
00000
01000
00000
00000
00000
00000
00000
00000
00000
00000
00010
00000
00000
00000
00100
00000
00000
00000
00010
00000
00000
00000
00100
00000
00000
00000
00000
00000
00000
00000
00000
00000
00000
00000
,
00001
00000
00100
00000
00010
00000
00000
00000
10000
00000
00000
00100
00000
00000
10000
00000
,
00010
00000
00100
00000
01000
00000
00000
00000
10000
00000
00000
00001
00000
00000
01000
00000
,
00010
00000
10000
00000
01000
00000
00000
00000
10000
00000
00000
00100
00000
00000
01000
00000
,
00100
00000
10000
00000
00001
00000
01000
00000
00010
00000
00000
01000
00000
00000
00010
00000
,
10000
00000
00100
00000
01000
00000
00000
00000
00001
00000
00000
00100
00000
00000
00001
00000
,
01000
00000
00100
00000
00010
00000
00000
00000
00001
00000
00000
10000
00000
00000
00010
00000
,
01000
00000
00001
00000
00010
00000
00000
00000
00001
00000
00000
00100
00000
00000
00010
00000
,
00100
00000
00001
00000
10000
00000
00010
00000
01000
00000
00000
00010
00000
00000
01000
00000
,
00001
00000
00000
00001
00000
00000
00001
00000
10000
00000
00000
10000
00000
00000
10000
00000
,
00010
00000
00000
00010
00000
00000
00010
00000
01000
00000
00100
00000
10000
00000
00000
00000
,
00100
00000
00000
00100
00000
00000
00100
00000
01000
00000
00000
01000
00000
00000
01000
00000
,
00010
00000
00000
00010
00000
00000
00010
00000
00100
00000
00001
00000
01000
00000
00000
00000
,
00002
00000
00000
00000
,
00003
00000
00000
00000
;

//---------------pump-single - ----------------
#NOTES:
     pump-single:
     :
     Easy:
     31:
     0.235,0.259,0.036,0.045,0.000,172.000,4.000,5.000,0.000,0.000:
00000
00000
00000
00000
,
00000
00000
00000
00000
,
00000
00000
00000
00000
,
00010
01000
00002
00000
,
10003
00100
10000
00010
,
01000
00010
10000
00100
,
01000
00001
01000
00100
,
00010
00100
01000
01000
,
00001
10000
00010
00100
,
00010
00100
00001
01000
,
00100
10000
00010
00100
,
00001
01000
00100
00010
,
00100
00100
10000
00000
,
00001
00000
00100
00000
,
00010
00000
00001
00000
,
00010
00000
01000
00000
,
00100
00000
10000
00000
,
00010
00000
00100
00000
,
00001
00000
01000
00000
,
00100
00000
20000
00000
,
30010
01000
00010
01000
,
00001
10000
00001
10000
,
00010
01000
00100
10000
,
00010
00100
00001
00010
,
00001
01000
00001
10000
,
01000
10000
00010
00100
,
00010
01000
00001
10000
,
00100
10000
20000
00000
,
30010
01000
00100
10000
,
00010
00100
00001
00101
,
10000
00100
01000
00100
,
10000
00010
00100
00110
,
01000
00100
10000
01000
,
10000
00100
01000
01100
,
00001
10000
00010
00100
,
00010
01000
00001
01001
,
10000
00000
00100
00000
,
00010
00000
00100
00000
,
00001
00000
01000
00000
,
00100
00000
10000
00000
,
00010
00000
01000
00000
,
00010
00000
10000
00000
,
00001
00000
01000
00000
,
00100
00000
20000
00000
,
30100
01000
00100
01000
,
00010
00100
00010
00100
,
00001
00100
00001
00100
,
00001
10000
00001
10000
,
00100
10000
00100
10000
,
00100
01000
00100
01000
,
00010
00100
00010
01000
,
00100
10000
00001
10000
,
00010
00000
00010
00000
,
01000
00000
01000
00000
,
00100
00000
00100
00000
,
00100
00000
00100
00000
,
00200
00000
00000
00000
,
00300
00000
00000
00000
;

//---------------pump-single - Copied from----------------
#NOTES:
     pump-single:
     Copied from:
     Beginner:
     16:
     0.109,0.156,0.000,0.036,0.000,80.000,0.000,4.000,0.000,0.000:
00000
00000
00000
00000
,
00000
00000
00000
00000
,
00000
00000
00000
00000
,
00000
00000
00020
00000
,
01030
00000
00001
00000
,
10000
00000
00100
00000
,
01000
00000
00010
00000
,
00100
00000
00001
00000
,
01000
00000
01000
00000
,
00010
00000
00010
00000
,
10000
00000
10000
00000
,
00100
00000
00100
00000
,
00001
00000
00000
00000
,
00001
00000
00000
00000
,
01000
00000
00000
00000
,
01000
00000
00000
00000
,
00000
00010
00000
00100
,
00000
00010
00000
01000
,
00000
00001
00000
01000
,
00000
00100
00020
00000
,
01030
00000
00000
00000
,
00001
00000
00000
00000
,
10000
00000
00000
00000
,
00100
00000
00000
00000
,
01000
00000
00000
00000
,
00010
00000
00000
00000
,
10000
00000
00000
00000
,
00100
00000
00000
00000
,
00010
00100
00000
00000
,
00001
00100
00000
00000
,
00010
01000
00000
00000
,
00001
00100
00000
00000
,
01000
00100
00000
00000
,
10000
00100
00000
00000
,
01000
00100
00000
00000
,
10000
00100
00000
00000
,
01000
00000
00010
00000
,
00100
00000
00001
00000
,
10000
00000
00001
00000
,
01000
00000
00100
00000
,
00010
00000
00001
00000
,
00010
00000
00100
00000
,
01000
00000
10000
00000
,
01000
00000
00020
00000
,
10030
00000
00000
00000
,
00100
00000
00000
00000
,
00010
00000
00000
00000
,
00100
00000
00000
00000
,
10000
00000
00000
00000
,
00001
00000
00000
00000
,
01000
00000
00000
00000
,
00001
00000
00000
00000
,
00001
00000
00000
00000
,
00000
00000
00000
00000
,
00100
00000
00000
00000
,
00000
00000
00000
00000
,
00020
00000
00000
00000
,
00030
00000
00000
00000
;
