#TITLE:Afterburn;
#SUBTITLE:;
#ARTIST:Jakazid;
#TITLETRANSLIT:;
#SUBTITLETRANSLIT:;
#ARTISTTRANSLIT:;
#CREDIT:;
#BANNER:afterburn-banner.png;
#SONGINFO:afterburn-songinfo.png;
#BACKGROUND:afterburn-bg.png;
#LYRICSPATH:;
#CDTITLE:./CDTITLES/neon.png;
#CHARACTER:./SongCharacters/Jakazid;
#MUSIC:Afterburn.mp3;
#OFFSET:-0.700;
#SAMPLESTART:17.560;
#SAMPLELENGTH:12.000;
#SELECTABLE:YES;
#BPMS:0.000=170.000;
#STOPS:;
#BGCHANGES:-2.000=visffd320.avi=1.000=1=1=0
;
// cache tags:
#FIRSTBEAT:16.000;
#LASTBEAT:304.000;
#SONGFILENAME:Songs/Neon FM/Afterburn/Afterburn.sm;
#HASMUSIC:1;
#HASBANNER:1;
#MUSICLENGTH:111.411;
// end cache tags

//---------------pump-single - ----------------
#NOTES:
     pump-single:
     :
     Hard:
     96:
     0.795,0.853,0.135,0.296,0.539,572.000,15.000,33.000,0.000,0.000:
00000
00000
00000
00000
,
00000
00000
00000
00000
,
00000
00000
00000
00000
,
00000
00000
00000
00000
,
00010
01000
00000
00001
00000
10000
00000
00100
00000
00000
01000
00000
00100
00000
10000
00000
,
00010
01000
00000
00001
00000
10000
00000
00100
00000
00000
01000
00000
00100
00000
10000
00000
,
00010
01000
00000
00001
00000
10000
00000
00100
00000
00000
01000
00000
00100
00000
10000
00000
,
00010
01000
00000
00001
00000
10000
00000
00100
00000
00000
01000
00000
00100
00000
10000
00000
,
00002
02003
03002
00203
,
00320
20030
30020
02030
,
03100
10000
00100
01000
00010
01000
00001
10000
00001
00100
00010
00100
,
00002
20003
30020
02030
,
03100
00000
10000
00100
00000
10000
00100
00000
01000
00000
00001
00000
00100
00000
00000
00000
,
00010
00000
01000
00010
00000
01000
00010
00000
10000
00000
00001
00000
00100
00000
00010
00000
,
00100
00000
00001
00100
00000
00001
00100
00000
00001
00000
01000
00000
00100
00000
10000
00000
,
00010
00000
00100
00010
00000
00100
00010
00000
10000
00000
00100
00000
10100
00000
00000
00000
,
00100
00000
00001
00100
00000
00001
00100
00000
00010
00000
10000
00000
00100
00000
00000
00000
,
01000
00000
00010
01000
00000
00010
01000
00000
00001
00000
10000
00000
00100
00000
01000
00000
,
00100
00000
10000
00100
00000
10000
00100
00000
10000
00000
00010
00000
00100
00000
00001
00000
,
01000
00000
00100
01000
00000
00100
01000
00000
00001
00000
00200
00000
00000
00000
00000
00000
,
00310
10000
00001
00100
00010
00100
00001
01000
,
00100
00000
00000
10000
00000
00000
00010
00000
01000
00000
00100
00000
10000
00000
00000
00000
,
10000
00100
10000
00001
01000
00100
01000
00010
,
10000
00000
00000
00001
00000
00000
01000
00000
00010
00000
00100
00000
00010
00000
00000
00000
,
10000
00010
01000
00100
00010
00001
01000
00010
,
10000
00100
10000
01000
00100
00010
10000
00001
,
00010
00001
10000
00100
10000
00010
01000
00100
,
10100
01010
10100
00110
,
00002
00000
00000
01003
00000
00010
00100
00000
00001
00000
10000
00100
00000
00100
10000
00000
,
00020
00000
00000
10030
00000
00100
01000
00000
00010
00000
00100
00001
00000
00001
00100
00000
,
00002
00000
00000
00103
00000
00010
01000
00000
00100
00000
10000
00001
00000
00001
10000
00000
,
00200
00000
00000
01300
00000
00100
00010
00000
00100
00000
01000
10000
00000
01000
00100
00000
,
10000
00000
00010
00100
00000
00100
00010
00000
01000
00000
00001
00100
00000
00100
00001
00000
,
01000
00000
00010
10000
00000
10000
00010
00000
01000
00000
00100
10000
00000
10000
00100
00000
,
10000
00000
00010
00100
00000
00100
00010
00000
01000
00000
00001
00100
00000
00100
00001
00000
,
01000
00000
00010
10000
00000
10000
00010
00000
01000
00000
00100
10000
00000
10000
00100
00000
,
10100
10000
10000
10000
00010
00010
00010
00010
,
02000
03200
00000
01300
00001
00000
00101
00000
,
00101
00001
00001
00001
01000
01000
01000
01000
,
00020
00230
00000
00310
00000
10100
10000
00000
,
00110
00010
00010
00010
10000
10000
10000
10000
,
00002
00203
00000
00301
01000
00000
01100
00000
,
02000
03020
00000
10030
01000
01000
11000
00000
,
00020
02030
00000
03001
00010
00010
00000
00010
,
10000
01000
10000
01000
10000
00100
10000
00100
,
01000
00010
01000
00010
10000
00001
10000
00001
,
00100
00010
00100
00010
01000
00001
01000
00001
,
10000
00010
10000
00010
01000
00100
01000
00100
,
10000
00010
01000
00001
10000
00010
01000
00001
,
00100
00010
01000
00001
00100
00010
01000
00001
,
10000
01000
10000
01000
10000
01000
10000
01000
10000
01000
10000
01000
10000
01000
10000
01000
,
20000
30002
20003
30002
,
01003
01000
00010
00010
00100
00100
00010
00010
,
10000
10000
00100
00100
01000
01000
00001
00001
,
10000
10000
00010
00010
01000
01000
00001
00001
,
00100
00100
00010
00010
00100
00100
00001
00001
,
01000
01000
00100
00100
00010
00010
00001
00001
,
10000
10000
00100
00100
01000
01000
00010
00010
,
01000
01000
00001
00001
00100
00100
00010
00010
,
00001
00001
00010
00010
01000
01000
00100
00100
,
00100
00000
10000
00100
00000
10000
00100
00000
01000
00000
00001
00000
00100
00000
00000
00000
,
00010
00000
01000
00010
00000
01000
00010
00000
10000
00000
00001
00000
00100
00000
00010
00000
,
00100
00000
00001
00100
00000
00001
00100
00000
00001
00000
01000
00000
00100
00000
10000
00000
,
00010
00000
00100
00010
00000
00100
00010
00000
10000
00000
00100
00000
10100
00000
00000
00000
,
00100
00000
00001
00100
00000
00001
00100
00000
00010
00000
10000
00000
00100
00000
00000
00000
,
01000
00000
00010
01000
00000
00010
01000
00000
00001
00000
10000
00000
00100
00000
01000
00000
,
00100
00000
10000
00100
00000
10000
00100
00000
10000
00000
00010
00000
00100
00000
00001
00000
,
01000
00000
00100
01000
00000
00100
01000
00000
00001
00000
00100
00000
00110
00000
00000
00000
,
00010
01000
00000
00010
00000
01000
00100
00000
10000
00000
00001
00000
00100
00000
00001
00000
,
00100
00010
00000
00100
00000
00010
10000
00000
00010
00000
00100
00000
00001
00000
10000
00000
,
00100
01000
00000
00100
00000
01000
00010
00000
01000
00000
00001
00000
10000
00000
00100
00000
,
10000
01000
00000
10000
00000
01000
00100
00000
00010
00000
10000
00000
00001
00000
00100
00000
,
00010
01000
00000
00010
00000
01000
00100
00000
10000
00000
00001
00000
00100
00000
00001
00000
,
00100
00010
00000
00100
00000
00010
10000
00000
00010
00000
00100
00000
00001
00000
10000
00000
,
00100
01000
00000
00100
00000
01000
00010
00000
01000
00000
00001
00000
10000
00000
00100
00000
,
20000
00020
00000
00000
00000
00000
00000
00000
00000
00000
00000
00000
00000
00000
30030
00000
,
01001
00000
00000
00000
;

//---------------pump-single - ----------------
#NOTES:
     pump-single:
     :
     Medium:
     77:
     0.559,0.580,0.054,0.162,0.287,412.000,6.000,18.000,0.000,0.000:
00000
00000
00000
00000
,
00000
00000
00000
00000
,
00000
00000
00000
00000
,
00000
00000
00000
00000
,
00100
00000
00000
00010
00000
01000
00000
00100
00000
00000
01000
00000
00010
00000
00010
00000
,
00100
00000
00000
00010
00000
01000
00000
00100
00000
00000
01000
00000
00010
00000
00010
00000
,
00100
00000
00000
00010
00000
01000
00000
00100
00000
00000
01000
00000
00010
00000
00010
00000
,
00100
00000
00000
00010
00000
01000
00000
00100
00000
00000
01000
00000
00010
00000
00010
00000
,
00200
00001
00001
00001
,
00320
01000
01000
01000
,
20030
30100
02000
03010
,
01010
01010
01010
10001
,
00001
00000
00000
00100
00000
00000
00001
00000
01000
00000
00010
00000
00000
00000
00000
00000
,
10000
00000
00000
00100
00000
00000
10000
00000
00010
00000
01000
00000
00010
00000
01000
00000
,
00001
00000
00000
00100
00000
00000
00001
00000
01000
00000
00010
00000
01000
00000
00010
00000
,
10000
00000
00000
00100
00000
00000
10000
00000
00010
00000
01000
00000
00000
00000
00000
00000
,
00001
00100
00000
00100
00000
00000
00001
00000
01000
00000
00010
00000
00000
00000
00000
00000
,
10000
00100
00000
00100
00000
00000
10000
00000
00010
00000
01000
00000
00010
00000
01000
00000
,
00001
00100
00000
00100
00000
00000
00001
00000
01000
00000
00010
00000
01000
00000
00010
00000
,
10000
00100
00000
00100
00000
00000
10000
00000
00010
00000
01000
00000
00000
00000
00000
00000
,
02000
00000
03010
00000
00100
00001
00010
00000
,
00001
00000
00000
01000
00000
00000
00001
00000
01000
00000
00000
00000
01000
00000
00000
00000
,
00020
00000
01030
00000
00100
10000
01000
00000
,
10000
00000
00000
00010
00000
00000
10000
00000
00010
00000
00000
00000
00010
00000
00000
00000
,
20000
00000
30001
00000
00100
00010
00001
00000
,
00010
00000
00000
10000
00000
00000
00010
00000
10000
00000
00000
00000
10000
00000
00000
00000
,
00002
00000
10003
00000
00100
01000
10000
00000
,
02000
03002
02003
03020
,
10030
00000
00000
00001
00000
00000
00100
00000
00001
00000
00000
10000
00000
00000
00100
00000
,
01000
00000
00000
00001
00000
00000
01000
00000
00010
00000
00000
10000
00000
00000
00010
00000
,
00100
00000
00000
00001
00000
00000
00010
00000
00001
00000
00000
10000
00000
00000
01000
00000
,
10000
00000
00000
00001
00000
00000
01000
00000
00010
00000
00000
10000
00000
00000
10000
00000
,
00001
00000
00000
10000
00000
10000
00100
00000
10000
00000
00000
00001
00000
00001
00100
00000
,
00010
00000
00000
10000
00000
10000
00010
00000
01000
00000
00000
00001
00000
00001
01000
00000
,
00100
00000
00000
10000
00000
10000
01000
00000
10000
00000
00000
00001
00000
00000
00010
00000
,
00001
00000
00000
10000
00000
00000
00010
00000
01000
00000
00000
00001
00000
00000
00100
00000
,
00010
00100
00010
00000
00100
00010
00100
00000
,
00001
02000
00000
03001
00000
00000
01000
00000
,
00100
10000
00100
00000
10000
00100
10000
00000
,
00010
00200
00000
00310
00000
00010
00000
00000
,
01000
00001
01000
00000
00001
01000
00001
00000
,
10000
00020
00000
10030
00000
00000
10000
00000
,
00100
02000
00000
03100
00000
00000
00100
00000
,
10000
00002
00000
10003
00000
10000
00000
00001
,
10000
00100
01000
00000
00010
00100
00001
00000
,
10000
00100
01000
00000
00010
00100
00001
00000
,
10000
00100
01000
00000
00010
00100
00001
00000
,
10000
00100
01000
00000
00010
00100
00001
00000
,
10000
00001
00100
00000
00010
01000
00100
00000
,
10000
00001
00100
00000
00010
01000
00100
00000
,
00100
00100
00100
00100
00100
00100
00100
00100
,
10200
10000
10000
10000
,
10300
00000
00010
00000
10000
00010
10000
00000
,
00100
00000
01000
00000
00100
01000
00100
00000
,
01000
00000
00001
00000
01000
00001
01000
00000
,
00010
00000
00100
00000
00010
00100
00010
00000
,
01000
00000
00010
00000
01000
00010
01000
00000
,
00001
00000
01000
00000
00001
01000
00001
00000
,
10000
00000
00010
00000
10000
00010
10000
00000
,
00010
00000
01000
00000
00010
01000
00010
00000
,
10000
00000
00000
00100
00000
00000
10000
00000
00010
00000
01000
00000
00000
00000
00000
00000
,
00001
00000
00000
00100
00000
00000
00001
00000
01000
00000
00010
00000
01000
00000
00010
00000
,
10000
00000
00000
00100
00000
00000
10000
00000
00010
00000
01000
00000
00010
00000
01000
00000
,
00001
00000
00000
00100
00000
00000
00001
00000
01000
00000
00010
00000
00000
00000
00000
00000
,
10000
00000
00000
00100
00000
00000
10000
00000
00010
00000
01000
00000
00000
00000
00000
00000
,
00001
00000
00000
00100
00000
00000
00001
00000
01000
00000
00010
00000
01000
00000
00010
00000
,
10000
00000
00000
00100
00000
00000
10000
00000
00010
00000
01000
00000
00010
00000
01000
00000
,
00001
00000
00000
00100
00000
00000
00001
00000
01000
00000
00010
00000
00000
00000
00000
00000
,
00010
00000
00000
00100
00000
00000
00010
00000
10000
00000
00001
00000
00000
00000
00000
00000
,
01000
00000
00000
00100
00000
00000
01000
00000
00001
00000
10000
00000
00001
00000
10000
00000
,
00010
00000
00000
00100
00000
00000
00010
00000
10000
00000
00001
00000
10000
00000
00001
00000
,
01000
00000
00000
00100
00000
00000
01000
00000
00001
00000
10000
00000
00000
00000
00000
00000
,
00010
00000
00000
00100
00000
00000
00010
00000
10000
00000
00001
00000
00000
00000
00000
00000
,
01000
00000
00000
00100
00000
00000
01000
00000
00001
00000
10000
00000
00001
00000
10000
00000
,
00010
00000
00000
00100
00000
00000
00010
00000
10000
00000
00001
00000
10000
00000
00001
00000
,
01000
00000
00000
00100
00000
00000
01000
00000
00001
00000
10000
00000
00000
00000
00000
00000
,
01010
00000
00000
00000
;

//---------------pump-single - ----------------
#NOTES:
     pump-single:
     :
     Easy:
     41:
     0.321,0.307,0.000,0.000,0.000,250.000,0.000,0.000,0.000,0.000:
00000
00000
00000
00000
,
00000
00000
00000
00000
,
00000
00000
00000
00000
,
00000
00000
00000
00000
,
00001
00000
00000
00000
,
00001
00000
00000
00000
,
00001
00000
00000
00000
,
00001
00000
00000
00000
,
10000
00000
00000
00000
,
10000
00000
00000
00000
,
10000
00000
10000
00000
,
10000
10000
10000
10000
,
10000
00010
01000
00100
,
10000
00001
01000
00001
,
00100
00010
10000
00010
,
01000
00001
00100
00001
,
00001
00010
00100
01000
,
10000
01000
00100
00010
,
00001
10000
00010
00100
,
00010
01000
00100
10000
,
00010
00000
00010
00000
,
10000
00001
00100
00000
,
00010
00000
00010
00000
,
10000
00001
00100
00000
,
01000
00000
01000
00000
,
00010
10000
00100
00000
,
01000
00000
01000
00000
,
00010
10000
00100
10000
,
00001
00000
00001
10000
,
00010
00000
10000
00010
,
10000
00000
00001
01000
,
00100
00000
10000
00010
,
00100
00000
00001
01000
,
00001
00000
00100
00001
,
10000
00000
00010
00100
,
00010
00000
01000
00001
,
10000
10000
00010
00010
,
10000
10000
00100
00100
,
01000
01000
00001
00001
,
01000
01000
00010
00010
,
00100
00100
00001
00001
,
00100
00100
00010
00010
,
01000
01000
00001
00001
,
10000
10000
00010
00010
,
01000
00100
10000
00010
,
00100
00001
01000
00001
,
10000
00010
00100
00001
,
01000
00001
00100
00001
,
10000
00100
10000
00100
,
10000
00100
10000
00100
,
10000
00010
00010
00010
,
00010
00010
00010
00010
,
01000
00001
00100
00001
,
10000
00010
00100
00010
,
01000
00100
10000
01000
,
10000
00001
00100
00010
,
01000
00100
10000
00100
,
10000
00001
00100
00001
,
01000
00010
00100
01000
,
00100
00010
10000
00001
,
01000
00100
00010
00100
,
01000
00001
10000
00010
,
00100
00001
01000
00100
,
10000
01000
00100
00010
,
00001
00010
00100
01000
,
10000
00010
01000
00001
,
00100
00010
00100
00001
,
01000
00100
00010
00100
,
01000
00001
10000
00010
,
00100
00010
01000
00001
,
10000
00100
10000
00010
,
01000
00001
00100
00010
,
01000
00100
10000
00010
,
10000
00001
00100
00010
,
10000
00100
01000
00100
,
10000
00010
00100
00001
,
10000
00000
00000
00000
;

//---------------pump-single - Copied from----------------
#NOTES:
     pump-single:
     Copied from:
     Beginner:
     20:
     0.144,0.171,0.000,0.000,0.000,112.000,0.000,0.000,0.000,0.000:
00000
00000
00000
00000
,
00000
00000
00000
00000
,
00000
00000
00000
00000
,
00000
00000
00000
00000
,
00000
00000
00000
00000
,
00010
00000
00000
00000
,
00000
00000
00000
00000
,
01000
00000
00000
00000
,
00000
00000
00000
00000
,
00001
00000
00000
00000
,
10000
00000
00100
00000
,
10000
00000
00100
00000
,
10000
00000
00000
00000
,
00010
00000
00000
00000
,
01000
00000
00000
00000
,
00010
00000
00000
00000
,
10000
00000
00000
00000
,
00001
00000
00000
00000
,
00100
00000
00000
00000
,
00001
00000
00000
00000
,
01000
00000
00000
00000
,
00010
00000
00000
00000
,
00010
00000
00000
00000
,
01000
00000
00000
00000
,
00001
00000
00000
00000
,
10000
00000
00000
00000
,
10000
00000
00000
00000
,
00001
00000
00000
00000
,
01000
00000
00100
00000
,
01000
00000
00100
00000
,
10000
00000
00100
00000
,
10000
00000
00100
00000
,
01000
00000
00100
00000
,
01000
00000
00100
00000
,
10000
00000
00100
00000
,
10000
00000
00100
00000
,
01000
00000
00001
00000
,
01000
00000
00001
00000
,
00100
00000
00010
00000
,
00100
00000
00010
00000
,
01000
00000
00001
00000
,
01000
00000
00001
00000
,
00100
00000
00010
00000
,
00100
00000
00010
00000
,
10000
00000
00000
00000
,
00001
00000
00000
00000
,
00100
00000
00000
00000
,
00010
00000
00000
00000
,
01000
00000
00000
00000
,
00100
00000
00000
00000
,
10000
00000
00000
00000
,
00001
00000
00000
00000
,
00010
00000
00010
00000
,
00010
00000
00010
00000
,
01000
00000
01000
00000
,
01000
00000
01000
00000
,
00001
00000
00001
00000
,
00001
00000
00001
00000
,
10000
00000
10000
00000
,
10000
00000
10000
00000
,
00100
00000
10000
00000
,
00100
00000
01000
00000
,
00010
00000
00100
00000
,
00001
00000
00100
00000
,
00100
00000
00010
00000
,
00100
00000
01000
00000
,
00010
00000
00100
00000
,
00001
00000
10000
00000
,
00100
00000
01000
00000
,
00010
00000
00100
00000
,
00001
00000
10000
00000
,
00100
00000
01000
00000
,
00010
00000
00100
00000
,
00001
00000
10000
00000
,
00100
00000
10000
00000
,
00010
00000
00100
00000
,
00001
00000
00000
00000
;
