#TITLE:Tachophobia;
#SUBTITLE:;
#ARTIST:V;
#TITLETRANSLIT:;
#SUBTITLETRANSLIT:;
#ARTISTTRANSLIT:;
#CREDIT:;
#BANNER:tachophobia-banner.png;
#SONGINFO:tachophobia-songinfo.png;
#BACKGROUND:tachophobia-bg.png;
#LYRICSPATH:;
#CDTITLE:./CDTITLES/neon.png;
#CHARACTER:./SongCharacters/virtboss;
#MUSIC:Tachophobia.ogg;
#OFFSET:-1.630;
#SAMPLESTART:86.540;
#SAMPLELENGTH:12.000;
#SELECTABLE:NO;
#BPMS:0.000=190.000,176.000=95.000,190.000=760.014,192.000=379.999,320.000=190.000,320.500=94.999,320.750=47.499,321.000=95.000,322.000=190.000,324.000=379.998,325.000=290.000,326.000=240.000,326.500=200.000,327.000=190.000;
#STOPS:191.750=0.160
;
#BGCHANGES:-5.000=visffd320.avi=1.000=1=1=0
;
// cache tags:
#FIRSTBEAT:28.000;
#LASTBEAT:381.000;
#SONGFILENAME:Songs/Neon FM/Tachophobia/Tachophobia.sm;
#HASMUSIC:1;
#HASBANNER:1;
#MUSICLENGTH:111.626;
// end cache tags

//---------------pump-single - Copied from Copied from Copied from----------------
#NOTES:
     pump-single:
     Copied from Copied from Copied from:
     Challenge:
     100:
     0.806,0.896,0.161,0.170,0.193,593.000,18.000,19.000,0.000,0.000:
00000
00000
00000
00000
,
00000
00000
00000
00000
,
00000
00000
00000
00000
,
00000
00000
00000
00000
,
00000
00000
00000
00000
,
00000
00000
00000
00000
,
00000
00000
00000
00000
,
10000
00000
00000
00010
00000
00000
00001
00100
,
00000
00001
00100
00000
00100
00001
00000
00000
,
00001
00000
00000
01000
00000
00000
10000
00100
,
00000
10000
00100
00000
00100
10000
00000
00000
,
00101
00020
00000
01030
,
00100
10000
00010
10000
00001
01000
00001
01000
,
00100
10000
00010
00100
00001
00100
00010
10000
,
00100
01000
00001
00100
00010
10000
00100
01000
,
00001
00000
00000
00100
00000
00000
00001
00000
00000
10000
00000
00000
00010
00000
01000
00000
00010
00000
01000
00000
00000
00010
00000
00000
,
00100
00010
00001
00010
00001
01000
10000
01000
,
10000
00010
10000
00100
01000
00100
10000
00010
,
00100
00001
01000
00001
01000
00100
10000
01000
,
01100
00110
10100
00101
,
00010
00100
01000
00100
01000
10000
00001
00010
,
00001
00010
00100
10000
01000
10000
00010
10000
,
01000
10000
00010
01000
00001
00010
00001
01000
,
00001
00000
00000
00010
00000
00000
00001
00000
00000
01000
00000
00000
00001
00000
10000
00000
00001
00000
10000
00000
00000
00010
00000
00000
,
00001
01000
10000
00010
01000
10000
00010
00001
,
01000
00010
00000
01000
00010
00000
00100
00000
00001
00000
01000
00000
00100
00000
10000
00000
,
00010
01000
00000
00010
01000
00000
00001
00000
10000
00000
00010
00000
10000
00000
00001
00000
,
01000
00000
00000
00001
00000
00000
01000
00000
00010
00000
01000
00000
00010
00000
00000
00000
01010
00000
00000
00000
01010
00000
00000
00000
,
00001
00000
00100
00000
00001
00000
00100
00000
00001
00000
01000
00000
00010
00100
00001
00000
,
00001
10000
00010
01000
00010
00100
10010
00100
,
01000
00000
00001
00000
10000
00000
00100
00000
10000
00000
00010
00000
00100
00001
01000
00000
,
01000
00100
10000
00100
10000
00000
10100
00000
,
01000
00000
00010
00000
00100
00000
00001
00000
10000
00000
00010
00000
01000
00100
10000
00000
,
10000
00010
10000
00001
01000
00100
01001
00100
,
00010
00000
10000
00000
00100
00000
01000
00000
00001
00000
10000
00000
00010
01000
00001
00000
,
00001
00100
00010
01000
00010
00000
01010
00000
,
00200
00001
00301
02000
00010
03010
20000
00100
,
30100
02000
00010
03010
00100
00000
00100
00000
,
00002
01000
01003
00200
10000
10300
00020
01000
,
01030
00002
10000
10003
00100
00000
00100
00000
,
02000
00001
03001
00200
00010
00310
20000
00001
,
30001
02000
00010
03010
00100
00000
00100
00000
,
00010
01000
00010
10000
00001
00100
00001
00001
,
01000
00000
00010
00000
00100
00000
00010
00000
01000
00000
00100
00000
,
01000
00010
01000
00000
00001
00000
10000
01000
00000
00100
00010
00000
10000
00000
00100
00000
,
01000
00001
01000
00000
00010
00000
10000
00100
00000
00100
00001
00000
00000
00010
00001
00000
,
01000
00100
10000
00000
00010
00000
00001
00010
00000
00100
01000
00000
10000
00001
10000
00000
,
00010
10000
00010
10000
00001
01000
00001
01000
00000
00000
00000
00000
00000
00000
00000
00000
,
00010
01000
00010
01000
00010
01000
00010
01000
,
00001
00100
00001
00100
00001
00000
00001
01000
,
00001
00000
01000
00010
01000
00010
01000
00010
,
00100
00001
00100
00001
00100
00000
00001
10000
,
00001
00000
10000
00100
10000
00100
10000
00100
,
01000
00001
01000
00001
01000
00000
01000
00010
,
01000
00000
00010
10000
00010
01000
00010
10000
,
00010
01000
00010
10000
00010
00000
00010
01000
,
00010
00000
00010
10000
00010
10000
00010
10000
,
00001
00100
00001
00100
00001
00000
00001
00100
,
00001
00000
10000
00001
10000
00001
10000
00001
,
01000
00100
01000
00100
01000
00000
01000
00100
,
01000
00000
01000
00001
01000
00001
01000
00001
,
00100
00010
00100
00010
00100
00000
00100
00001
,
00100
00000
00001
01000
00010
01000
00001
01000
,
00010
01000
00001
01000
00010
00000
00010
10000
,
00010
00100
00010
01000
,
00001
01000
00100
10000
,
10000
00001
01000
00100
,
10000
00001
01000
00100
,
00100
01000
00010
00100
,
00001
01000
00001
10000
,
10000
00010
01000
00001
,
00100
00010
10000
01000
,
01000
10000
00010
01000
,
00100
00010
00001
01000
,
01000
00010
00100
00001
,
01000
00100
10000
00010
,
00010
01000
00010
10000
,
00001
00100
00010
10000
,
10000
00010
10000
00010
10000
00010
10000
00010
,
10000
00001
01000
00001
01000
00001
01000
00001
,
02000
03002
20003
00000
,
30020
00000
00000
10030
,
00010
01000
00100
01000
00001
00100
00010
01000
,
00001
00000
10000
00000
00100
00000
01000
00000
00100
00000
10000
00001
01000
00000
00100
00000
,
01000
00010
00010
10000
00001
10000
00010
01000
,
00100
00000
10000
00000
00001
00000
00100
00000
00001
00000
00001
01000
00010
00000
00100
00000
,
00010
01000
01000
00100
10000
00001
01000
00010
,
10000
00000
00100
00000
01000
00000
00100
00000
10000
00000
00010
10000
00100
00000
01000
00000
,
00010
00010
01000
00001
10000
00001
00100
00001
,
01000
00000
00100
00000
01000
00000
00001
00000
00010
00000
00001
00100
00010
00000
01000
00000
,
01000
00100
01000
00010
00100
00001
01000
00100
,
10000
00010
01000
00010
10000
00001
00100
00010
,
00100
00000
00000
01000
00000
00000
00100
00000
00000
00001
00000
00000
10000
00000
00000
00100
00000
00000
10100
00000
00000
00000
01100
00000
,
00000
10100
00000
00110
00000
00101
00000
00110
00000
02020
00000
00000
,
00000
00000
00000
00000
,
00000
03030
00000
00000
;
