#TITLE:Play 240's;
#SUBTITLE:;
#ARTIST:Hi-G;
#TITLETRANSLIT:;
#SUBTITLETRANSLIT:;
#ARTISTTRANSLIT:;
#CREDIT:;
#BANNER:play240s-banner.png;
#SONGINFO:play240s-songinfo.png;
#BACKGROUND:play240s-bg.png;
#LYRICSPATH:;
#CDTITLE:./CDTITLES/nuprophet.png;
#CHARACTER:./SongCharacters/canblaster;
#MUSIC:Hi-G - Play 240's.ogg;
#OFFSET:-0.040;
#SAMPLESTART:19.980;
#SAMPLELENGTH:12.000;
#SELECTABLE:YES;
#BPMS:0.000=120.000,32.000=240.000;
#STOPS:;
#BGCHANGES:-2.000=visffd320.avi=1.000=1=1=0
;
// cache tags:
#FIRSTBEAT:16.000;
#LASTBEAT:372.000;
#SONGFILENAME:Songs/Neon FM/Play240s/Play240s.sm;
#HASMUSIC:1;
#HASBANNER:1;
#MUSICLENGTH:101.398;
// end cache tags

//---------------pump-single - ----------------
#NOTES:
     pump-single:
     :
     Hard:
     99:
     0.741,0.780,0.306,0.118,0.010,483.000,31.000,12.000,0.000,0.000:
00000
00000
00000
00000
,
00000
00000
00000
00000
,
00000
00000
00000
00000
,
00000
00000
00000
00000
,
00001
00100
01000
00100
,
00001
00100
01000
10000
,
00100
00010
00100
10000
,
10000
00000
00000
00010
00000
00000
01000
00000
00000
00001
00000
00000
00100
00000
00001
00000
,
00001
00000
01000
00000
00100
00001
00000
00001
,
00000
00100
00000
01000
00100
00000
00001
00000
,
00001
00000
01000
00000
00100
00001
00000
00001
,
00000
00100
00000
01000
10000
00000
00100
00000
,
10000
00000
00010
00000
00100
10000
00000
10000
,
00000
00100
00000
00010
00100
00000
10000
00000
,
20000
00000
00000
30010
00000
00000
02000
00000
,
00000
03001
00000
00000
00011
00000
00101
00000
,
00010
00001
01000
00100
10000
01000
00100
00010
,
00001
00010
00100
00000
00101
00000
01010
00000
,
00010
00001
01000
00100
10000
01000
00100
01000
,
10000
00100
01000
00000
10100
00000
01010
00000
,
00010
00001
01000
00100
10000
01000
00100
00010
,
00001
00010
00100
00000
00101
00000
01010
00000
,
00010
00001
01000
00000
10100
00000
01010
00000
,
00010
00100
01000
00000
00101
00000
01010
00000
,
10000
00010
01000
00001
00100
00010
01000
00100
,
10000
00010
01000
00000
01010
00000
10001
00000
,
10000
00010
01000
00001
00100
00010
01000
00001
,
00100
00010
01000
00000
01010
00000
10001
00000
,
00001
01000
00010
10000
00100
01000
00010
00100
,
00001
01000
00010
00000
01010
00000
10001
00000
,
00001
01000
00010
00000
01010
00000
10001
00000
,
00100
01000
00010
00000
10001
00000
01010
00000
,
10000
00100
00000
00100
00001
00000
00010
00001
,
00000
01000
00100
00000
10000
01000
00000
00100
,
00010
00000
00100
00001
00000
01000
00010
00000
,
10000
00100
01000
00010
00100
00001
01000
00010
,
10000
00100
00000
00100
00001
00000
00010
00001
,
00000
01000
00100
00000
01000
10000
00000
00010
,
00100
00000
00001
00100
00000
00010
01000
00000
,
10000
00100
01000
00010
00100
00001
01000
00010
,
10000
00100
00000
00100
10000
00000
01000
10000
,
00000
00010
00100
00000
00001
00010
00000
00100
,
01000
00000
00100
10000
00000
00010
01000
00000
,
00001
00100
00010
01000
00100
10000
00010
01000
,
00001
00100
00000
00100
10000
00000
01000
10000
,
00000
00010
00100
00000
00010
00001
00000
01000
,
00100
00000
10000
00100
00000
01000
00010
00000
,
00001
00100
00010
01000
00100
10000
00010
01000
,
10000
01000
00100
00010
00000
00010
00000
00001
,
00000
00000
00000
00000
00000
00001
00100
00001
,
00010
00001
00010
00001
00000
00010
00001
00010
,
00100
00010
00100
00010
00100
00010
00100
00010
,
00001
00010
00100
01000
00000
01000
00000
10000
,
00000
00000
00000
00000
00000
10000
00010
10000
,
01000
10000
01000
10000
00000
01000
10000
01000
,
00100
01000
00100
01000
00100
01000
00100
01000
,
10000
01000
00100
00010
00000
00010
00000
00001
,
00000
00000
00000
00000
00000
00001
00100
00001
,
00010
00001
00010
00001
00000
00010
00001
00010
,
00100
00010
00100
00010
00100
00010
00100
00010
,
00001
00010
00100
01000
00000
01000
00000
10000
,
00000
00000
00000
00000
00000
10000
00100
10000
,
01000
10000
01000
10000
00000
01000
10000
01000
,
00100
01000
00100
01000
00100
01000
10000
00000
,
00001
01000
00010
10000
00010
01000
00001
10000
,
00001
01000
00010
10000
00010
01000
00001
10000
,
00001
01000
00010
10000
00010
01000
00001
10000
,
00001
01000
00010
10000
00010
01000
00001
10000
,
00001
10000
00010
01000
00001
01000
00010
10000
,
00001
10000
00010
01000
00001
01000
00010
10000
,
00001
10000
00010
01000
00001
01000
00010
10000
,
00001
10000
00010
01000
00001
01000
00010
10000
,
00001
00000
01000
00000
00100
00001
00000
00001
,
00000
00100
00000
01000
00100
00000
00001
00000
,
00001
00000
01000
00000
00100
00001
00000
00001
,
00000
00100
00000
01000
10000
00000
00100
00000
,
10000
00000
00010
00000
00100
10000
00000
10000
,
00000
00100
00000
00010
00100
00000
10000
00000
,
20000
00000
00000
30010
00000
00000
02000
00000
,
00000
03001
00000
00000
00011
00000
00101
00000
,
10000
00000
00010
00000
00100
10000
00000
10000
,
00000
00100
00000
00010
00100
00000
10000
00000
,
10000
00000
00010
00000
00100
10000
00000
10000
,
00000
00100
00000
00010
00001
00000
00100
00000
,
00001
00000
01000
00000
00100
00001
00000
00001
,
00000
00100
00000
01000
00100
00000
00001
00000
,
00002
00000
00000
01003
00000
00000
00020
00000
,
00000
10030
00000
00000
11000
00000
10100
00000
,
20000
00000
00000
30010
00000
00000
02000
00000
,
00000
03001
00000
00000
00011
00000
00101
00000
,
00002
00000
00000
01003
00000
00000
00020
00000
,
00000
10030
00000
00000
11000
00000
10100
00000
,
20002
00000
00000
00000
,
30003
00000
00000
00000
;

//---------------pump-single - ----------------
#NOTES:
     pump-single:
     :
     Medium:
     68:
     0.497,0.550,0.108,0.069,0.010,335.000,11.000,7.000,0.000,0.000:
00000
00000
00000
00000
,
00000
00000
00000
00000
,
00000
00000
00000
00000
,
00000
00000
00000
00000
,
00010
00010
01000
00000
01000
00000
01000
00000
,
00001
00001
10000
00000
10000
00000
10000
00000
,
00100
00100
01000
00000
01000
00000
01000
00000
,
00001
00000
00000
00100
00000
00000
00010
00000
00000
01000
00000
00000
00100
00000
10000
00000
,
00001
00000
00100
00000
00010
00100
00000
00001
,
00000
10000
00000
00100
01000
00000
01000
00000
,
00100
00000
00010
00000
00100
01000
00000
00001
,
00000
00001
00000
10000
00100
00000
00100
00000
,
01000
00000
00010
00000
00100
00001
00000
01000
,
00000
00100
00000
10000
01000
00000
01000
00000
,
10000
00000
00000
00001
00000
00000
10000
00000
,
00000
00010
00000
00000
01000
00000
01000
00000
,
00100
10000
00001
00100
,
00001
10000
00100
10100
,
00010
01000
00001
00100
,
00001
01000
00010
01010
,
00100
10000
00010
10000
,
00001
01000
00100
01100
,
10000
00100
00010
00110
,
00100
01000
00100
01100
,
00100
10000
00010
00100
,
00010
10000
00100
10100
,
01000
00001
00010
00100
,
00010
00001
01000
01001
,
00100
10000
01000
10000
,
00010
00001
00100
00101
,
10000
00100
01000
01100
,
00100
00001
00100
00101
,
00010
00000
00000
01000
00000
00000
00100
00000
,
00000
10000
00000
00000
00001
00000
00000
00100
,
00000
00000
00010
00000
00000
01000
00000
00000
,
00100
10000
00000
00100
10000
00000
00100
10000
,
00010
00000
00000
01000
00000
00000
00100
00000
,
00000
10000
00000
00000
00001
00000
00000
00100
,
00000
00000
00010
00000
00000
01000
00000
00000
,
00100
10000
00000
00100
10000
00000
00100
10000
,
00010
00000
00000
01000
00000
00000
00100
00000
,
00000
10000
00000
00000
00001
00000
00000
00100
,
00000
00000
00010
00000
00000
01000
00000
00000
,
00100
10000
00000
00100
10000
00000
00100
10000
,
00010
00000
00000
01000
00000
00000
00100
00000
,
00000
10000
00000
00000
00001
00000
00000
00100
,
00000
00000
00010
00000
00000
01000
00000
00000
,
00200
10000
00000
00000
10000
00000
00000
10300
,
00010
00000
01000
00010
00000
00100
00000
00200
,
00000
00000
00000
00000
00000
00000
00000
00300
,
00001
10000
00100
10000
,
00001
00100
00001
01000
,
00100
00000
10000
00001
00000
00100
00000
00020
,
00000
00000
00000
00000
00000
00000
00000
00030
,
10000
00100
01000
00100
,
10000
00001
00100
00010
,
01000
00000
00010
01000
00000
00100
00000
00200
,
00000
00000
00000
00000
00000
00000
00000
00300
,
10000
00001
00100
00001
,
10000
00100
10000
00010
,
00100
00000
00001
10000
00000
00100
00000
02000
,
00000
00000
00000
00000
00000
00000
00000
03000
,
00001
00100
00010
00100
,
00001
10000
00100
01000
,
00010
00100
00001
10000
,
00100
10000
00010
01000
,
00100
10000
00001
00100
,
00010
01000
00001
10000
,
00010
01000
00100
10000
,
00001
00100
00001
10000
,
00010
01000
00001
10000
,
00100
10000
00010
10000
,
00001
00000
00100
00000
00010
00100
00000
00001
,
00000
10000
00000
00100
01000
00000
01000
00000
,
00100
00000
00010
00000
00100
01000
00000
00001
,
00000
00001
00000
10000
00100
00000
00100
00000
,
01000
00000
00010
00000
00100
00001
00000
01000
,
00000
00100
00000
10000
01000
00000
01000
00000
,
10000
00000
00000
00001
00000
00000
10000
00000
,
00000
00010
00000
00000
01000
00000
00010
00000
,
10000
00000
00100
00000
01000
00100
00000
10000
,
00000
00001
00000
00100
00010
00000
00010
00000
,
00100
00000
01000
00000
00100
00010
00000
10000
,
00000
10000
00000
00001
00100
00000
00100
00000
,
00010
00000
01000
00000
00100
10000
00000
00010
,
00000
00100
00000
00001
00010
00000
00010
00000
,
00001
00000
00000
10000
00000
00000
00001
00000
,
00000
01000
00000
00000
00010
00000
01000
00000
,
00100
00000
00000
10000
00000
00000
00010
00000
,
00000
00100
00000
00000
00001
00000
10000
00000
,
00001
00000
00000
01000
00000
00000
00100
00000
,
00000
10000
00000
00000
00010
00000
00100
00000
,
00220
00000
00000
00000
,
00330
00000
00000
00000
;

//---------------pump-single - ----------------
#NOTES:
     pump-single:
     :
     Easy:
     36:
     0.227,0.413,0.000,0.049,0.000,156.000,0.000,5.000,0.000,0.000:
00000
00000
00000
00000
,
00000
00000
00000
00000
,
00000
00000
00000
00000
,
00000
00000
00000
00000
,
10000
00010
00100
00010
,
10000
00010
00100
00010
,
10000
00010
00100
00010
,
10000
00001
10000
00001
,
00001
00000
01000
00000
,
00100
00000
01000
00000
,
00001
00000
01000
00000
,
00100
00000
01000
00000
,
00001
00000
01000
00000
,
00100
00000
01000
00000
,
00001
00000
10000
00000
,
00010
00000
01000
00000
,
00100
00000
00000
00000
,
00000
00000
00100
00100
,
00010
00000
00000
00000
,
00000
00000
00010
00010
,
10000
00000
00000
00000
,
00000
00000
10000
10000
,
00001
00000
00001
00001
,
00000
00000
10000
10000
,
01000
00000
00000
00000
,
00000
00000
01000
01000
,
10000
00000
00000
00000
,
00000
00000
10000
10000
,
00010
00000
00000
00000
,
00000
00000
00010
00010
,
00000
00000
00100
00100
,
00000
00000
00001
00001
,
00100
00000
00000
00010
,
00000
00000
10000
00000
,
00000
00100
00000
00000
,
01000
00000
00000
00000
,
00100
00000
00000
00010
,
00000
00000
10000
00000
,
00000
00100
00000
00000
,
01000
00000
00000
00000
,
00100
00000
00000
00010
,
00000
00000
10000
00000
,
00000
00100
00000
00000
,
01000
00000
00000
00000
,
00100
00000
00000
00010
,
00000
00000
10000
00000
,
00000
00100
00000
00000
,
01000
00000
00000
00000
,
00020
00000
00000
00000
,
00000
00000
00000
00000
,
10030
00000
10000
00000
,
00001
00000
00001
00000
,
02000
00000
00000
00000
,
00000
00000
00000
00000
,
03001
00000
00001
00000
,
10000
00000
10000
00000
,
00200
00000
00000
00000
,
00000
00000
00000
00000
,
01300
00000
01000
00000
,
00010
00000
00010
00000
,
00200
00000
00000
00000
,
00000
00000
00000
00000
,
00301
00000
00001
00000
,
01000
00000
01000
00000
,
00100
00000
00100
00000
,
10000
00000
10000
00000
,
00001
00000
00001
00000
,
00010
00000
00010
00000
,
00100
00000
00100
00000
,
01000
00000
01000
00000
,
00100
00000
00100
00000
,
00010
00000
00010
00000
,
00100
00000
10000
00000
,
00001
00000
00100
00000
,
00010
00000
01000
00000
,
00100
00000
00010
00000
,
00100
00000
10000
00000
,
00010
00000
01000
00000
,
00100
00000
10000
00000
,
00001
00000
01000
00000
,
00100
00000
00001
00000
,
10000
00000
00100
00000
,
01000
00000
00010
00000
,
00100
00000
01000
00000
,
00100
00000
00001
00000
,
01000
00000
00010
00000
,
00100
00000
00001
00000
,
10000
00000
00010
00000
,
10000
00000
00001
00000
,
10000
00000
00001
00000
,
10000
00000
00001
00000
,
10000
00000
00001
00000
,
20000
00000
00000
00000
,
30000
00000
00000
00000
;

//---------------pump-single - Copied from----------------
#NOTES:
     pump-single:
     Copied from:
     Beginner:
     12:
     0.085,0.136,0.000,0.000,0.000,60.000,0.000,0.000,0.000,0.000:
00000
00000
00000
00000
,
00000
00000
00000
00000
,
00000
00000
00000
00000
,
00000
00000
00000
00000
,
00010
00000
00000
00000
,
00010
00000
00000
00000
,
00010
00000
00000
00000
,
00010
00000
00000
00000
,
10000
00000
00000
00000
,
00001
00000
00000
00000
,
10000
00000
00000
00000
,
00001
00000
00000
00000
,
10000
00000
00000
00000
,
00001
00000
00000
00000
,
01000
00000
00000
00000
,
00000
00000
00010
00000
,
10000
00000
00000
00000
,
00000
00000
00000
00000
,
00001
00000
00000
00000
,
00000
00000
00000
00000
,
01000
00000
00000
00000
,
00000
00000
00000
00000
,
00010
00000
00000
00000
,
01000
00000
00000
00000
,
00100
00000
00000
00000
,
00000
00000
00000
00000
,
10000
00000
00000
00000
,
00000
00000
00000
00000
,
00010
00000
00000
00000
,
00000
00000
00000
00000
,
00100
00000
00000
00000
,
00001
00000
00000
00000
,
00100
00000
00000
00000
,
00000
00000
00000
00000
,
00000
00001
00000
00000
,
00000
00000
00000
00000
,
00100
00000
00000
00000
,
00000
00000
00000
00000
,
00000
00001
00000
00000
,
00000
00000
00000
00000
,
00100
00000
00000
00000
,
00000
00000
00000
00000
,
00000
00001
00000
00000
,
00000
00000
00000
00000
,
00100
00000
00000
00000
,
00000
00000
00000
00000
,
00000
00001
00000
00000
,
00000
00000
00000
00000
,
10000
00000
00000
00000
,
00000
00000
00000
00000
,
00010
00000
00000
00000
,
00010
00000
00000
00000
,
10000
00000
00000
00000
,
00000
00000
00000
00000
,
01000
00000
00000
00000
,
01000
00000
00000
00000
,
00000
00000
00000
00000
,
00000
00000
00000
00000
,
00001
00000
00000
00000
,
00001
00000
00000
00000
,
10000
00000
00000
00000
,
00000
00000
00000
00000
,
00001
00000
00000
00000
,
00001
00000
00000
00000
,
10000
00000
00000
00000
,
00100
00000
00000
00000
,
10000
00000
00000
00000
,
00010
00000
00000
00000
,
00100
00000
00000
00000
,
00001
00000
00000
00000
,
10000
00000
00000
00000
,
00100
00000
00000
00000
,
10000
00000
00000
00000
,
00000
00000
00000
00000
,
10000
00000
00000
00000
,
00000
00000
00000
00000
,
10000
00000
00000
00000
,
00000
00000
00000
00000
,
10000
00000
00000
00000
,
00000
00000
00000
00000
,
00001
00000
00000
00000
,
00000
00000
00000
00000
,
00001
00000
00000
00000
,
00000
00000
00000
00000
,
00001
00000
00000
00000
,
00000
00000
00000
00000
,
00001
00000
00000
00000
,
00000
00000
00000
00000
,
00100
00000
00000
00000
,
00000
00000
00000
00000
,
00100
00000
00000
00000
,
00000
00000
00000
00000
,
00001
00000
00000
00000
;
