#TITLE:Credul;
#SUBTITLE:;
#ARTIST:Nu-Prophet;
#TITLETRANSLIT:;
#SUBTITLETRANSLIT:;
#ARTISTTRANSLIT:;
#CREDIT:;
#BANNER:credul-banner.png;
#SONGINFO:credul-songinfo.png;
#BACKGROUND:credul-bg.png;
#LYRICSPATH:;
#CDTITLE:./CDTITLES/nuprophet.png;
#CHARACTER:./SongCharacters/canblaster;
#MUSIC:Credul.mp3;
#OFFSET:-0.900;
#SAMPLESTART:57.640;
#SAMPLELENGTH:12.000;
#SELECTABLE:YES;
#BPMS:0.000=145.000;
#STOPS:;
#BGCHANGES:-2.200=Credul.avi=1.000=1=1=0
;
// cache tags:
#FIRSTBEAT:12.000;
#LASTBEAT:254.021;
#SONGFILENAME:Songs/Neon FM/Credul/Credul.sm;
#HASMUSIC:1;
#HASBANNER:1;
#MUSICLENGTH:110.132;
// end cache tags

//---------------pump-single - ----------------
#NOTES:
     pump-single:
     :
     Hard:
     86:
     0.590,0.634,0.236,0.073,0.163,421.000,26.000,8.000,0.000,0.000:
00000
00000
00000
00000
,
00000
00000
00000
00000
,
00000
00000
00000
00000
,
10000
00000
10000
00000
10000
00000
10000
00010
,
00000
00010
00000
00010
00000
00010
01000
00000
,
01000
00000
01000
00000
01000
00001
00000
00001
,
00000
00002
00000
00000
00103
00010
01000
00001
,
00100
00010
10000
10000
00100
01000
00001
01000
,
00010
00100
00100
00001
10000
00010
00100
00001
,
01000
01000
00100
10000
01000
10000
00001
00010
,
00010
00001
01000
00100
10000
00010
01000
01000
,
00100
10000
00010
10000
00001
00100
00100
00010
,
01000
00001
01000
00100
10000
10000
00001
10000
,
00010
00100
00010
10000
10000
00010
00100
00010
,
10000
00000
00010
00000
00000
00010
00100
00000
00001
00000
10000
00000
00010
00000
00100
00000
,
00002
00000
10003
00100
01000
00001
00100
00010
,
00000
00010
01000
00000
00100
00000
00010
00000
00100
00000
01000
00000
00020
00000
00000
00000
,
10030
00000
00001
00000
00100
00000
00010
00000
01000
00000
00100
00000
00000
00100
10000
00000
,
00001
10000
00010
01000
00200
00000
10300
00010
,
00100
00000
00010
00000
01000
00000
00001
00000
00000
00001
01000
00000
00100
00000
00010
00000
,
00100
10000
02000
03000
11000
00000
00000
00110
,
00000
00000
00101
00001
00000
10001
00000
01000
,
00100
00000
01100
00000
00000
01001
00000
00000
,
01010
00010
00000
10100
00000
01000
00010
00000
,
01001
00000
00000
11000
00000
00000
10010
00010
,
00000
00101
00000
00001
01000
00000
10001
00000
,
00000
00011
00000
00000
10100
00100
00000
11000
,
00000
20000
00020
30030
10010
10000
00100
01000
,
00100
10000
00001
00101
00100
00010
10000
00001
,
00100
00010
01010
01000
00001
10000
00010
00100
,
00010
10010
10000
00100
01000
00100
10000
00010
,
00110
00100
00001
10000
00100
01000
00010
01010
,
01000
00001
00100
00001
10000
00001
00101
00100
,
00010
10000
00001
00100
00010
10010
10000
00100
,
01000
00000
00100
00000
10100
00000
00000
00000
00010
00100
00000
00001
00100
00000
00010
00100
,
00000
00001
00100
00000
00100
00000
00010
01000
00000
00010
10000
00000
00010
01000
00000
00010
,
10000
00000
10000
00000
00001
01000
00000
00001
00100
00000
00001
01000
00000
00001
00100
00000
,
00100
00000
00010
10000
00000
00010
01000
00000
00010
10000
00000
00010
01000
00000
00100
00000
,
01000
00001
00000
01000
00010
00000
01000
00001
00000
01000
00010
00000
00010
00000
10000
00001
,
00000
10000
00010
00000
10000
00001
00000
10000
00010
00000
00010
00000
01000
00100
00000
01000
,
00001
00000
01000
00100
00000
01000
00001
00000
00001
00000
01000
00010
00000
01000
00100
00000
,
01000
00010
00000
01000
00100
00000
00100
00000
10000
00000
00100
00000
10000
00000
00000
00000
,
00010
00100
00001
10000
00100
01000
00000
00010
,
10000
00010
00100
00010
01000
00000
00001
01000
,
00010
00100
00010
00100
00000
00001
01000
00001
,
00100
00010
10000
00000
00010
00100
00010
10000
,
01000
10000
00000
00010
01000
00100
01000
00010
,
10000
00000
00001
00100
00010
01000
00001
00100
,
00000
00010
00100
00010
01000
00000
00000
00000
,
00000
00000
00000
00000
00100
01000
00010
10000
,
00100
01000
00001
00001
00100
00010
10000
00010
,
01000
00100
00100
10000
00001
01000
00100
10000
,
00010
00010
00100
00001
00010
00001
10000
01000
,
01000
10000
00010
00100
00001
01000
00010
00010
,
00100
00001
01000
00001
10000
00100
00100
01000
,
00010
10000
00010
00100
00001
00001
10000
00001
,
01000
00100
01000
00001
00001
01000
00000
00010
,
00000
01000
00100
10000
00010
00000
00100
00000
,
00001
01000
00010
00100
00000
00001
00000
10000
,
01000
00100
01000
00000
10000
00000
00010
00100
,
00001
01000
00000
00001
00000
10000
00010
00100
,
00010
00000
01000
00000
00010
01000
00100
10000
,
00000
00001
00000
01000
00100
20000
00000
00000
,
00000
30010
10001
00000
;

//---------------pump-single - ----------------
#NOTES:
     pump-single:
     :
     Medium:
     60:
     0.402,0.404,0.009,0.009,0.000,308.000,1.000,1.000,0.000,0.000:
00000
00000
00000
00000
,
00000
00000
00000
00000
,
00000
00000
00000
00000
,
00100
00000
00100
00000
00100
00000
00100
01000
,
00000
01000
00000
01000
00000
01000
00001
00000
,
00001
00000
00001
00000
00001
10000
00000
10000
,
00000
10000
00000
10000
00010
00000
00010
01000
,
00010
00000
00010
10000
00000
10000
00100
10000
,
00000
10000
00001
00000
00001
01000
00001
00000
,
00001
01000
00000
01000
00100
01000
00000
01000
,
00010
00000
10000
00001
00100
00000
00010
00100
,
00000
00001
01000
00010
00000
10000
00001
00000
,
01000
00100
10000
00000
00010
00100
00000
00001
,
00100
00010
00000
00000
01000
00100
10000
01000
,
10000
00010
00100
00001
00000
00001
00000
00001
,
00000
00001
00100
00010
01000
00100
00010
00100
,
01000
00100
00000
00100
00000
00100
00000
00100
,
10000
00010
01000
00010
00100
00001
10000
00010
,
00000
00010
00000
00010
00000
00010
10000
00001
,
01000
00100
10000
00010
10000
01000
00000
01000
,
00000
01000
00000
01000
10000
00000
00000
00010
,
00000
00000
01000
00001
00000
01000
00000
00001
,
01000
00000
00010
00000
00000
01000
00000
00000
,
00100
10000
00000
00100
00000
10000
00100
00000
,
00100
00000
00000
01000
00000
00000
00010
00100
,
00000
00010
00000
00100
00010
00000
10000
00000
,
00000
00001
00000
00000
00100
00010
00000
00100
,
00000
00010
00100
00000
00100
00000
00100
00000
,
00100
00000
00100
00010
00000
00010
00000
00010
,
00000
00010
10000
00000
10000
00000
10000
00000
,
10000
00001
00000
00001
00000
00001
00000
00001
,
01000
00000
01000
00010
01000
00000
01000
00001
,
00000
00001
00100
00001
00000
00001
10000
00000
,
10000
00010
10000
00000
10000
00010
00000
00010
,
00100
00010
00000
00010
01000
00000
00001
10000
,
00100
00000
01000
00100
00000
10000
00010
01000
,
00000
00001
10000
00000
00010
00100
00001
00000
,
01000
00100
00000
10000
00100
01000
00000
00010
,
00100
00000
00001
10000
00001
00000
01000
00010
,
00000
10000
00100
01000
00000
00001
01000
00000
,
00010
00100
00001
00000
01000
00010
00000
10000
,
01000
00100
00000
01000
01000
00000
10000
00000
,
00000
00000
00010
00010
00000
10000
00000
00000
,
00000
00001
00001
00000
00100
00000
00000
00000
,
00010
00010
00000
10000
00000
00000
00000
00100
,
00100
00000
10000
00000
00000
00000
00001
00001
,
00000
01000
00000
00000
00000
00010
00100
00000
,
00010
00000
00000
00000
01000
00001
00000
01000
,
00000
00000
01010
00000
,
00000
00000
00000
00000
00010
00000
00010
01000
,
00010
00000
00010
10000
00000
10000
00100
10000
,
00000
10000
00001
00000
00001
01000
00001
00000
,
00001
01000
00000
01000
00100
01000
00000
01000
,
00010
00000
10000
00001
00100
00000
00010
00100
,
00000
00001
01000
00010
00000
10000
00001
00000
,
01000
00100
10000
00000
00010
00100
00000
00001
,
00100
00010
00000
00000
01000
00100
10000
01000
,
10000
00010
00100
00001
00000
00001
00000
00001
,
00000
00001
00100
00010
01000
00100
00010
00100
,
01000
00100
00000
00100
00000
00100
00000
00100
,
10000
00010
01000
00010
00100
00001
10000
00010
,
00000
00010
00000
00010
00000
00010
10000
00001
,
01000
00100
10000
00010
10000
02000
00000
00000
,
00000
00000
13000
00000
;

//---------------pump-single - ----------------
#NOTES:
     pump-single:
     :
     Easy:
     34:
     0.243,0.288,0.000,0.009,0.000,186.000,0.000,1.000,0.000,0.000:
00000
00000
00000
00000
,
00000
00000
00000
00000
,
00000
00000
00000
00000
,
00010
00000
00000
00000
00000
00000
00010
01000
,
00000
00000
00000
00000
00000
00100
10000
00000
,
00000
00000
00000
00000
00001
01000
00000
00000
,
00000
00000
00000
00010
00100
00000
00000
00000
,
00000
00000
00001
00100
00000
00000
00000
00000
,
00000
00010
01000
00000
00000
00000
00000
00000
,
00001
01000
00000
00000
00000
00000
00000
00001
,
10000
00000
00000
00000
00000
00000
00010
00100
,
00000
00000
00000
00000
00000
00001
10000
00000
,
00000
00000
00000
00000
00100
10000
00000
00000
,
00000
00000
00010
00000
,
00010
00000
00000
01000
00000
00000
00000
01000
,
00000
01000
00000
00010
,
00000
00010
00000
00000
00000
00010
00000
00000
,
01000
00000
00000
00000
01000
00000
00000
00010
,
00000
00000
00000
00010
00000
00000
10000
00000
,
00000
00000
10000
00000
00000
00001
00000
00000
,
00000
00001
00000
00000
01000
00000
00000
00001
,
00000
00000
10000
00000
00000
00010
00000
00100
,
00010
00000
01000
00000
00000
00001
00000
00000
,
10000
00000
00000
00000
,
10000
00000
00000
00010
00000
00000
00100
00000
,
00000
00000
00001
01000
00010
00000
10000
00000
,
00000
00100
00000
00000
10000
00000
00000
00000
,
00000
00000
00010
00100
,
00001
00000
01000
00010
00000
00100
00000
00001
,
00000
10000
00001
00000
01000
00000
00100
00000
,
10000
00010
00000
00100
00000
00001
00000
01000
,
00001
00000
10000
00000
00010
00000
00100
00010
,
00000
01000
00000
00001
00000
10000
00100
00000
,
10000
00000
00010
00000
00100
00010
00000
01000
,
00000
00001
00000
10000
00100
00000
10000
00000
,
00010
00000
01000
00010
00000
01000
00000
00001
,
00000
10000
00100
00000
10000
00000
00010
00000
,
01000
00001
00000
10000
00000
01000
00000
00100
,
01000
00000
10000
00000
00010
00000
00100
00010
,
00000
01000
00000
00010
00000
01000
00001
00000
,
10000
00000
00100
00000
10000
00001
00000
00100
,
00000
00001
00000
01000
00010
00000
00000
00000
,
00010
00000
00010
00010
00000
00000
00000
00000
,
00000
00010
00010
00000
00000
00000
00000
00000
,
01000
01000
00000
00000
00000
00000
00000
00001
,
00001
00000
00000
00000
00000
00000
10000
10000
,
00000
00000
00000
00000
00000
00100
00100
00000
,
00000
00000
00000
00000
,
00000
00000
00010
00000
,
00000
00000
10000
00001
,
01000
00000
00010
00100
00000
00010
00000
01000
,
00000
00001
01000
00000
00100
00000
10000
00000
,
00010
00100
00000
00010
00000
01000
00000
00001
,
10000
00000
00100
00000
10000
00000
00010
00100
,
00000
00001
00000
01000
00000
00001
10000
00000
,
00010
00000
01000
00000
00001
10000
00000
00100
,
00000
10000
00000
00010
01000
00000
00001
00000
,
00100
00000
00001
00001
00000
00000
00000
00000
,
00000
10000
10000
00000
00000
00000
00000
00000
,
00010
00010
00000
00000
00000
00000
00000
01000
,
01000
00000
00000
00000
00000
00000
00100
00100
,
00000
00000
00000
00000
00000
10000
10000
00000
,
00000
00000
00000
00000
00001
00002
00000
00000
,
00000
00000
10003
00000
;

//---------------pump-single - Copied from----------------
#NOTES:
     pump-single:
     Copied from:
     Beginner:
     16:
     0.108,0.144,0.000,0.009,0.000,82.000,0.000,1.000,0.000,0.000:
00000
00000
00000
00000
,
00000
00000
00000
00000
,
00000
00000
00000
00000
,
00010
00000
00000
00000
00000
00000
00000
00100
,
00000
00000
00000
00010
,
00000
00000
00000
00000
00000
10000
00000
00000
,
00000
00000
00001
00000
,
00000
00000
00000
10000
00000
00000
00000
00000
,
00000
00100
00000
00000
,
00000
01000
00000
00000
00000
00000
00000
00000
,
00100
00000
00000
00000
00000
00000
00000
10000
,
00000
00000
00000
00010
,
00000
00000
00000
00000
00000
00100
00000
00000
,
00000
00000
00001
00000
,
00000
00000
00000
01000
00000
00000
00000
00000
,
00000
00010
00000
00000
,
00000
00100
00000
00000
00000
00000
00000
00000
,
00001
00000
00000
00000
00000
00000
00000
10000
,
00000
00000
00000
00001
,
00000
00000
00000
00000
00000
10000
00000
00000
,
00000
00000
00100
00000
,
00000
00000
00000
00000
,
00000
00010
00000
00000
,
00000
00000
00000
00000
,
01000
00000
00000
00000
,
00000
00000
00000
00010
,
00000
00000
00000
00000
,
00000
00000
10000
00000
,
00000
00000
00000
00001
00000
00000
00000
00000
,
00000
01000
00000
00000
,
00000
00010
00000
00000
00000
00000
00000
00000
,
10000
00000
00000
00000
00000
00000
00000
00100
,
00000
00000
00000
01000
,
00000
00000
00000
00000
00000
00001
00000
00000
,
00000
00000
10000
00000
,
00000
00000
00000
00100
00000
00000
00000
00000
,
00000
10000
00000
00000
,
00000
00100
00000
00000
00000
00000
00000
00000
,
01000
00000
00000
00000
00000
00000
00000
00010
,
00000
00000
00000
01000
,
00000
00000
00000
00000
00000
00010
00000
00000
,
00000
00000
00100
00000
,
00000
00000
00000
00001
00000
00000
00000
00000
,
00000
01000
00000
00000
,
00000
00100
00000
00000
00000
00000
00000
00000
,
10000
00000
00000
00000
00000
00000
00000
00010
,
00000
00000
00000
00000
00000
00000
00000
01000
,
00000
00000
00000
00001
,
00000
00000
10000
00000
,
00000
00000
00001
00000
,
00001
00000
00000
00001
00000
00000
00000
00001
,
00000
00001
00000
00001
,
00000
00001
00000
00000
00000
00001
00000
00000
,
01000
00000
00000
00000
01000
00000
00000
01000
,
00000
00000
00000
01000
00000
00000
01000
00000
,
00000
00000
01000
00000
00000
01000
00000
00000
,
00000
01000
00000
00000
00010
00000
00000
00000
,
00010
00000
00000
00010
00000
00000
00000
00010
,
00000
00010
00000
00010
,
00000
00010
00000
00000
00000
00010
00000
00000
,
01000
00000
00000
00000
01000
00000
00000
01000
,
00000
00000
00000
01000
00000
00000
01000
00000
,
00000
00000
01000
00000
00000
01000
00000
00000
,
00000
00000
00000
00000
00000
00000
00000
00000
00000
00000
00000
00000
00000
00000
00000
00000
00000
00000
00000
00000
00000
00000
00000
00000
01000
00000
00000
00000
00000
00000
00000
00000
00000
00000
00000
00000
00000
00000
00000
00000
00000
00000
00000
00000
00000
00000
00000
00000
00000
00000
00000
00000
00000
00000
00000
00000
00000
00000
00000
00000
00000
00000
00000
00000
00000
00000
00000
00000
00000
00000
00000
00000
00020
00000
00000
00000
00000
00000
00000
00000
00000
00000
00000
00000
00000
00000
00000
00000
00000
00000
00000
00000
00000
00000
00000
00000
00000
00030
00000
00000
00000
00000
00000
00000
00000
00000
00000
00000
00000
00000
00000
00000
00000
00000
00000
00000
00000
00000
00000
00000
00000
00000
00000
00000
00000
00000
00000
00000
00000
00000
00000
00000
00000
00000
00000
00000
00000
00000
00000
00000
00000
00000
00000
00000
00000
00000
00000
00000
00000
00000
00000
00000
00000
00000
00000
00000
00000
00000
00000
00000
00000
00000
00000
00000
00000
00000
00000
00000
00000
00000
00000
00000
00000
00000
00000
00000
00000
00000
00000
00000
00000
00000
00000
00000
00000
00000
00000
00000
00000
00000
00000
00000
;
