#TITLE:Girls Buttz;
#SUBTITLE:;
#ARTIST:Thomas Howard;
#TITLETRANSLIT:;
#SUBTITLETRANSLIT:;
#ARTISTTRANSLIT:;
#CREDIT:;
#BANNER:girlzbuttz-banner.png;
#SONGINFO:girlzbuttz-songinfo.png;
#BACKGROUND:girlzbuttz-bg.png;
#LYRICSPATH:;
#CDTITLE:./CDTITLES/DPSC.png;
#CHARACTER:./SongCharacters/THLnPotatoe;
#MUSIC:Girls Buttz.mp3;
#OFFSET:-0.480;
#SAMPLESTART:55.240;
#SAMPLELENGTH:12.000;
#SELECTABLE:YES;
#BPMS:0.000=105.000;
#STOPS:;
#BGCHANGES:-2.000=visffd320.avi=1.000=1=1=0
;
// cache tags:
#FIRSTBEAT:16.000;
#LASTBEAT:174.000;
#SONGFILENAME:Songs/Neon FM/Girls Buttz/Girls Buttz.sm;
#HASMUSIC:1;
#HASBANNER:1;
#MUSICLENGTH:101.955;
// end cache tags

//---------------pump-single - ----------------
#NOTES:
     pump-single:
     :
     Hard:
     78:
     0.485,0.575,0.118,0.206,0.427,313.000,12.000,21.000,0.000,0.000:
00000
00000
00000
00000
,
00000
00000
00000
00000
,
00000
00000
00000
00000
,
00000
00000
00000
00000
,
01000
00100
01000
00000
00010
00000
00100
00000
01000
00000
00100
00000
00010
00000
00000
00000
,
10000
00100
10000
00000
00001
00000
00100
00000
00010
00000
00000
00000
00000
00000
00000
00000
,
00001
00010
00001
00000
00100
00000
00010
00000
01000
00000
00001
00000
10000
00000
00000
00000
,
00010
01000
00010
00000
10000
00000
00100
00000
10000
00000
00000
00000
00000
00000
00000
00000
,
01000
00001
00000
00001
00100
00000
00100
00000
00010
10000
00000
10000
00010
00000
00010
00000
,
00100
00001
00000
00001
10000
00000
10000
00000
10000
00000
00000
00000
00110
00000
00000
00000
,
10000
00001
00000
00001
10000
00000
10000
00000
00100
01000
00000
01000
00100
00000
00100
00000
,
10000
00010
00000
01000
00000
00001
00000
00100
00000
00000
00000
00000
00100
00000
00000
00000
,
10000
00000
00010
00100
00010
00000
01000
00000
00001
00000
00100
00000
00001
00000
00000
00000
,
01000
00000
00100
10000
00100
00000
01000
00000
00001
00000
00000
00000
00000
00000
00000
00000
,
01000
00000
00010
01000
00010
00000
00100
00000
00010
00000
10000
00000
00100
00000
00000
00000
,
10000
00000
00001
00010
00001
00000
00100
00000
00100
00000
00000
00000
00000
00000
00000
00000
,
00020
00100
00230
00001
00302
10000
20003
01000
,
31000
00000
10000
00010
10000
00000
00100
00000
01000
00000
00000
00000
00000
00000
00000
00000
,
00020
01000
02030
00001
03002
00100
00203
00010
,
00310
01010
10001
00000
,
10000
00000
00100
00000
01000
00001
01000
00000
00010
00000
00100
00000
00001
00000
00000
00000
,
00100
00000
00001
00000
01000
00001
01000
00000
00100
00000
00000
00000
00000
00000
00000
00000
,
10000
00000
01000
00000
10000
00100
10000
00000
00010
00000
01000
00000
00010
00000
00000
00000
,
00100
00000
00001
00000
01000
00100
01000
00000
01010
00000
00000
00000
00000
00000
00000
00000
,
10000
00100
00000
01000
00010
00000
00010
00000
01000
00001
00000
01000
00010
00000
00010
00000
,
10000
00100
00000
01000
00010
00000
00010
00000
00110
00000
00000
00000
01010
00000
00000
00000
,
00001
00100
00000
00010
01000
00000
01000
00000
00010
10000
00000
00010
01000
00000
01000
00000
,
00001
00100
00000
00010
00000
01000
00000
00001
00000
00000
00000
00000
00000
00000
00000
00000
,
02000
00100
03200
10000
20300
00001
30002
00010
,
00013
00000
00001
01000
00001
00000
00100
00000
00010
00000
00000
00000
00000
00000
00000
00000
,
02000
00010
03020
10000
20030
00100
30200
01000
,
02300
00001
03001
00000
00001
00000
00001
00000
,
02000
00100
03200
10000
20300
00001
30002
00010
,
00013
00000
00001
01000
00001
00000
00100
00000
00010
00000
00000
00000
00000
00000
00000
00000
,
01000
00000
00010
00100
00010
00000
10000
00100
00000
10000
00000
00100
01000
00000
00010
00000
,
00110
00000
00000
00000
01001
00000
00000
00110
00000
00110
00000
00000
00000
00000
00000
00000
,
00001
00100
00001
01000
00001
10000
00001
01000
00001
00100
00001
00010
00001
00000
00000
00000
,
01000
00100
01000
00010
01000
00100
01000
00010
10000
00100
10000
00100
10000
00000
00000
00000
,
10000
00100
10000
00010
10000
00001
10000
00010
10000
00100
10000
01000
10000
00000
00000
00000
,
00010
00100
00010
01000
00010
00100
00010
01000
00001
00100
00001
00100
00001
00000
00000
00000
,
01000
00001
00000
00001
00100
00000
00100
00000
00010
10000
00000
10000
00010
00000
00010
00000
,
00100
00001
00000
00001
10000
00000
10000
00000
10010
00000
00000
00000
00110
00000
00000
00000
,
10000
00001
00000
00001
10000
00000
10000
00000
00100
01000
00000
01000
00100
00000
00100
00000
,
10000
00010
00000
01000
00000
00001
00000
00100
00000
00000
00000
00000
00000
00000
00000
00000
;

//---------------pump-single - ----------------
#NOTES:
     pump-single:
     :
     Medium:
     50:
     0.307,0.362,0.010,0.255,0.069,192.000,1.000,26.000,0.000,0.000:
00000
00000
00000
00000
,
00000
00000
00000
00000
,
00000
00000
00000
00000
,
00000
00000
00000
00000
,
00100
10000
00010
00100
00010
00000
00010
00000
,
01000
00100
10000
00100
01000
00000
00000
00000
,
00001
01000
00100
10000
00001
00000
00001
00000
,
01000
00100
10000
00100
01000
00000
00000
00000
,
00002
00103
20000
30100
,
00020
02030
03100
00000
,
00020
10030
02000
03001
,
00100
00010
00000
01000
00000
00010
00000
10000
00000
00000
00000
00000
00000
00000
00000
00000
,
10000
00100
10000
00010
00100
00000
00100
00000
,
00010
10000
00010
10000
00010
00000
00000
00000
,
01000
00001
00010
00001
00100
00000
00100
00000
,
00010
00100
00001
00010
00100
00000
00000
00000
,
00002
10000
10000
10000
,
00103
00010
01000
00100
00000
00000
00000
00000
,
02000
00010
00010
00010
,
03100
00000
00000
00000
10000
00000
00000
01000
00000
01000
00000
00000
00000
00000
00000
00000
,
00010
00100
00010
01000
00001
00000
10000
00000
,
00100
01000
00010
00100
00010
00000
00000
00000
,
10000
01000
10000
00001
00100
00000
00001
00000
,
01000
00010
10000
00010
01000
00000
00000
00000
,
00002
00103
20000
30100
,
00020
02030
03100
00000
,
00020
10030
02000
03001
,
00100
00010
00000
01000
00000
00010
00000
10000
00000
00000
00000
00000
00000
00000
00000
00000
,
02000
00001
00010
00001
,
03200
01000
00010
01000
,
20300
00010
00100
00010
,
32000
00100
10000
00100
,
23000
00100
00001
00100
,
30020
00100
01000
00100
,
10030
10000
10000
00000
00001
00001
00001
00000
,
10001
00000
00000
00000
,
10000
00100
01000
00100
10000
00100
01000
00100
,
10000
00001
00100
00001
10000
00100
10000
00001
,
01000
00100
00010
00100
01000
00100
00010
00100
,
01000
00001
10000
00010
01000
00001
10000
00000
,
20000
30100
00002
00103
,
02000
03020
00130
00000
,
02000
03001
00020
10030
,
00100
01000
00000
00010
00000
01000
00000
00001
00000
00000
00000
00000
00000
00000
00000
00000
;

//---------------pump-single - ----------------
#NOTES:
     pump-single:
     :
     Easy:
     26:
     0.202,0.213,0.010,0.128,0.000,130.000,1.000,13.000,0.000,0.000:
00000
00000
00000
00000
,
00000
00000
00000
00000
,
00000
00000
00000
00000
,
00000
00000
00000
00000
,
00001
00100
00001
10000
,
00010
01000
00100
00000
,
10000
00100
01000
00010
,
10000
00001
00100
00000
,
00100
00010
01000
00100
,
01000
00010
00100
00000
,
00001
10000
00100
01000
,
00010
00000
00000
00001
,
00001
10000
00100
01000
,
00100
10000
00010
00000
,
00001
00100
00010
00100
,
01000
00100
01000
00000
,
20000
00000
00001
00001
,
30002
00000
00000
00100
,
00203
00000
00010
00010
,
00310
00001
10000
00000
,
10000
00100
10000
00001
,
10000
00010
10000
00000
,
00001
01000
00001
00100
,
00001
10000
00001
00000
,
00020
00000
02030
00000
,
03002
00000
10003
00000
,
00200
00000
00320
00000
,
02030
00000
03001
00000
,
10000
00100
10000
00100
,
01000
00010
01000
00010
,
00100
00001
00100
00001
,
01000
00001
01000
00001
,
10000
00010
10000
00010
,
00100
00010
01000
00100
,
01000
00000
00000
00000
,
10001
00000
00000
00000
,
00010
00010
00010
00010
,
01000
01000
01000
01000
,
00010
00010
00010
00010
,
01000
01000
01000
01000
,
00002
00103
20000
30100
,
01000
00010
00100
00000
,
00002
00103
20000
30100
,
01000
00010
00100
00000
;

//---------------pump-single - Copied from----------------
#NOTES:
     pump-single:
     Copied from:
     Beginner:
     15:
     0.104,0.128,0.000,0.000,0.000,74.000,0.000,0.000,0.000,0.000:
00000
00000
00000
00000
,
00000
00000
00000
00000
,
00000
00000
00000
00000
,
00000
00000
00000
00000
,
10000
00010
00000
00000
,
00001
01000
00000
00100
,
00001
00100
00000
00000
,
10000
00100
00000
00010
,
00010
00000
00000
00000
,
00001
10000
00100
00000
,
00100
00000
00001
00000
,
00000
00100
00100
00000
,
10000
00000
00000
00000
,
00001
00000
00000
00000
,
00100
00000
00000
00000
,
00010
00000
00000
00000
,
01000
00100
01000
00100
,
01000
00000
00000
00000
,
00010
00100
00010
00100
,
00010
00000
00000
00000
,
00001
00000
01000
00000
,
00010
00000
10000
00000
,
00100
00000
10000
00000
,
00001
00000
00100
00000
,
00010
00010
00000
00000
,
00010
00010
00000
00000
,
10000
10000
10000
10000
,
10000
00000
00000
00000
,
00001
00000
00000
00000
,
00100
00000
00000
00000
,
00010
00000
00000
00000
,
01000
00000
00000
00000
,
00100
00000
00000
00000
,
10000
00000
00000
00000
,
00001
00000
00000
00000
,
00000
00000
00000
00000
,
00100
00000
00100
00000
,
00100
00000
00100
00000
,
00100
00000
00100
00000
,
00100
00000
00100
00000
,
00010
00000
01000
00000
,
00001
10000
00010
00000
,
01000
00000
00100
00000
,
10000
00001
00100
00000
;
