#TITLE:Holding Onto Something;
#SUBTITLE:;
#ARTIST:Alien#Six13;
#TITLETRANSLIT:;
#SUBTITLETRANSLIT:;
#ARTISTTRANSLIT:;
#CREDIT:;
#BANNER:holdingoontosomething.png;
#SONGINFO:holdingoontosomething-songinfo.png;
#BACKGROUND:holdingoontosomething-bg.png;
#LYRICSPATH:;
#CDTITLE:./CDTITLES/alien613-alpha.png;
#CHARACTER:./SongCharacters/Alien;
#MUSIC:Holding On To Something.ogg;
#OFFSET:-0.040;
#SAMPLESTART:53.260;
#SAMPLELENGTH:12.000;
#SELECTABLE:YES;
#BPMS:0.000=126.000;
#STOPS:;
#BGCHANGES:-2.000=visffd320.avi=1.000=1=1=0
;
// cache tags:
#FIRSTBEAT:15.000;
#LASTBEAT:176.000;
#SONGFILENAME:Songs/Neon FM/Holding Onto Something/Holding Onto Something.sm;
#HASMUSIC:1;
#HASBANNER:1;
#MUSICLENGTH:84.285;
// end cache tags

//---------------pump-single - ----------------
#NOTES:
     pump-single:
     :
     Hard:
     72:
     0.478,0.470,0.154,0.059,0.006,264.000,13.000,5.000,0.000,0.000:
00000
00000
00000
00000
,
00000
00000
00000
00000
,
00000
00000
00000
00000
,
00000
00000
00000
10010
,
02000
00000
03001
00100
00010
00010
00000
00010
,
10000
01000
10000
00001
00100
00100
00000
00000
,
00020
00000
01030
00001
10000
10000
00000
00100
,
10000
00010
00001
00010
00100
00100
00200
00000
,
00302
00000
10003
00100
01000
01000
00000
00100
,
10000
00010
10000
00001
00010
00100
00000
00000
,
20000
00000
30010
00100
00010
00010
00000
01000
,
00100
00010
00001
00010
00100
01000
00010
00000
,
10010
00100
01000
00001
,
01010
00000
00001
00000
10000
00001
00010
00001
,
00000
10000
00100
00000
01000
00010
01000
00000
,
00010
01000
00010
00000
01000
00010
01000
00000
,
00110
00001
01000
00100
,
11000
00000
00010
00000
01000
00100
10000
01000
,
00000
10000
00010
00000
01000
00001
01000
00000
,
10000
00010
10000
00000
00001
01000
00001
00000
,
10100
00000
01000
00000
00001
00100
00000
00100
,
00001
00000
10000
00000
01000
10000
00100
01000
,
00010
01100
10000
00110
,
00001
00100
00001
10000
00100
10000
00010
00000
,
00101
00000
00010
00000
10000
00100
00000
00100
,
10000
00000
00001
00000
00010
00001
00100
00010
,
01000
00110
00001
01100
,
10000
00100
10000
00001
00100
00001
01001
00000
,
10000
00100
01000
00010
00100
00001
10000
00100
,
01000
00010
00100
00001
10000
00100
01000
00010
,
10000
01000
00100
00010
00001
00010
00100
01000
,
10000
01000
00100
00001
00010
00100
01000
00000
,
00001
00100
00010
01000
00100
10000
00001
00100
,
00010
01000
00100
10000
00001
00100
00010
01000
,
00001
00010
00100
01000
10000
01000
00100
00010
,
00001
00010
00100
10000
01000
00100
00010
00000
,
10000
00001
01000
00010
10000
00001
01000
00010
,
10000
00100
10000
00001
00100
00001
01000
00010
,
00100
00001
00100
00010
00100
01000
00100
10000
,
00100
01000
00100
00010
00100
00001
00110
00000
,
00001
10000
00010
01000
00001
10000
00010
01000
,
00001
00100
00001
10000
00100
10000
00010
01000
,
00100
10000
00100
01000
00100
00010
00100
00001
,
00100
00000
00010
00000
00100
00000
01000
00000
00100
00000
10000
00000
00100
00000
10000
01000
,
10000
00000
00000
00000
;

//---------------pump-single - ----------------
#NOTES:
     pump-single:
     :
     Medium:
     55:
     0.381,0.365,0.095,0.107,0.000,208.000,8.000,9.000,0.000,0.000:
00000
00000
00000
00000
,
00000
00000
00000
00000
,
00000
00000
00000
00000
,
00000
00000
00000
00100
,
00001
00000
01000
00100
01000
00100
00000
01000
,
00001
00000
00100
00010
00100
00010
00000
00000
,
10000
00000
00010
00100
00010
00100
00000
00010
,
10000
00000
00100
01000
00100
01000
00200
00000
,
10300
00000
00001
01000
00001
01000
00000
00001
,
10000
00000
00100
10000
00100
10000
00000
00000
,
00001
00000
10000
00010
10000
00010
00000
10000
,
00001
00000
00100
00001
00100
00001
00100
00000
,
00010
01000
00001
00100
,
00010
01000
00001
00100
,
00010
10000
00100
01000
,
00010
10000
00100
01000
,
00001
00100
01000
00100
,
00001
00100
01000
00100
,
00001
01000
00100
10000
,
00001
01000
00100
10000
,
00020
00000
01030
00000
00001
10000
00000
10000
,
00200
00000
01300
00000
00001
00010
00000
00010
,
00002
00000
01003
00000
00100
10000
00000
10000
,
00020
00000
01030
00000
00100
10000
00000
10000
,
00020
00000
01030
00000
00001
10000
00000
10000
,
00200
00000
01300
00000
00001
00010
00000
00010
,
00002
00000
01003
00000
00100
10000
00000
10000
,
00020
01030
00100
01010
,
10000
00000
00100
00000
01000
00010
01000
00000
,
00001
10000
00000
00001
10000
00001
10000
00000
,
01000
00000
10000
00000
00010
00100
00001
00000
,
01000
00010
00000
01000
00010
01000
00010
00000
,
01000
00000
00001
00000
01000
00100
00010
00000
,
00100
10000
00000
00100
01000
00100
00010
00000
,
00001
00000
00100
00000
00010
00100
10000
00000
,
00100
00010
00000
00100
00010
00100
00010
00000
,
10000
00000
00001
00000
10000
00100
01100
00000
,
00000
00001
00100
00010
00100
00001
01001
00000
,
00100
00000
00010
00000
01000
00001
10001
00000
,
00000
01000
00100
10000
00100
01000
01010
00000
,
00001
00000
10000
00000
00001
00100
00110
00000
,
00000
10000
00100
01000
00100
10000
10010
00000
,
00100
00000
01000
00000
00010
10000
10001
00000
,
00000
00010
00100
00001
00100
00010
00100
00001
,
00100
00000
00000
00000
;

//---------------pump-single - ----------------
#NOTES:
     pump-single:
     :
     Easy:
     28:
     0.176,0.235,0.000,0.000,0.000,104.000,0.000,0.000,0.000,0.000:
00000
00000
00000
00000
,
00000
00000
00000
00000
,
00000
00000
00000
00000
,
00000
00000
00000
00001
,
10000
00100
10000
00010
,
01000
00010
01000
00001
,
00100
00001
00100
00010
,
10000
00010
01000
00100
,
00100
10000
00010
00100
,
00001
01000
00001
10000
,
00100
10000
00010
10000
,
00001
01000
00001
01000
,
00100
00000
00100
00000
,
00010
00000
00010
00000
,
01000
00000
01000
00000
,
00001
00000
00001
00000
,
10000
00000
10000
00000
,
00100
00000
00100
00000
,
10000
00000
10000
00000
,
00001
00000
00001
00000
,
01000
00000
01000
00000
,
00010
00000
00010
00000
,
00100
00000
00100
00000
,
00001
00000
00001
00000
,
00100
00000
00100
00000
,
00010
00000
00010
00000
,
01000
00000
01000
00000
,
00100
00000
00100
01000
,
00100
00000
00000
01000
,
00001
00000
00000
00100
,
00010
00000
00000
10000
,
00100
00000
00000
01000
,
00010
00000
00000
00100
,
00001
00000
00000
00001
,
10000
00000
00000
00010
,
01000
00000
00000
00100
,
01000
00000
00000
00010
,
10000
00000
00000
00001
,
01000
00000
00000
00010
,
00100
00000
00000
00010
,
01000
00100
00000
00010
,
01000
00001
00000
10000
,
00100
01000
00000
00100
,
01000
00010
00100
00001
,
00001
00000
00000
00000
;

//---------------pump-single - Copied from----------------
#NOTES:
     pump-single:
     Copied from:
     Beginner:
     15:
     0.085,0.157,0.000,0.000,0.000,50.000,0.000,0.000,0.000,0.000:
00000
00000
00000
00000
,
00000
00000
00000
00000
,
00000
00000
00000
00000
,
00000
00000
00000
00000
,
00001
00000
00000
00000
,
01000
00000
00000
00000
,
00010
00000
00000
00000
,
00100
00000
00000
00000
,
10000
00000
00000
00000
,
00100
00000
00000
00000
,
01000
00000
00000
00000
,
00010
00000
00000
00000
,
00100
00000
00000
00000
,
00000
00000
00000
00000
,
00001
00000
00000
00000
,
10000
00000
00000
00000
,
00010
00000
00000
00000
,
00000
00000
00000
00000
,
00100
00000
00000
00000
,
01000
00000
00000
00000
,
00010
00000
00000
00000
,
00000
00000
00000
00000
,
00100
00000
00000
00000
,
00001
00000
01000
00000
,
00100
00000
00000
00000
,
00000
00000
00000
00000
,
10000
00000
00000
00000
,
00010
00000
00100
00000
,
00001
00000
00000
00000
,
10000
00000
00000
00000
,
00010
00000
00000
00000
,
01000
00000
00100
00000
,
10000
00000
00000
00000
,
00100
00000
00000
00000
,
01000
00000
00000
00000
,
00001
00000
00100
00000
,
00010
00000
00000
00010
,
00010
00000
00000
00010
,
01000
00000
00000
01000
,
01000
00000
00000
00001
,
00001
00000
00000
00001
,
00001
00000
00000
10000
,
10000
00000
00000
10000
,
10000
00000
00100
00100
,
00100
00000
00000
00000
;
