#TITLE:Science Genius Girl;
#SUBTITLE:(Neon FM mix);
#ARTIST:Freezepop;
#TITLETRANSLIT:;
#SUBTITLETRANSLIT:;
#ARTISTTRANSLIT:;
#CREDIT:PopnKO;
#BANNER:sciencegeniusgirl-banner.png;
#SONGINFO:sciencegeniusgirl-songinfo.png;
#BACKGROUND:sciencegeniusgirl-bg.png;
#LYRICSPATH:;
#CDTITLE:./CDTITLES/freezepop-forever.png;
#CHARACTER:./SongCharacters/freezepop;
#MUSIC:Science Genius Girl.ogg;
#OFFSET:0.000;
#SAMPLESTART:77.060;
#SAMPLELENGTH:12.000;
#SELECTABLE:YES;
#BPMS:0.000=137.000;
#STOPS:;
#BGCHANGES:-2.000=visffd320.avi=1.000=1=1=0
;
// cache tags:
#FIRSTBEAT:16.000;
#LASTBEAT:214.000;
#SONGFILENAME:Songs/Neon FM/Science Genius Girl/Science Genius Girl.sm;
#HASMUSIC:1;
#HASBANNER:1;
#MUSICLENGTH:97.363;
// end cache tags

//---------------pump-single - ----------------
#NOTES:
     pump-single:
     :
     Hard:
     59:
     0.337,0.357,0.072,0.031,0.000,220.000,7.000,3.000,0.000,0.000:
00000
00000
00000
00000
,
00000
00000
00000
00000
,
00000
00000
00000
00000
,
00000
00000
00000
00000
,
00100
00000
00000
00000
,
10000
00000
00000
00000
,
00001
00000
00000
00000
,
00100
00000
00000
00000
,
00000
00000
00100
01000
00010
10000
00001
01000
,
00100
00100
00100
00100
,
00100
00000
00000
10000
00010
00100
00001
00100
,
00010
00100
00100
00100
,
00000
00110
01100
00110
,
00101
10100
00101
00000
,
00000
00000
00001
10000
00001
01000
00100
10000
,
00010
00100
00100
00100
,
00000
00000
00001
00010
00001
00000
00000
10000
,
01000
00000
01000
00100
00000
00100
00010
00000
,
00000
00000
00100
00010
01000
00000
00000
00001
,
01000
00001
01000
00000
00010
10000
00010
00000
,
00000
00000
01000
00100
00010
00000
00000
00100
,
01000
00000
01000
00010
00000
00010
10000
00000
,
00000
00000
00001
10000
00001
10000
00000
10000
,
00100
01000
00000
00020
00000
00000
01030
01010
,
00000
00010
10000
00001
00000
00010
10000
00001
,
01000
00010
00100
00001
00000
10000
00001
10000
,
00000
00000
00100
01000
00010
00000
00000
00100
,
00001
01000
00000
00020
00000
00000
10030
10000
,
00001
01000
00010
00100
,
00010
10000
00001
01000
,
00100
00010
00100
01000
,
00001
10000
00010
00100
,
00001
01000
00010
01000
,
00001
10000
00010
00100
,
00001
10000
00100
10000
,
00010
00010
01000
01000
,
00000
00000
00001
00100
00010
01000
00001
00001
,
00001
00100
00100
00100
,
00000
00000
01000
01000
00001
10000
00100
00100
,
01000
00100
00100
00100
,
01000
00000
00010
00000
10000
01000
00100
00010
,
10000
00100
00100
00100
,
00000
00000
10000
00001
01000
00010
10000
00001
,
00100
00001
00100
00001
00100
00001
00100
00000
,
00000
00000
00001
10000
00010
00000
00000
01000
,
00100
00000
00100
10000
00000
10000
00001
00000
,
00000
00000
00010
00100
01000
00000
00000
00001
,
01000
00100
10000
00000
00100
01000
00100
10000
,
00000
00000
10000
00010
01000
00000
00000
00100
,
01000
00000
01000
00001
00000
00001
00100
00000
,
00000
00000
00010
01000
00100
00000
00000
00100
,
10000
20000
00000
00001
00000
00000
30100
00100
,
10000
00001
01000
00010
,
00100
00001
10000
00000
;

//---------------pump-single - ----------------
#NOTES:
     pump-single:
     :
     Medium:
     42:
     0.242,0.275,0.000,0.010,0.000,164.000,0.000,1.000,0.000,0.000:
00000
00000
00000
00000
,
00000
00000
00000
00000
,
00000
00000
00000
00000
,
00000
00000
00000
00000
,
00000
00000
00000
00000
,
00000
00000
00000
00000
,
00000
00000
00000
00000
,
00000
00000
00000
00000
,
00001
00000
10000
00000
00010
00000
00100
00001
,
00100
00000
00000
00000
,
01000
00000
00100
00000
10000
00000
00010
01000
,
00010
00000
00000
00000
,
01000
00001
10000
00100
,
01000
00010
00100
00000
,
00010
00000
10000
00100
10000
00000
00001
00100
,
00001
00000
00000
00000
,
00000
00000
00100
10000
00100
00000
10000
00000
,
00010
00100
00010
00100
,
00000
00000
00001
00100
00001
00000
10000
00000
,
00010
01000
00100
01000
,
00000
00000
00100
01000
00100
00000
10000
00000
,
00001
10000
00010
00100
,
00000
00000
00010
01000
00010
00000
01000
00000
,
00100
00000
10000
00000
00001
00000
00100
00100
,
00000
10000
00000
00001
,
00000
01000
00000
00010
,
00000
00000
01000
00010
01000
00000
00010
00000
,
10000
00000
00001
00000
00100
00000
00001
00001
,
10000
00100
10000
00001
,
00100
00001
01000
00100
,
01000
00010
00100
00010
,
10000
00010
01000
00001
,
00100
00010
01000
00010
,
10000
00001
10000
00100
,
10000
00001
00100
00001
,
10000
00100
01000
00010
,
00000
00000
01000
00100
10000
00000
00001
00000
,
01000
00000
00000
00000
,
00000
00000
00100
01000
00001
00000
10000
00000
,
00010
00000
00000
00000
,
01000
00000
00001
00000
10000
00010
10000
00000
,
00100
00000
00000
00000
,
00000
00100
10000
00001
,
00200
00000
00000
00300
,
00000
00000
00100
00001
00100
00000
00001
00000
,
01000
00100
01000
00100
,
00000
00000
10000
00100
10000
00000
00001
00000
,
01000
00010
00100
00010
,
00000
00000
00100
00010
00100
00000
00001
00000
,
10000
00001
01000
00100
,
00000
00000
01000
00010
01000
00000
00010
00000
,
00100
00000
00001
00000
10000
00000
00100
00100
,
00100
10000
00001
00100
,
00001
10000
00100
00000
;

//---------------pump-single - ----------------
#NOTES:
     pump-single:
     :
     Easy:
     18:
     0.136,0.165,0.021,0.010,0.000,90.000,2.000,1.000,0.000,0.000:
00000
00000
00000
00000
,
00000
00000
00000
00000
,
00000
00000
00000
00000
,
00000
00000
00000
00000
,
00001
00000
00000
00000
,
00001
00000
00000
00000
,
10000
00000
00000
00000
,
10000
00000
00000
00000
,
00000
00010
01000
00100
,
10000
00000
00000
00000
,
00000
00000
10001
11000
,
00001
00000
00000
00000
,
00000
00010
01000
00100
,
00001
00001
00001
00000
,
00000
00010
10000
01000
,
00001
00000
00000
00000
,
00000
00010
00100
00000
,
00001
00000
00001
00000
,
00000
01000
00100
00000
,
10000
00000
10000
00000
,
00000
00010
00100
00000
,
00001
00000
00001
00000
,
00000
01000
00100
00000
,
10000
00000
10000
00000
,
00010
00000
01000
00000
,
00010
00000
01000
00000
,
00001
00000
10000
00000
,
00001
00000
10000
00000
,
00100
00000
00000
00000
,
00001
00000
00000
00000
,
10000
00000
00000
00000
,
00010
00000
00000
00000
,
00001
00000
00000
00000
,
10000
00000
00000
00000
,
01000
00000
00000
00000
,
00100
00000
00000
00000
,
00000
00010
10000
00100
,
00100
00000
00000
00000
,
00000
01000
00001
00100
,
00100
00000
00000
00000
,
00001
10000
00001
10000
,
00001
00000
00000
00000
,
00000
00010
00100
01000
,
00020
00000
00000
00000
,
10030
00000
00001
00000
,
01000
00000
00010
00000
,
00100
00000
00001
00000
,
10000
00000
00010
00000
,
00100
00000
01000
00000
,
00001
00000
10000
00000
,
00010
00000
00100
00000
,
00010
00000
01000
00000
,
00100
00000
01000
00000
,
00001
00000
10000
00000
;

//---------------pump-single - Copied from----------------
#NOTES:
     pump-single:
     Copied from:
     Beginner:
     13:
     0.078,0.165,0.000,0.000,0.000,53.000,0.000,0.000,0.000,0.000:
00000
00000
00000
00000
,
00000
00000
00000
00000
,
00000
00000
00000
00000
,
00000
00000
00000
00000
,
00001
00000
00000
00000
,
00000
00000
00000
00000
,
10000
00000
00000
00000
,
00000
00000
00000
00000
,
00100
00000
00000
00000
,
00010
00000
00000
00000
,
00100
00000
00000
00000
,
01000
00000
00000
00000
,
00100
00000
00000
00000
,
00001
00000
00000
00000
,
00100
00000
00000
00000
,
10000
00000
00000
00000
,
00010
00000
00000
00000
,
01000
00000
00000
00000
,
00010
00000
00000
00000
,
10000
00000
00000
00000
,
00001
00000
00000
00000
,
01000
00000
00000
00000
,
00100
00000
00000
00000
,
10000
00000
00000
00000
,
00010
00000
00010
00000
,
00010
00000
00010
00000
,
01000
00000
01000
00000
,
01000
00000
01000
00000
,
00010
00000
00000
00000
,
00100
00000
00000
00000
,
00001
00000
00000
00000
,
00001
00000
00000
00000
,
01000
00000
00000
00000
,
00100
00000
00000
00000
,
10000
00000
00000
00000
,
10000
00000
00000
00000
,
00100
00000
00000
00000
,
00000
00000
00000
00000
,
00100
00000
00000
00000
,
00000
00000
00000
00000
,
00100
00000
00000
00000
,
00100
00000
00000
00000
,
00100
00000
00000
00000
,
00010
01000
00010
01000
,
00010
00000
00000
00000
,
10000
00000
00000
00000
,
00001
00000
00000
00000
,
01000
00000
00000
00000
,
00100
00000
00000
00000
,
10000
00000
00000
00000
,
00010
00000
00000
00000
,
01000
00000
00000
00000
,
00001
00000
00000
00000
,
00000
00000
10000
00000
;
