#TITLE:You Got The City;
#SUBTITLE:;
#ARTIST:Alien#Six13;
#TITLETRANSLIT:;
#SUBTITLETRANSLIT:;
#ARTISTTRANSLIT:;
#CREDIT:;
#BANNER:alien#six13-city-banner.png;
#SONGINFO:alien#six13-city-songinfo.png;
#BACKGROUND:alien#six13-city.png;
#LYRICSPATH:;
#CDTITLE:./CDTITLES/alien613-alpha.png;
#CHARACTER:./SongCharacters/Alien;
#MUSIC:You Got The City.ogg;
#OFFSET:-0.040;
#SAMPLESTART:51.660;
#SAMPLELENGTH:12.000;
#SELECTABLE:YES;
#BPMS:0.000=130.000;
#STOPS:;
#BGCHANGES:-2.000=visffd320.avi=1.000=1=1=0
;
// cache tags:
#FIRSTBEAT:16.000;
#LASTBEAT:190.000;
#SONGFILENAME:Songs/Neon FM/You Got The City/You Got The City.sm;
#HASMUSIC:1;
#HASBANNER:1;
#MUSICLENGTH:87.807;
// end cache tags

//---------------pump-single - ----------------
#NOTES:
     pump-single:
     :
     Hard:
     63:
     0.405,0.406,0.319,0.046,0.011,217.000,28.000,4.000,0.000,0.000:
00000
00000
00000
00000
,
00000
00000
00000
00000
,
00000
00000
00000
00000
,
00000
00000
00000
00000
,
00101
00000
10100
00000
00010
01000
00010
10000
,
00000
00100
01000
00010
,
00101
00000
10100
00000
00001
01000
00010
00100
,
00000
00010
01000
00001
,
01100
00000
00110
00000
00100
00001
01000
00010
,
00000
10000
00100
01000
,
00110
00000
01100
00000
00001
10000
00010
01000
,
00000
00100
00100
00100
,
10000
01000
00000
01000
10000
00000
10000
00000
,
00100
00000
01000
00000
00001
00000
01000
00010
,
00100
00000
00001
00000
01000
00010
01000
00000
,
00100
00000
10001
00000
00010
01000
00010
00000
,
01000
00001
00000
00001
01000
00000
00100
00000
,
10000
00000
00010
00000
00100
00000
00001
00100
,
00010
01010
01000
01010
,
00100
01000
00010
00100
00001
10000
00100
00000
,
10010
10010
00001
00000
,
00010
01000
00100
10000
00200
00000
01300
00000
,
10000
00001
01000
00100
,
10000
00010
00100
00000
00100
00010
10000
00000
,
01001
00000
01001
00000
10000
00000
00000
00010
,
01000
00001
10000
00010
01000
00100
00100
02000
,
00000
00000
00000
03000
,
11000
01100
00110
00011
,
00100
00000
00001
00001
10000
00100
01000
00000
,
00000
01000
00001
10000
00010
00010
00100
00000
,
00010
01000
00010
10000
10000
00200
00000
00000
,
10300
00001
10000
00001
,
00010
00000
00001
00100
00010
00010
01000
00000
,
00000
01000
00100
10000
00100
00100
01000
00000
,
01000
00001
01000
00010
00010
00200
00000
00000
,
00301
10000
00001
10000
,
10001
00000
10010
00000
00100
00100
00100
00000
,
00000
00010
01000
00100
10000
10000
10000
00000
,
10001
00000
01001
00000
00100
00100
00100
00000
,
00000
00010
00100
00001
01000
01000
01000
00000
,
10001
00000
01001
00000
00100
00100
00100
00000
,
00000
01000
00010
00100
00001
00001
00001
00000
,
10001
00000
10010
00000
00100
00100
00100
00000
,
00000
01000
00100
10000
00010
00010
00010
00000
,
01010
10000
00100
01000
,
00001
00010
00100
01000
,
00010
10000
00001
00100
,
10000
00000
00000
00000
10000
00001
00000
00001
01000
00000
00000
00000
00000
00000
00000
00000
;

//---------------pump-single - ----------------
#NOTES:
     pump-single:
     :
     Medium:
     48:
     0.293,0.379,0.125,0.000,0.006,169.000,11.000,0.000,0.000,0.000:
00000
00000
00000
00000
,
00000
00000
00000
00000
,
00000
00000
00000
00000
,
00000
00000
00000
00000
,
01000
00000
00010
00000
00100
00000
00001
10000
,
00000
00100
00000
00100
,
00010
00000
01000
00000
00100
00000
10000
00001
,
00000
00100
00000
00100
,
01000
00000
00010
00000
00100
00000
00001
10000
,
00000
00100
00000
00100
,
00010
00000
01000
00000
00100
00000
10000
00001
,
00000
00100
00000
00100
,
10000
00100
10000
00001
,
10000
00010
10000
01000
,
10000
00100
10000
00010
,
10000
00010
10000
00001
,
00001
01000
00001
00100
,
00001
10000
00001
00010
,
00001
01000
00001
00100
,
00001
10000
00001
10000
,
00010
01000
00010
01000
,
00001
01000
00001
01000
,
00010
10000
00010
10000
,
00001
10000
00001
10000
,
00010
01000
00010
01000
,
00001
01000
00001
01000
,
00010
10000
00010
10000
,
00001
10000
00001
10000
,
10001
00000
10001
00000
10000
00001
10000
00000
,
00000
00100
10000
00000
00010
01000
00010
00000
,
01010
01010
10000
00001
,
00100
00100
00100
00100
,
10001
00000
10001
00000
10000
00001
10000
00000
,
00000
00100
10000
00000
00010
01000
00010
00000
,
01010
01010
10000
00001
,
00100
00100
00100
00100
,
01000
00010
00100
00001
,
10000
00100
01000
00010
,
01000
00001
10000
00010
,
00100
00001
10000
00100
,
01000
00100
10000
00010
,
01000
00100
00010
00100
,
10000
01000
10000
00010
,
00100
00001
00100
00001
,
00100
00000
00101
00000
,
00100
00000
10100
00000
,
00100
00000
01100
00000
,
00100
00000
00000
00000
00000
00000
00000
00100
00010
00000
00000
00000
00000
00000
00000
00000
;

//---------------pump-single - ----------------
#NOTES:
     pump-single:
     :
     Easy:
     19:
     0.132,0.162,0.000,0.000,0.000,81.000,0.000,0.000,0.000,0.000:
00000
00000
00000
00000
,
00000
00000
00000
00000
,
00000
00000
00000
00000
,
00000
00000
00000
00000
,
10000
00010
10000
00000
,
00100
00000
00100
00000
,
00001
01000
00001
00000
,
00100
00000
00100
00000
,
10000
00001
10000
00000
,
00010
00000
01000
00000
,
00100
10000
00001
00000
,
01000
00000
00010
00000
,
00100
00000
00000
00000
,
00010
00000
00000
00000
,
01000
00000
00000
00000
,
00001
00000
10000
00000
,
00100
00000
00000
00000
,
10000
00000
00000
00000
,
00001
00000
00000
00000
,
01000
00000
00010
00000
,
00100
00100
00000
00000
,
00010
01000
00010
00000
,
00000
00000
00000
00000
,
00001
00000
10000
00000
,
00100
00100
00000
00000
,
01000
00010
01000
00000
,
00000
00000
00000
00000
,
00001
00000
10000
00000
,
00010
00000
00010
00010
,
00000
00000
00100
00100
,
00000
00000
10000
10000
,
10000
00000
00000
00000
,
01000
00000
01000
01000
,
00000
00000
00100
00100
,
00000
00000
00001
00001
,
00001
00000
00000
00000
,
00010
00000
01000
00000
,
00010
00000
01000
00000
,
00001
00000
10000
00000
,
00001
00000
10000
00000
,
00100
00000
01000
00000
,
00010
00000
00100
00000
,
00001
00000
10000
00000
,
00100
00000
00100
00000
,
01000
00100
00000
00000
,
00000
00000
00000
00000
,
00010
00100
00000
00000
,
00000
00000
00100
00000
;

//---------------pump-single - Copied from----------------
#NOTES:
     pump-single:
     Copied from:
     Beginner:
     10:
     0.072,0.108,0.000,0.011,0.000,43.000,0.000,1.000,0.000,0.000:
00000
00000
00000
00000
,
00000
00000
00000
00000
,
00000
00000
00000
00000
,
00000
00000
00000
00000
,
00100
00000
00000
00000
,
00100
00000
00000
00000
,
00001
00000
00000
00000
,
00001
00000
00000
00000
,
00100
00000
00000
00000
,
00100
00000
00000
00000
,
10000
00000
00000
00000
,
10000
00000
00000
00000
,
01000
00000
00000
00000
,
00000
00000
00000
00000
,
00010
00000
00000
00000
,
00000
00000
00000
00000
,
10000
00000
00000
00000
,
00000
00000
00000
00000
,
00001
00000
00000
00000
,
00000
00000
00000
00000
,
00010
00000
00000
00000
,
00010
00100
00000
00000
,
00010
00000
00000
00000
,
00010
00000
00000
00000
,
01000
00000
00000
00000
,
01000
00100
00000
00000
,
01000
00000
00000
00000
,
02000
00000
00000
00000
,
03001
00000
00000
00000
,
10000
00000
00000
00000
,
00010
00000
00000
00000
,
01000
00000
00100
00000
,
10000
00000
00000
00000
,
00001
00000
00000
00000
,
01000
00000
00000
00000
,
00010
00000
00100
00000
,
10000
00000
00000
00000
,
10000
00000
00000
00000
,
00001
00000
00000
00000
,
00001
00000
00000
00000
,
01000
00000
00000
00000
,
01000
00000
00000
00000
,
00010
00000
00000
00000
,
00010
00000
00000
00000
,
00100
00000
00000
00000
,
00000
00000
00000
00000
,
00100
00000
00000
00000
,
00000
00000
00100
00000
;
