#TITLE:Feel The O2Jam;
#SUBTITLE:;
#ARTIST:Beautiful Day;
#TITLETRANSLIT:;
#SUBTITLETRANSLIT:;
#ARTISTTRANSLIT:;
#CREDIT:;
#BANNER:feeltheo2jam-banner.png;
#SONGINFO:feeltheo2jam-songinfo.png;
#BACKGROUND:feeltheo2jam-bg.png;
#LYRICSPATH:;
#CDTITLE:./CDTITLES/o2jam.png;
#CHARACTER:./SongCharacters/default;
#MUSIC:Feel The O2jam.mp3;
#OFFSET:-0.720;
#SAMPLESTART:29.680;
#SAMPLELENGTH:12.000;
#SELECTABLE:YES;
#BPMS:0.000=140.000;
#STOPS:;
#BGCHANGES:-2.000=visffd320.avi=1.000=1=1=0
;
// cache tags:
#FIRSTBEAT:20.000;
#LASTBEAT:244.000;
#SONGFILENAME:Songs/Neon FM/Feel The O2jam/Feel The O2jam.sm;
#HASMUSIC:1;
#HASBANNER:1;
#MUSICLENGTH:108.707;
// end cache tags

//---------------pump-single - ----------------
#NOTES:
     pump-single:
     :
     Hard:
     77:
     0.523,0.505,0.285,0.166,0.189,349.000,31.000,18.000,0.000,0.000:
00000
00000
00000
00000
,
00000
00000
00000
00000
,
00000
00000
00000
00000
,
00000
00000
00000
00000
,
00000
00000
00000
00000
,
00101
00000
00000
00000
10100
00000
00000
00000
00010
00000
00000
00010
00000
00000
00010
00000
,
01000
00000
00100
00000
00010
00000
00100
00000
01000
00000
00000
01000
00000
00000
01000
00000
,
10100
00000
00000
00000
00101
00000
00000
00000
01000
00000
00000
01000
00000
00000
01000
00000
,
00001
00000
00010
00000
00100
00000
00010
00000
00001
00000
00000
00001
00000
00000
00001
00000
,
10000
00000
00000
10000
00000
00000
10000
00000
00010
00000
00000
00010
00000
00000
00010
00000
,
01000
00000
00000
01000
00000
00000
01000
00000
00001
00000
00000
00001
00000
00000
00001
00000
,
00100
00000
00000
00100
00000
00000
00100
00000
00010
00000
00000
00010
00000
00000
00010
00000
,
01000
00000
00000
01000
00000
00000
01000
00000
00100
00000
00000
00100
00000
00000
00100
00000
,
10000
00000
00000
00001
00000
01000
00100
00000
10000
00000
00000
00010
00000
01000
00001
00000
,
00100
00000
00000
00010
00000
01000
00001
00000
10000
00000
00000
00100
00000
10000
00010
00000
,
01000
00000
00000
00100
00000
10000
00001
00000
00010
00000
00000
00001
00000
00100
00010
00000
,
10000
00000
00000
00010
00000
01000
00010
00000
00100
00000
00001
00000
00100
00000
00000
00000
,
10010
00000
01001
00000
00100
00010
10000
00100
,
00000
00100
01000
01000
00010
10000
00010
00000
,
11000
00000
00110
00000
01000
00001
00100
00010
,
00000
00010
10000
10000
00001
00100
00001
00000
,
01010
00000
10001
00000
00010
00100
01000
00100
,
00000
00100
00010
00010
10000
00001
00100
00001
,
10000
01000
10000
00100
00000
00100
01000
00020
,
00000
00000
00100
00130
,
01001
00001
00010
00001
10000
00010
01000
00200
,
00000
00000
00000
00000
10300
10000
00010
00010
,
10010
10000
00100
01000
00001
01000
00010
20000
,
00000
31000
00000
00000
00001
00001
00100
00100
,
01010
00000
00001
10000
00100
01000
00100
20000
,
00000
30010
00000
00010
00100
00001
01000
00001
,
20000
00000
00000
00000
00002
00000
30003
00200
,
00000
00000
00000
00000
00000
00000
00000
00300
,
00010
10000
01000
00100
00010
10000
00001
00010
,
00100
01000
10000
01000
00100
01000
00010
10000
,
01000
00100
00001
00010
00100
10000
01000
00100
,
00020
01000
01000
01030
,
01001
00000
10010
00000
00100
01000
00001
00100
,
00000
00100
00010
00010
01000
00001
01000
00000
,
00011
00000
01100
00000
00010
10000
00100
01000
,
00000
01000
00001
00001
10000
00100
10000
00000
,
01010
00000
10001
00000
01000
00100
00010
00100
,
00000
00100
01000
01000
00001
10000
00100
10000
,
00001
00010
00001
00100
00000
00100
00010
02000
,
00100
00100
00100
00100
00100
00000
03100
00000
,
10010
10000
01000
10000
00001
01000
00010
00200
,
00000
00000
00010
00000
00301
00001
01000
01000
,
01001
00001
00100
00010
10000
00010
01000
00002
,
00000
00013
00000
00000
10000
10000
00100
00100
,
01010
00000
10000
00001
00100
00010
00100
00002
,
00000
01003
00000
01000
00100
10000
00010
10000
,
00002
00000
10000
00000
20000
00000
30003
00200
,
01000
00000
01000
00000
01000
01000
01300
01000
,
00101
00000
10100
00000
,
00010
00100
00010
00100
00010
00000
01000
00000
00100
00000
00000
10000
00000
00000
00002
00000
,
00000
00000
00103
00000
00010
00000
00000
00000
10100
00000
00000
10000
00000
00000
10000
00000
,
00001
00010
00001
00010
00001
00000
01000
00000
00010
00000
00000
00100
00000
00000
00002
00000
,
00000
00000
10003
00000
01000
00000
10000
00000
10010
00000
00000
00010
00000
00000
00010
00000
,
10000
00100
10000
00100
10000
00000
00001
00000
00100
00000
00000
00010
00000
00000
02000
00000
,
00100
00000
03100
00000
10000
00000
00000
00000
00110
00000
00000
00010
00000
00000
00010
00000
,
01000
10000
01000
10000
01000
00000
00001
00000
10001
00000
00000
00101
00000
00000
00110
00000
,
10010
00000
00000
00000
;

//---------------pump-single - ----------------
#NOTES:
     pump-single:
     :
     Medium:
     57:
     0.401,0.393,0.239,0.101,0.051,268.000,26.000,11.000,0.000,0.000:
00000
00000
00000
00000
,
00000
00000
00000
00000
,
00000
00000
00000
00000
,
00000
00000
00000
00000
,
00000
00000
00000
00000
,
01010
00000
00000
00000
01010
00000
00000
00000
00010
00000
00000
10000
00000
00000
00001
00000
,
00000
00000
10000
00000
00100
00000
00000
00000
01000
00000
00000
01000
00000
00000
01000
00000
,
01001
00000
00000
00000
01001
00000
00000
00000
00010
00000
00000
00100
00000
00000
00010
00000
,
00200
00000
00000
00000
,
00301
01000
00100
00000
10000
00010
01000
00000
,
00010
00100
00001
00000
10000
01000
10000
00000
,
00100
01000
00001
00000
00100
00010
01000
00000
,
00010
10000
00010
00000
01000
00100
01000
00000
,
00010
10000
00001
00000
00100
00010
10000
00000
,
01000
10000
00010
00000
00100
00001
00100
00000
,
00010
01000
00100
00000
00100
01000
00010
00000
,
10000
00100
01000
00000
00010
10000
00001
00000
,
11000
00000
11000
00000
00010
00000
01000
00001
,
00000
00001
01000
00000
00010
00100
00010
00000
,
10100
00000
10100
00000
01000
00000
00010
10000
,
00000
10000
00010
00000
00100
00001
00100
00000
,
00110
00000
00110
00000
10000
00000
00100
01000
,
00000
01000
00010
00000
01000
00010
01000
00000
,
00001
00000
10000
00100
00000
00100
00000
00200
,
00000
00000
10000
10300
,
10001
00000
00010
00100
00001
00000
00001
10000
,
00000
10000
00001
00000
00100
00000
00100
00000
,
10001
00000
01000
00100
10000
00000
10000
00001
,
00000
00001
10000
00000
00100
00000
00100
00000
,
10001
00000
01000
00010
10000
00000
00001
01000
,
00000
00010
10000
00000
00100
00000
00100
00000
,
02000
00000
00000
00000
03020
00000
00000
01030
,
02002
00000
00000
00000
00000
00000
00000
03003
,
00100
00001
00100
00001
,
10000
01000
10000
00000
00100
00000
01000
00000
,
00010
10000
10000
00010
10000
10000
00010
10000
,
20000
00000
00000
30000
,
00011
00000
00011
00000
01000
00000
00010
10000
,
00000
10000
00010
00000
01000
00100
01000
00000
,
00101
00000
00101
00000
00010
00000
01000
00001
,
00000
00001
01000
00000
00100
10000
00100
00000
,
01100
00000
01100
00000
00001
00000
00100
00010
,
00000
00010
01000
00000
00010
01000
00010
00000
,
10000
00000
00001
00100
00000
00100
00000
00200
,
00001
00001
00001
00301
,
10001
00000
01000
00100
10000
00000
10000
00001
,
00000
00001
10000
00000
00100
00000
00100
00000
,
10001
00000
00010
00100
00001
00000
00001
10000
,
00000
10000
00001
00000
00100
00000
00100
00000
,
10001
00000
00010
01000
00001
00000
10000
00010
,
00000
01000
00001
00000
00100
00000
00100
00000
,
00020
00000
00000
00000
02030
00000
00000
03020
,
00000
00000
00000
00000
00100
00000
00100
00030
,
00110
00000
01010
00000
,
10000
00000
00000
10000
00000
00000
10000
00000
00010
00000
00000
00010
00000
00000
00010
00000
,
01000
00010
00100
00001
,
00100
00000
00000
00100
00000
00000
00100
00000
00001
00000
00000
00001
00000
00000
00001
00000
,
01000
00100
10000
00100
,
01000
00000
00000
00100
00000
00000
01000
00000
00010
00000
00000
00100
00000
00000
00010
00000
,
10000
00100
10000
00000
00001
00100
00001
00000
,
10000
00000
00000
00010
00000
00000
10000
00000
00001
00000
00000
01000
00000
00000
00001
00000
,
01001
00000
00000
00000
;

//---------------pump-single - ----------------
#NOTES:
     pump-single:
     :
     Easy:
     34:
     0.231,0.309,0.074,0.028,0.000,165.000,8.000,3.000,0.000,0.000:
00000
00000
00000
00000
,
00000
00000
00000
00000
,
00000
00000
00000
00000
,
00000
00000
00000
00000
,
00000
00000
00000
00000
,
01000
00100
10000
00001
,
00100
00000
00100
00000
,
00010
10000
00001
01000
,
00100
00000
00000
00000
,
10000
00000
00010
00000
,
10000
00000
00010
00000
,
00100
00000
00001
00000
,
00100
00000
00001
00000
,
01000
00000
00100
00000
,
01000
00000
00100
00000
,
10000
00000
00001
00000
,
10000
00000
00001
00000
,
00100
00100
00010
00000
,
01000
00100
10000
00100
,
00010
00010
00100
00000
,
01000
00100
10000
00001
,
00100
00100
00010
00000
,
01000
00010
00100
00001
,
10000
00000
00001
00000
,
00200
00000
00000
00000
,
10300
00010
10000
00001
,
10000
00010
10000
00010
,
10000
00001
10000
00100
,
10000
00010
10000
00010
,
01000
00001
01000
00100
,
01000
00001
01000
00100
,
01000
01000
00010
00010
,
01000
00000
00000
00000
,
10001
00100
01000
00100
,
10000
00010
00000
00000
,
10001
00001
00100
00010
,
00010
00000
00000
00000
,
10001
10001
00100
01000
,
00100
10000
00010
00100
,
01010
01010
00001
10000
,
00001
00100
00010
00100
,
00110
00110
10000
00100
,
01000
00001
01000
00001
,
10000
00000
10000
00000
,
00010
00000
00010
00010
,
00010
00000
01000
00000
,
00001
00000
10000
00100
,
01000
00000
00010
00000
,
00100
00000
00010
10000
,
00001
00000
01000
00000
,
00010
00100
00010
01000
,
00002
00000
20000
00000
,
30003
00100
00000
00100
,
01000
00000
01000
00000
,
00010
00100
00010
00000
,
01000
00001
01000
00000
,
00100
10000
00001
00000
,
00100
00001
10000
00000
,
00010
01000
00100
00000
,
01000
00010
00100
00000
,
00001
10000
00001
01000
,
00100
00000
00000
00000
;

//---------------pump-single - Copied from----------------
#NOTES:
     pump-single:
     Copied from:
     Beginner:
     20:
     0.116,0.196,0.000,0.028,0.000,85.000,0.000,3.000,0.000,0.000:
00000
00000
00000
00000
,
00000
00000
00000
00000
,
00000
00000
00000
00000
,
00000
00000
00000
00000
,
00000
00000
00000
00000
,
00010
00000
01000
00000
,
00010
00000
00000
00000
,
00001
00000
10000
00000
,
00001
00000
00000
00000
,
01000
00000
00000
00000
,
00100
00000
00000
00000
,
10000
00000
00000
00000
,
00010
00000
00000
00000
,
00100
00000
00000
00000
,
00001
00000
00000
00000
,
01000
00000
00000
00000
,
00100
00000
00000
00000
,
10000
10000
00000
00000
,
00010
00000
00000
00000
,
01000
01000
00000
00000
,
00001
00000
00000
00000
,
00100
00100
00000
00000
,
00010
00000
00000
00000
,
10000
00000
00001
00000
,
10000
00000
00000
00000
,
00100
00100
00000
00000
,
00100
00000
00100
00000
,
01000
01000
00000
00000
,
01000
00000
01000
00000
,
00010
00010
00000
00000
,
00010
00000
00010
00000
,
20000
00000
00002
30003
,
00100
00000
00000
00000
,
10000
00000
00000
00000
,
00001
00000
00000
00000
,
01000
00000
00000
00000
,
00010
00000
00000
00000
,
10000
10000
00000
00000
,
00010
00000
00000
00000
,
01000
01000
00000
00000
,
00001
00000
00000
00000
,
00100
00100
00000
00000
,
00010
00000
00000
00000
,
10000
00000
00000
00000
,
00001
00000
00000
00000
,
00100
00000
00010
00000
,
01000
00000
00100
00000
,
10000
00000
00001
00000
,
10000
00000
00010
00000
,
00100
00000
00010
00000
,
01000
00000
00100
00000
,
20000
00000
30001
00000
,
00001
00000
00000
00000
,
00100
00000
00010
00000
,
00100
00000
00001
00000
,
10000
00000
00000
00000
,
01000
00000
00100
00000
,
10000
00000
00000
00000
,
00010
00000
00100
00000
,
00001
00000
00000
00000
,
01000
00000
00100
00000
,
01000
00000
00000
00000
;
