#TITLE:Talk To Me;
#SUBTITLE:;
#ARTIST:Jakazid;
#TITLETRANSLIT:;
#SUBTITLETRANSLIT:;
#ARTISTTRANSLIT:;
#CREDIT:;
#BANNER:talktome-banner.png;
#SONGINFO:talktome-songinfo.png;
#BACKGROUND:talktome-bg.png;
#LYRICSPATH:;
#CDTITLE:./CDTITLES/neon.png;
#CHARACTER:./SongCharacters/jakazid;
#MUSIC:Talk To Me.mp3;
#OFFSET:-0.300;
#SAMPLESTART:74.860;
#SAMPLELENGTH:12.000;
#SELECTABLE:YES;
#BPMS:0.000=180.000;
#STOPS:;
#BGCHANGES:-2.000=visffd320.avi=1.000=1=1=0
;
// cache tags:
#FIRSTBEAT:20.000;
#LASTBEAT:296.021;
#SONGFILENAME:Songs/Neon FM/Talk To Me/Talk To Me.sm;
#HASMUSIC:1;
#HASBANNER:1;
#MUSICLENGTH:100.897;
// end cache tags

//---------------pump-single - ----------------
#NOTES:
     pump-single:
     :
     Hard:
     89:
     0.707,0.807,0.466,0.634,0.278,388.000,47.000,64.000,0.000,0.000:
00000
00000
00000
00000
,
00000
00000
00000
00000
,
00000
00000
00000
00000
,
00000
00000
00000
00000
,
00000
00000
00000
00000
,
00010
00000
01000
00000
00000
00010
01000
00000
,
00100
00000
10000
00000
00001
00010
00001
00000
,
01000
00000
00100
10000
00000
00100
10000
00000
,
00020
00000
00100
00000
00000
00100
00100
00000
,
10030
01000
00000
01000
00000
01000
00000
01000
,
10000
00010
00000
00010
00000
00010
00000
00010
,
00100
00001
00000
00001
00000
00001
00000
00001
,
01000
00100
00000
00100
00000
00100
00000
00100
,
01000
00010
00000
00010
00000
00010
00000
00010
,
10000
01000
00000
01000
00000
01000
00000
01000
,
20000
00000
00000
00000
,
00020
00000
00000
30030
,
01000
00001
00000
00001
00100
00010
01000
00001
,
10000
00000
00000
00100
00000
00000
10000
00000
00000
00000
00010
00000
00100
00000
00000
00000
,
00001
10000
00000
10000
00100
01000
00001
00010
,
00001
00000
00000
00100
00000
00000
00001
00000
00000
00000
01000
00000
00100
00000
00000
00000
,
10000
00100
00000
01000
00010
00100
00001
10000
,
00010
00000
00000
01000
00000
00000
00010
00000
00000
00000
10000
00000
00001
00000
00000
00000
,
01100
00000
00000
01100
00000
00000
01100
00000
00000
00000
01000
00000
00010
00000
00100
00000
,
00110
00000
00000
00110
00000
00000
00110
00000
00000
00000
00010
00000
01000
00000
00001
00000
,
02000
00000
00000
03200
00000
00000
10300
00000
00010
01000
00000
01000
00100
00000
10000
00000
,
00101
00000
00000
00101
00000
00000
00101
00000
00001
00000
10000
00000
00100
00000
10000
00000
,
00020
00000
00000
02030
00000
00000
03001
00000
00100
00010
00000
00010
10000
00000
00100
00000
,
01010
00000
00000
01010
00000
00000
01010
00000
00010
00000
00100
00000
00001
00000
01000
00000
,
00200
00000
00000
20300
00000
00000
30010
00000
00100
00001
00000
00001
01000
00000
00010
00000
,
10100
00000
00000
10100
00000
00000
10100
00000
10000
00000
00010
00000
01000
00000
00001
00000
,
00100
00000
00000
00100
00000
00000
00100
00000
00000
00100
00000
00000
00001
00000
10000
00000
,
01000
00000
00000
01000
00000
00000
01000
00000
00000
01000
00000
00000
10000
00000
00010
00000
,
02000
00000
00000
03200
00000
00000
00310
00000
00002
00000
00000
20003
00000
00000
30010
00000
,
02000
00000
00000
03200
00000
00000
00310
00000
00002
00000
00000
20003
00000
00000
30010
00000
,
02000
00000
00000
03200
00000
00000
00310
00000
00002
00000
00000
20003
00000
00000
30010
00000
,
02000
00000
00000
03200
00000
00000
00310
00000
00002
00000
00000
20003
00000
00000
30010
00000
,
02000
00000
00000
03200
00000
00000
00310
00000
00002
00000
00000
20003
00000
00000
30010
00000
,
02000
00000
00000
03200
00000
00000
00310
00000
00002
00000
00000
20003
00000
00000
30010
00000
,
10100
01010
00101
01010
,
10000
00010
01000
00001
10000
00010
01000
00001
,
00200
00000
00000
00000
,
00310
00100
01000
00100
00000
00010
00100
00001
,
00011
00000
00000
00011
00000
00010
00001
00000
,
10000
01000
00100
01000
00000
10000
00010
01000
,
01100
00000
00000
01100
00000
01000
00100
00000
,
10000
00010
01000
00001
00000
01000
00100
00010
,
00110
00000
00000
01100
00000
01000
00010
00000
,
10000
00001
01000
00010
00000
00100
00001
10000
,
10100
00000
00000
00101
00000
10000
00001
00000
,
20000
30200
20300
30020
,
00230
00302
02003
03002
,
00203
00320
00230
02300
,
23000
30200
02300
03020
,
00230
02300
23000
30002
,
00023
00032
02003
03010
,
01100
00110
10100
00101
,
01000
00000
00000
00100
00000
00000
01000
00000
00000
00100
00000
00000
01000
00000
00001
00000
,
00001
01000
00000
01000
00100
10000
00001
01000
,
00010
00000
00000
00100
00000
00000
00010
00000
00000
00000
10000
00000
00100
00000
00000
00000
,
01000
00010
00000
00010
00100
00001
01000
10000
,
01000
00000
00000
00100
00000
00000
01000
00000
00000
00000
00001
00000
00100
00000
00000
00000
,
00010
00100
00000
00001
10000
00100
01000
00010
,
10000
00000
00000
00001
00000
00000
10000
00000
00000
00000
00010
00000
01000
00000
00000
00000
,
00101
00000
00000
00101
00000
00000
00101
00000
00000
00000
00001
00000
10000
00000
00100
00000
,
10100
00000
00000
10100
00000
00000
10100
00000
00000
00000
10000
00000
00001
00000
01000
00000
,
00002
00000
00000
00203
00000
00000
00310
00000
10000
00001
00000
00001
00100
00000
00010
00000
,
01100
00000
00000
01100
00000
00000
01100
00000
01000
00000
00010
00000
00100
00000
00010
00000
,
20000
00000
00000
30002
00000
00000
01003
00000
00100
10000
00000
10000
00010
00000
00100
00000
,
10001
00000
00000
10001
00000
00000
10001
00000
10000
00000
00100
00000
01000
00000
00001
00000
,
00200
00000
00000
00320
00000
00000
10030
00000
00100
01000
00000
01000
00001
00000
10000
00000
,
00110
00000
00000
00110
00000
00000
00110
00000
00010
00000
10000
00000
00001
00000
01000
00000
,
00100
00000
00000
00100
00000
00000
00100
00000
00000
00100
00000
00000
01000
00000
00010
00000
,
00001
00000
00000
00001
00000
00000
00001
00000
00000
00001
00000
00000
00010
00000
10000
00000
,
10002
00003
00000
00000
00000
00000
00000
00000
00000
00000
00000
00000
00000
00000
00000
00000
00000
00000
00000
00000
00000
00000
00000
00000
00000
00000
00000
00000
00000
00000
00000
00000
00000
00000
00000
00000
00000
00000
00000
00000
00000
00000
00000
00000
00000
00000
00000
00000
00000
00000
00000
00000
00000
00000
00000
00000
00000
00000
00000
00000
00000
00000
00000
00000
00000
00000
00000
00000
00000
00000
00000
00000
00000
00000
00000
00000
00000
00000
00000
00000
00000
00000
00000
00000
00000
00000
00000
00000
00000
00000
00000
00000
00000
00000
00000
00000
00000
00000
00000
00000
00000
00000
00000
00000
00000
00000
00000
00000
00000
00000
00000
00000
00000
00000
00000
00000
00000
00000
00000
00000
00000
00000
00000
00000
00000
00000
00000
00000
00000
00000
00000
00000
00000
00000
00000
00000
00000
00000
00000
00000
00000
00000
00000
00000
00000
00000
00000
00000
00000
00000
00000
00000
00000
00000
00000
00000
00000
00000
00000
00000
00000
00000
00000
00000
00000
00000
00000
00000
00000
00000
00000
00000
00000
00000
00000
00000
00000
00000
00000
00000
00000
00000
00000
00000
00000
00000
00000
00000
00000
00000
00000
00000
;

//---------------pump-single - ----------------
#NOTES:
     pump-single:
     :
     Medium:
     69:
     0.454,0.550,0.079,0.089,0.248,304.000,8.000,9.000,0.000,0.000:
00000
00000
00000
00000
,
00000
00000
00000
00000
,
00000
00000
00000
00000
,
00000
00000
00000
00000
,
00000
00000
00000
00000
,
00100
00100
00000
00000
,
00001
00001
00000
00000
,
10000
10000
00000
00000
,
00100
00100
00000
00000
,
00000
01000
00000
01000
00000
01000
00000
01000
,
00000
00010
00000
00010
00000
00010
00000
00010
,
00000
10000
00000
10000
00000
10000
00000
10000
,
00000
00100
00000
00100
00000
00100
00000
00100
,
00000
01000
00000
01000
00000
01000
00000
01000
,
00000
00001
00000
00001
00000
00001
00000
00001
,
02000
00000
00000
00000
,
00020
00000
00000
03030
,
00100
00010
00000
01000
00001
00000
10000
00000
,
01000
00000
00000
01000
00000
00000
01000
00000
00000
00000
10000
00000
00010
00000
00000
00000
,
00100
00001
00000
00100
00010
00000
10000
00000
,
00001
00000
00000
00001
00000
00000
00001
00000
00000
00000
01000
00000
00100
00000
00000
00000
,
01000
00010
00000
10000
00001
00000
00100
00000
,
00010
00000
00000
00010
00000
00000
00010
00000
00000
00000
10000
00000
00100
00000
00000
00000
,
01000
00000
00000
01000
00000
00000
01000
00000
00000
01000
00000
00000
01000
00000
00010
00000
,
01000
00000
00000
01000
00000
00000
01000
00000
00000
01000
00000
00000
01000
00000
00010
00000
,
00100
00000
00000
00010
00000
00000
01000
00000
00100
00000
01000
00000
00010
00000
00000
00000
,
10000
00000
00000
00100
00000
00000
10000
00000
00000
01000
00000
00000
10000
00000
00000
00000
,
00010
00000
00000
00100
00000
00000
00001
00000
01000
00000
00100
00000
00010
00000
00000
00000
,
00100
00000
00000
01000
00000
00000
00100
00000
00000
01000
00000
00000
00100
00000
00000
00000
,
10000
00000
00000
00001
00000
00000
00100
00000
00010
00000
10000
00000
00100
00000
00000
00000
,
01000
00000
00000
00001
00000
00000
01000
00000
00000
00001
00000
00000
01000
00000
00000
00000
,
00020
00000
00000
00000
,
02030
00000
00000
00000
,
03001
00000
00000
00001
00000
00000
00001
00000
00100
00000
00000
00100
00000
00000
00100
00000
,
00010
00000
00000
00010
00000
00000
00010
00000
01000
00000
00000
01000
00000
00000
01000
00000
,
00001
00000
00000
00001
00000
00000
00001
00000
00100
00000
00000
00100
00000
00000
00100
00000
,
00010
00000
00000
00010
00000
00000
00010
00000
01000
00000
00000
01000
00000
00000
01000
00000
,
00001
00000
00000
00001
00000
00000
00001
00000
00100
00000
00000
00100
00000
00000
00100
00000
,
00010
00000
00000
00010
00000
00000
00010
00000
01000
00000
00000
01000
00000
00000
01000
00000
,
00001
10000
00001
10000
,
00010
01000
00010
01000
00010
01000
00010
01000
,
00200
00000
00000
00000
,
10300
00001
00100
00010
,
01000
00000
00100
01000
00000
00100
01000
00000
,
00001
01000
00100
10000
,
00010
00000
00100
00010
00000
00100
00010
00000
,
01000
00001
00010
00001
,
10000
00000
00100
10000
00000
00100
10000
00000
,
00010
00100
00001
01000
,
00001
00000
00100
00001
00000
00100
00001
00000
,
10010
00000
00000
00000
,
00001
00000
00000
00001
00000
00000
00002
00000
00000
00000
00000
00000
00003
00000
00000
00000
,
01010
00000
00000
00000
,
10000
00000
00000
10000
00000
00000
20000
00000
00000
00000
00000
00000
30000
00000
00000
00000
,
01001
00000
00100
00000
,
10001
00000
00100
00000
,
01010
01010
01010
01010
,
10000
00000
00000
00001
00000
00000
10000
00000
00000
00001
00000
00000
10000
00000
00001
00000
,
00100
00001
00000
10000
00010
00000
01000
00000
,
10000
00000
00000
10000
00000
00000
10000
00000
00000
00000
01000
00000
00001
00000
00000
00000
,
00100
00010
00000
00100
00001
00000
01000
00000
,
00010
00000
00000
00010
00000
00000
00010
00000
00000
00000
10000
00000
00100
00000
00000
00000
,
10000
00001
00000
01000
00010
00000
00100
00000
,
00001
00000
00000
00001
00000
00000
00001
00000
00000
00000
01000
00000
00100
00000
00000
00000
,
10000
00000
00000
10000
00000
00000
10000
00000
00000
10000
00000
00000
10000
00000
00001
00000
,
10000
00000
00000
10000
00000
00000
10000
00000
00000
10000
00000
00000
10000
00000
00001
00000
,
00100
00000
00000
00001
00000
00000
10000
00000
00100
00000
10000
00000
00001
00000
00000
00000
,
01000
00000
00000
00100
00000
00000
01000
00000
00000
10000
00000
00000
01000
00000
00000
00000
,
00001
00000
00000
00100
00000
00000
00010
00000
10000
00000
00100
00000
01000
00000
00000
00000
,
00100
00000
00000
10000
00000
00000
00100
00000
00000
10000
00000
00000
00100
00000
00000
00000
,
01000
00000
00000
00010
00000
00000
00100
00000
00001
00000
01000
00000
00100
00000
00000
00000
,
10000
00000
00000
00010
00000
00000
10000
00000
00000
00010
00000
00000
10000
00000
00000
00000
,
00002
10000
10000
10000
,
20003
00000
00000
00010
00000
00000
00010
00000
00000
00010
00000
00000
00010
00000
00010
00000
,
30010
00000
00000
00000
;

//---------------pump-single - ----------------
#NOTES:
     pump-single:
     :
     Easy:
     36:
     0.252,0.330,0.020,0.020,0.000,174.000,2.000,2.000,0.000,0.000:
00000
00000
00000
00000
,
00000
00000
00000
00000
,
00000
00000
00000
00000
,
00000
00000
00000
00000
,
00000
00000
00000
00000
,
00010
00000
00000
00000
,
00100
00000
00000
00000
,
00001
00000
00000
00000
,
01000
00000
00000
00000
,
00100
00000
00000
00000
,
10000
00000
00000
00000
,
00010
00000
00000
00000
,
00100
00000
00000
00000
,
01000
00000
00000
00000
,
00100
00000
00000
00000
,
00020
00000
00000
00000
,
20000
00000
00000
30030
,
10001
00100
01000
00100
,
10000
00010
00100
00001
,
01000
00001
10000
00100
,
01000
00100
10000
00010
,
10000
00010
00100
00010
,
01000
00010
01000
00100
,
10000
00001
10000
00001
,
01000
00010
01000
00010
,
00100
00001
00100
00001
,
00001
00001
00001
00001
,
10000
00010
01000
00100
,
00100
00100
00100
00100
,
01000
00010
10000
00010
,
00100
00100
00100
00100
,
00001
00000
10000
00000
,
00100
00000
01000
00000
,
00010
00000
00000
00000
,
10000
00000
00000
00000
,
00001
00000
00000
00000
,
00100
00000
00000
00000
,
00001
00000
00001
00000
,
01000
00000
01000
00000
,
00010
00010
10000
10000
,
00100
00100
01000
01000
,
10001
00000
00000
00000
,
00100
00000
00000
00000
,
01000
00000
00000
00000
,
00001
00000
00000
00000
,
00100
00000
00000
00000
,
00010
00000
00000
00000
,
10000
00000
00000
00000
,
00001
00000
00000
00000
,
01000
00000
00000
00000
,
00100
00000
00000
00000
,
10000
00000
00000
00000
,
00010
00000
00000
00000
,
00100
00000
00000
00000
,
00001
00000
00000
00000
,
00100
00000
00000
00000
,
00010
01000
00010
01000
,
00010
00010
00010
00010
,
10000
00100
01000
00100
,
10000
00010
00100
00010
,
10000
00001
01000
00010
,
10000
00010
00100
00001
,
00010
00100
00010
00001
,
10000
01000
00100
01000
,
10000
10000
00010
00010
,
01000
01000
00001
00001
,
00100
00010
10000
00010
,
01000
00100
00010
00100
,
01000
00001
10000
00010
,
01000
00001
00100
00010
,
00100
00001
01000
00100
,
10000
00100
01000
00010
,
00100
00000
00001
00000
,
10000
00100
01000
00010
,
00100
00000
00000
00000
;

//---------------pump-single - Copied from----------------
#NOTES:
     pump-single:
     Copied from:
     Beginner:
     21:
     0.127,0.220,0.010,0.000,0.000,89.000,1.000,0.000,0.000,0.000:
00000
00000
00000
00000
,
00000
00000
00000
00000
,
00000
00000
00000
00000
,
00000
00000
00000
00000
,
00000
00000
00000
00000
,
01000
00000
00000
00000
,
00001
00000
00000
00000
,
10000
00000
00000
00000
,
00100
00000
00000
00000
,
10000
00000
00000
00000
,
00010
00000
00000
00000
,
01000
00000
00000
00000
,
00010
00000
00000
00000
,
10000
00000
00000
00000
,
00001
00000
00000
00000
,
00100
00000
00000
00000
,
00010
00000
00000
00000
,
10000
00100
00000
00000
,
01000
00010
00000
00000
,
00100
00001
00000
00000
,
01000
00010
00000
00000
,
00100
10000
00000
00000
,
00100
00001
00000
00000
,
01000
00010
00000
00000
,
00010
01000
00000
00000
,
10000
01000
00000
00000
,
10000
00100
00000
00000
,
00010
01000
00000
00000
,
00001
10000
00000
00000
,
00010
00100
00000
00000
,
00001
10000
00000
00000
,
00001
00000
10000
00000
,
00001
00000
10000
00000
,
00100
00000
00000
00000
,
01000
00000
00000
00000
,
00010
00000
00000
00000
,
10000
00000
00000
00000
,
00100
00000
00000
00000
,
01000
00000
00000
00000
,
00001
00000
00000
00000
,
00100
00000
00000
00000
,
10000
00000
00000
00000
,
00000
00000
00000
00000
,
00001
00000
00000
00000
,
00000
00000
00000
00000
,
00100
00000
00000
00000
,
00000
00000
00000
00000
,
00010
00000
00000
00000
,
00000
00000
00000
00000
,
01000
00000
00000
00000
,
00001
00000
00000
00000
,
00000
00000
00000
00000
,
10000
00000
00000
00000
,
00000
00000
00000
00000
,
00100
00000
00000
00000
,
00000
00000
00000
00000
,
01000
00000
00010
00000
,
01000
00000
00010
00000
,
01000
00000
00000
00000
,
00001
00000
00000
00000
,
10000
00000
00000
00000
,
00100
00000
00000
00000
,
01000
00000
00000
00000
,
00010
00000
00000
00000
,
00100
00000
00000
00000
,
00010
00000
00000
00000
,
01000
00100
00000
00000
,
10000
00001
00000
00000
,
01000
00010
00000
00000
,
00100
00001
00000
00000
,
10000
00010
00000
00000
,
01000
00001
00000
00000
,
00100
00010
00000
00000
,
01000
00100
00000
00000
,
01010
00000
00000
00000
;
