#TITLE:Spaceman;
#SUBTITLE:;
#ARTIST:Lynn;
#TITLETRANSLIT:;
#SUBTITLETRANSLIT:;
#ARTISTTRANSLIT:;
#GENRE:Bubblegum Dance;
#CREDIT:;
#BANNER:Space Man-banner.png;
#BACKGROUND:Space Man-bg.png;
#LYRICSPATH:;
#CDTITLE:;
#MUSIC:Spaceman.ogg;
#OFFSET:0.006;
#SAMPLESTART:55.940;
#SAMPLELENGTH:11.860;
#SELECTABLE:YES;
#BPMS:0.000=137.000;
#STOPS:;
#BGCHANGES:0.000=Space Man-bg.png=1.000=0=0=1=====,
16.000=In The Groove 2/973_JumpBack.mpg=1.000=0=0=1=====,
32.000=738_JumpBack.mpg=1.000=0=0=1=====,
48.000=In The Groove 2/770_JumpBack.mpg=1.000=0=0=1===FadeLeft==,
64.000=In The Groove 2/966_JumpBack.mpg=1.000=0=0=1===SlideLeft==,
80.000=In The Groove 2/462_JumpBack.mpg=1.000=0=0=1===SlideRight==,
96.000=In The Groove 2/643_JumpBack.mpg=1.000=0=0=1===FadeUp==,
112.000=In The Groove 2/446_JumpBack.mpg=1.000=0=0=1===FadeDown==,
128.000=738_JumpBack.mpg=1.000=0=0=1=====,
144.000=In The Groove 2/770_JumpBack.mpg=1.000=0=0=1===FadeLeft==,
160.000=In The Groove 2/446_JumpBack_1.mpg=1.000=0=0=1=====,
176.000=In The Groove 2/973_JumpBack.mpg=1.000=0=0=1===FadeRight==,
192.000=In The Groove 2/446_JumpBack_1.mpg=1.000=0=0=1=SongBgWithMovieViz====,
208.000=In The Groove 2/643_JumpBack.mpg=1.000=1=0=1=SongBgWithMovieViz==CrossFade=1^0^1^1=,
224.000=Space Man-bg.png=1.000=0=0=1=====,
99999=-nosongbg-=1.000=0=0=0 // don't automatically add -songbackground-
;
#BGCHANGES2:16.000=flash=1.000=0=0=1=====,
32.000=flash=1.000=0=0=1=====,
128.000=flash=1.000=0=0=1=====,
160.000=flash=1.000=0=0=1====1^1^0^1=,
192.000=flash=1.000=0=0=1=====,
224.000=flash=1.000=0=0=1=====,
;
#KEYSOUNDS:;
// cache tags:
#FIRSTBEAT:16.000;
#LASTBEAT:227.000;
#SONGFILENAME:/Songs/In The Groove 2/Spaceman/Spaceman.sm;
#HASMUSIC:1;
#HASBANNER:1;
#MUSICLENGTH:101.605;
// end cache tags

//---------------dance-single - K.W----------------
#NOTES:
     dance-single:
     K.W:
     Hard:
     7:
     0.419,0.000,0.325,0.157,0.054,249.000,33.000,16.000,6.000,0.000,0.000:
0000
0000
0000
0000
,
0000
0000
0000
0000
,
0000
0000
0000
0000
,
0000
0000
0000
0000
,
0001
0000
0010
0000
0001
0001
0000
0001
,
0000
0100
1000
0100
0002
0000
0013
0000
,
1000
0000
0100
0000
0010
0100
0000
1000
,
1001
0000
0000
0000
,
1001
0110
1001
0110
,
0002
0010
0013
0000
2000
0100
3100
0000
,
0001
0100
1000
0000
1000
0100
0001
0000
,
2000
0010
3100
0000
,
1001
0110
1001
0110
,
0001
0010
0100
0020
0000
0001
0031
0000
,
1000
0100
0010
0000
0010
0100
1000
0000
,
0002
0100
0013
0000
,
1000
0100
0010
0100
1000
0000
0000
0000
,
0001
0010
0001
0100
1000
0000
0100
0000
,
0001
0000
0010
0000
0001
0000
0000
0000
0011
0000
0000
0000
0000
00MM
0000
0000
,
1000
0000
0100
0000
1000
0000
0000
0000
1100
0000
0000
0000
0000
MM00
0000
0000
,
0001
0000
0000
0001
0100
0000
0001
0000
0010
0000
0000
0000
0001
0000
0000
0000
,
0010
0000
0000
0100
1000
0000
0010
0000
0100
0000
0000
0000
0001
0000
0000
0000
,
0010
0000
0001
0000
1000
1100
0000
0000
,
1000
0000
0010
0000
0100
0110
0000
0000
,
0000
0000
1000
0100
0010
0000
0100
1000
,
0010
0100
0001
0002
0000
0000
0003
0000
,
0100
0000
1000
0000
0100
0000
0010
0100
,
0000
0011
0000
0220
0000
0000
0330
0000
,
0MM0
0000
0001
0100
0010
0000
0100
0001
,
0010
0000
0100
2000
0000
3100
0000
0000
,
0010
0001
0100
1000
,
1001
0000
0000
0000
,
1001
0110
1001
0110
,
1000
0100
0010
0200
0000
1000
1300
0000
,
0010
0100
0001
0000
0010
0001
1000
0000
,
0010
0100
0001
0010
0200
0000
0300
0000
,
1001
0110
1001
0110
,
0001
0001
0001
0000
1000
1000
1000
0000
,
0001
0100
1000
0000
1000
0100
0001
0000
,
2000
0010
3100
0000
,
1000
0000
0000
1000
0010
0000
0000
0000
0100
0000
0001
0000
0010
0000
0000
0000
,
0001
0001
0001
0000
1000
1000
1000
0000
,
0010
0000
0000
0010
0100
0000
0000
0000
0001
0000
0010
0000
0001
0000
0000
0000
,
0100
1000
0010
0001
,
1000
0000
0000
1000
0100
0000
0000
0000
0010
0000
0100
0000
0010
0000
0000
0000
,
0001
0000
0000
0001
0100
0000
0000
0000
0010
0000
0100
0000
1000
0000
0100
0000
,
0001
0000
0000
0001
0010
0000
0000
0000
0100
0000
0010
0000
0001
0000
0000
0000
,
0100
1000
0010
0001
,
1001
0011
1100
0110
,
0001
0000
0001
0000
0001
0000
0000
0000
1000
0000
0000
1000
0000
0000
1000
0000
,
0010
0100
0001
0000
0010
0001
0000
0010
,
0100
1000
0020
0130
,
1001
1100
0011
0110
,
0001
0000
0010
0000
0001
0000
0000
0000
1000
0000
0000
1000
0000
0000
1000
0000
,
0010
0100
0001
0000
0010
0100
1000
0000
,
0010
0001
0100
1000
,
2002
0000
3003
0000
;

//---------------dance-single - K.W----------------
#NOTES:
     dance-single:
     K.W:
     Easy:
     3:
     0.224,0.000,0.079,0.039,0.000,147.000,8.000,4.000,0.000,0.000,0.000:
0000
0000
0000
0000
,
0000
0000
0000
0000
,
0000
0000
0000
0000
,
0000
0000
0000
0000
,
0001
0000
1000
0000
,
0010
0010
0100
0000
,
0001
0000
1000
0000
,
1001
0000
0000
0000
,
0010
0010
0010
0010
,
1000
0001
1000
1000
,
0001
0010
0001
1000
,
0020
0000
0030
0000
,
0001
0001
0001
0001
,
1000
0001
0100
0100
,
0001
1000
0100
0010
,
0200
0000
0300
0000
,
1000
0001
0001
0000
,
0100
0001
0001
0000
,
1000
1000
1000
0000
,
0001
0001
0001
0000
,
1000
0100
0010
0000
,
0010
0100
1000
0000
,
0001
1000
1001
0000
,
0010
0100
0110
0000
,
0001
0010
0001
0000
,
1000
0100
1000
0000
,
0010
0001
0100
1000
,
1001
0000
0000
0000
,
1000
1000
1000
0000
,
0010
0100
0100
0000
,
0010
0001
0100
1000
,
1001
0000
0000
0000
,
0010
0010
0010
0010
,
1000
0010
0100
0000
,
0001
0000
0010
0000
,
0100
0010
0001
0000
,
1000
1000
1000
1000
,
0001
0010
0001
0000
,
1000
0010
0100
0001
,
0010
0010
0010
0000
,
0001
0001
0001
0001
,
1000
0000
0010
0000
,
0100
0100
0001
0000
,
0001
0001
1000
0000
,
0100
0100
0100
0100
,
0010
0000
0100
0000
,
1000
0010
0100
0000
,
1100
0000
0011
0000
,
1000
1000
1000
1000
,
0000
0000
0000
0000
,
2000
0000
3100
0000
,
0002
0000
0013
0000
,
0001
0001
0001
0001
,
0000
0000
0000
0000
,
1000
1000
0010
0000
,
1000
0000
0001
0000
,
1001
0000
0000
0000
;

//---------------dance-single - K.W----------------
#NOTES:
     dance-single:
     K.W:
     Medium:
     5:
     0.350,0.000,0.246,0.118,0.000,212.000,25.000,12.000,0.000,0.000,0.000:
0000
0000
0000
0000
,
0000
0000
0000
0000
,
0000
0000
0000
0000
,
0000
0000
0000
0000
,
1000
0001
0010
0001
,
1000
0100
1000
1000
,
0010
0100
0010
1000
,
1001
0000
0000
0000
,
1001
0001
1001
1000
,
0001
0010
0001
0000
1000
0100
1000
0000
,
0010
0100
0001
0010
,
0200
0010
0310
0000
,
0110
0011
0110
1100
,
0001
0000
0001
0000
1000
0010
0100
0000
,
0010
0100
1000
0100
,
0002
0100
0013
0000
,
0001
0010
0001
0010
0001
0000
0000
0000
,
0100
1000
0100
1000
0100
0000
0000
0000
,
0001
0000
1000
0000
0100
1100
0000
0000
,
0010
0000
0100
0000
0001
0011
0000
0000
,
0100
1000
0100
0010
0100
0000
0000
0000
,
0001
0010
0100
0010
0001
0000
0000
0000
,
1100
0110
0011
0000
,
1001
0110
1100
0000
,
0000
0000
0010
0100
0001
0000
0001
0000
,
1000
0100
1000
0200
0000
0000
0300
0000
,
0010
0001
0100
1000
,
1001
1001
0000
0000
,
0010
0100
0001
0000
0100
0010
1000
0000
,
0010
0100
0001
0010
0000
0011
0000
0000
,
0100
1000
0010
0001
,
1001
0000
0000
0000
,
0011
0001
1100
1000
,
0010
0100
1000
0000
0100
0001
0010
0000
,
0001
0001
1000
1000
,
0200
0000
0300
0000
,
0010
0001
0010
0000
0100
1000
0100
0000
,
0010
0010
0001
0100
,
0010
0010
0010
0010
,
0200
0000
0300
0000
,
0001
1000
0001
0000
0010
0100
0010
0000
,
1000
0001
1000
0000
0100
0010
0100
0000
,
0001
1000
0001
0000
0010
0100
0010
0000
,
0002
0000
0000
0010
0013
0000
1100
0000
,
0010
0100
0001
0000
0010
0001
1000
0000
,
0010
0001
0100
1000
,
1001
2002
0000
3003
,
0010
0100
1000
0001
,
1000
1000
2000
0000
,
3010
0010
0100
0100
,
0001
0000
0001
0000
0001
0001
0000
1000
,
1000
0000
0010
0100
0001
0000
1000
0000
,
0001
0001
1000
1000
,
0010
0100
0001
0000
0010
0100
0010
0000
,
0001
0002
0000
0003
,
0100
1000
0100
0010
,
2002
0000
3003
0000
;

//---------------dance-single - K. Ward----------------
#NOTES:
     dance-single:
     K. Ward:
     Challenge:
     9:
     0.588,0.000,0.207,0.276,0.379,369.000,21.000,28.000,4.000,12.000,0.000:
0000
0000
0000
0000
,
0000
0000
0000
0000
,
0000
0000
0000
0000
,
0000
0000
0000
0000
,
1000
0100
0001
0100
1000
0010
0100
0001
,
0100
0000
1000
0000
0100
0000
0001
0010
0000
0010
0100
0000
0010
0000
0001
0100
,
0010
0000
0110
0000
0011
1100
0000
0110
,
2200
0000
0000
0000
0001
0000
0010
3300
,
1000
0001
1000
0000
0010
0000
0100
0000
0001
1000
0001
0000
0100
0000
1000
0000
,
0100
0001
0010
0001
0100
0001
0010
0000
,
0001
0100
1000
0000
0100
0001
0010
0000
,
0100
0010
0100
0010
0002
0000
1003
0000
,
0100
1000
0100
0000
0010
0000
0100
0000
0010
0001
0010
0000
0100
0000
0010
0000
,
0200
1300
0020
0130
,
0001
0100
1000
0100
0001
0010
0100
0010
,
0002
2000
0010
3003
,
1000
0000
1000
0100
1000
0000
0010
0100
0020
0000
0000
0000
0030
0000
1000
0001
,
1000
0000
0010
0100
0010
0000
1000
0100
2000
0000
0000
0000
3001
0000
0000
0000
,
0001
0000
1000
0100
1000
0000
0010
0100
0001
0000
0010
0000
0000
0000
0000
0000
,
0100
0000
0010
0000
0100
0000
1000
0001
1000
0000
0010
0000
0000
0000
0000
0000
,
1000
0100
0000
0100
1000
0000
0000
0000
0010
0100
0000
0100
0001
0000
0000
0000
,
0010
0000
0000
0010
0001
0000
0000
0001
0100
0000
0000
0100
0010
0000
0100
0000
,
0001
0000
1000
0000
0001
1000
0000
0000
0010
0000
0100
0000
0001
0010
0000
0000
,
0001
0000
0100
0000
1000
0000
0100
0000
0001
0000
1000
0010
0000
0010
0100
0000
,
0002
0010
0013
0000
0020
0100
0130
0000
,
0200
1000
1300
0000
0020
0100
0130
0000
,
0001
0100
1000
0100
0001
0100
1000
0200
,
0000
0010
0000
1000
0000
0010
0310
0000
,
1001
0000
0000
0000
1000
0100
1000
0100
1000
0000
0000
0000
0010
0000
0100
0000
,
0011
0000
0110
2200
0000
3300
MM00
0000
,
0001
0100
1000
0100
0001
0100
1000
0100
,
0002
0000
2000
0000
0010
0000
0010
3003
,
0100
1000
0000
0000
0100
0010
0000
0000
0010
0001
0000
0000
0001
1000
0000
0000
,
0010
0100
1000
0100
0001
0010
0001
0100
,
1000
0100
0001
0000
1000
0010
0001
0000
,
0001
0010
1000
0010
0002
0010
0013
0000
,
0001
1000
0001
0000
0011
0000
0000
0000
1000
0001
1000
0000
1100
0000
0000
0000
,
0100
0010
0100
1000
0100
0001
0010
0012
,
0000
0013
0200
0000
0301
0100
0010
0100
,
1000
0000
0100
0000
0001
0000
0010
0000
0001
0000
0000
0000
1000
0100
1000
0100
,
1000
0000
0000
1000
0100
0000
0000
0100
1000
0000
0000
1000
0010
0000
0000
0010
,
0001
0000
0000
0001
1000
0000
0000
1000
0100
0000
0000
0100
1000
0000
0000
1000
,
0001
0000
0000
0001
1000
0000
0000
1000
0100
0000
0000
0100
1000
0000
0000
1000
,
0010
0000
0000
0010
0001
0000
0000
0001
0100
0000
0000
0100
1000
0000
0000
1000
,
0001
0000
0000
0001
0010
0000
0000
0010
0001
0000
0000
0001
0100
0000
0000
0100
,
0010
0000
0000
0010
0001
0000
0000
0001
0100
0000
0000
0100
1000
0000
0000
1000
,
0001
0000
0000
0001
0010
0000
0000
0010
0001
0000
0000
0001
0100
0000
0000
0100
,
1000
0000
0000
1000
0001
0000
0000
0001
1000
0000
0000
1000
0002
0000
0000
0000
,
0013
0001
0100
1000
0100
0001
0010
0001
,
0000
0000
1000
0000
0100
0000
1000
0000
1100
0000
0000
0011
0000
0000
0010
0000
,
0220
0000
0001
0000
1000
0000
0001
0330
,
2200
0000
0001
0000
0010
0000
0001
3300
,
1000
0000
1000
0000
0010
0000
0100
0001
0000
0001
0010
0000
0001
0000
0100
0000
,
1000
0000
0100
0000
0001
0000
0000
0010
0000
0100
0000
0010
0001
0000
1000
0000
,
0100
0000
0010
0000
0100
0000
0000
1000
0000
0001
0000
0010
0001
0000
0100
0000
,
0100
0000
0010
0000
1100
0000
0000
MM00
0000
0000
0011
0000
1001
0000
0000
0000
,
0220
0000
1001
0330
;

//---------------dance-single - ----------------
#NOTES:
     dance-single:
     :
     Beginner:
     1:
     0.115,0.000,0.049,0.000,0.000,77.000,5.000,0.000,0.000,0.000,0.000:

0000
0000
0000
0000
,
0000
0000
0000
0000
,
0000
0000
0000
0000
,
0000
0000
0000
0000
,
1000
0000
0000
0000
,
0001
0000
0000
0000
,
0010
0000
0000
0000
,
1001
0000
0000
0000
,
1000
0000
1000
0000
,
0001
0000
0000
0000
,
0100
0000
0100
0000
,
0010
0000
0000
0000
,
1000
0000
1000
0000
,
0001
0000
0000
0000
,
0010
0000
0100
0000
,
0010
0000
1001
0000
,
1000
0000
0000
0000
,
0001
0000
0000
0000
,
0010
0000
0010
0000
,
0001
0000
0001
0000
,
1000
0000
0000
0000
,
0010
0000
0010
0000
,
0100
0000
0000
0000
,
0010
0000
0000
0000
,
1000
0000
0000
0000
,
0001
0000
0000
0000
,
1000
0000
0000
0000
,
0110
0000
0000
0000
,
0001
0000
1000
0000
,
0001
0000
0000
0000
,
1000
0000
0100
0000
,
1001
0000
0000
0000
,
0001
0000
0001
0000
,
1000
0000
0000
0000
,
1000
0000
0001
0000
,
0010
0000
0000
0000
,
0001
0000
1000
0000
,
0001
0000
0000
0000
,
1000
0000
0100
0000
,
1000
0000
0000
0000
,
0001
0000
0001
0000
,
1000
0000
1000
0000
,
0010
0000
0010
0000
,
0100
0000
0100
0000
,
0001
0000
1000
0000
,
0001
0000
0001
0000
,
0010
0000
0010
0000
,
0001
0000
0000
0000
,
1000
0000
0000
0000
,
1000
0000
0000
0000
,
1000
0000
0000
0000
,
0010
0000
0100
0000
,
0001
0000
0000
0000
,
0001
0000
0000
0000
,
1000
0000
0001
0000
,
1000
0000
0001
0000
,
1001
0000
0000
0000
;

//---------------dance-double - J.Casarino----------------
#NOTES:
     dance-double:
     J.Casarino:
     Challenge:
     9:
     0.613,0.000,0.364,0.138,0.320,385.000,37.000,14.000,44.000,1.000,0.000:
00000000
00000000
00000000
00000000
,
00000000
00000000
00000000
00000000
,
00000000
00000000
00000000
00000000
,
00000000
00000000
00000000
00000000
,
00001000
00000000
00000100
00000000
00001000
00000000
00000010
00000100
00000000
000001M0
00000000
00000100
00000001
00000000
00000010
00000000
,
00001000
00000000
00010000
00000000
00001000
00000000
01000000
00010000
00000000
0M010000
00000000
00010000
00100000
00000000
01000000
00000000
,
10000000
00000000
00100000
00000000
10000000
00000000
01000000
00010000
00000000
0M010000
00000000
00010000
00001000
00000000
00000010
00000000
,
00000100
00000000
00010000
00000000
00000100
00000000
00000010
00001000
00000000
000010M0
00000000
00001000
00010000
00000000
00100000
00000000
,
01100000
0MM00000
00011000
000MM000
00000110
00000MM0
00011000
000MM000
,
00000010
00010000
00000100
00000010
00000000
00001000
00100000
00010000
,
00000000
01000000
00100000
10000000
00001000
01000000
00010000
10000000
,
01000000
00000000
00100000
00000000
00010000
00000000
00100000
00001000
00010000
00000000
00000010
00000000
00000100
00000000
00000000
00000000
,
00001001
0000M00M
00011000
000MM000
10001000
M000M000
00011000
000MM000
,
00100000
00001000
01000000
00100000
00000000
00010000
00000010
00000100
,
00000000
00000001
00000010
00001000
00010000
00000100
00010000
00000010
,
00000100
00001000
00010000
00001000
00202000
00000000
00303000
00000000
,
00100000
00000000
00001000
00010000
00001000
00000000
00000100
00000000
00000010
00000000
00000100
00000000
00001000
00000000
00010000
00000000
,
00001000
00000000
00100000
01000000
00100000
00000000
10000000
00000000
00100000
00000000
00010000
00000000
01000000
00000000
00100000
00000000
,
10000000
01000000
00010000
00001000
00011000
00010100
00000000
00000010
,
00000001
00000100
00000010
00001000
00001001
00000101
00000000
00000001
,
00000010
00000000
00000001
00000100
00000001
00000000
00001000
00000000
00000100
00000000
00010000
00000000
00001000
00000000
00100000
00000000
,
00010000
00000000
01000000
00100000
01000000
00000000
00001000
00000000
00100000
00000000
00001000
00000000
00000010
00000000
00000001
00000000
,
00000100
00001000
00010000
00001000
00101000
00110000
00000000
01000000
,
10000000
00100000
01000000
00010000
10010000
00110000
00000000
00000000
,
01010000
00000000
00101000
00001000
00010000
00000000
01000000
10000000
,
00100000
00010000
00001000
00020000
00000000
00001000
00001000
00001000
,
00031000
00000000
00000001
00000100
00001000
00000100
00000010
00000100
,
00000001
00001000
00000010
00000100
00000010
00000001
00000100
00000000
,
00001010
00000000
00010100
00001000
00000010
00000000
00000100
00001000
,
00010000
00000100
00010000
00200000
00000000
10000000
10000000
10000000
,
10300000
00000000
01000000
00100000
00010000
10000000
01000000
00100000
,
00022000
00000000
00100010
00033000
,
00101000
00M0M000
01001000
0M00M000
00010010
000M00M0
00010100
000M0M00
,
00001000
00100000
00010000
01000000
00000000
00010000
00100000
01000000
,
00000000
10000000
00100000
00010000
00001000
00010000
00000001
00000100
,
00000010
00000000
00000001
00000000
00000010
00000000
00000100
00001000
00010000
00000000
00000010
00000000
00001000
00000000
00000000
00000000
,
00010010
000M00M0
00101000
00M0M000
01001000
0M00M000
00010100
000M0M00
,
00010000
00100000
10000000
01000000
00000000
10000000
00100000
00010000
,
00000000
00100000
00010000
00000010
00000001
00000010
00010000
00100000
,
01000000
00000000
10000000
00000000
01000000
00000000
00010000
10000000
00010000
00000000
00100000
00000000
00101000
00000000
00000000
00000000
,
00100000
00000000
00010000
10000000
00100000
00000000
01000000
00010000
00000000
0M010000
00000000
00010000
00100000
00000000
00001000
00000000
,
00010000
00000000
00000010
00000000
00001000
00000000
00000001
00000010
00000000
0000001M
00000000
00000010
00001000
00000000
00010000
00000000
,
00000010
00000000
00001000
00000100
00010000
00000000
00001000
00000010
00000000
0000M010
00000000
00000010
00001000
00000000
00010000
00000000
,
00000100
00000000
01000000
00000000
00001000
00000000
00010000
01000000
00000000
010M0000
00000000
01000000
10000000
00000000
00100000
00000000
,
10000000
00000000
01000000
00100000
00010000
00000000
01000000
00100000
00000000
0M100000
00000000
00100000
00010000
00000000
00001000
00000000
,
00010000
00000000
00000100
00000000
00001000
00000000
00000010
00000100
00000000
000001M0
00000000
00000100
00001000
00000000
00010000
00000000
,
00001000
00000000
00000100
00000010
00001000
00000000
00000100
00010000
00000000
00010M00
00000000
00010000
00000010
00000000
00010000
00000000
,
00001000
00000000
00000010
00000000
00000001
00000000
00000010
00001000
00000000
000010M0
00000000
00001000
00010000
00000000
00100000
00000000
,
20000000
30002000
00023000
00030002
,
00000103
00000000
00000010
00000000
00000100
00000000
00000000
00000001
00000000
00001000
00000000
00000010
00000100
00000000
00000010
00000000
,
00010000
00000000
00001000
00000000
00010000
00000000
00000000
01000000
00000000
10000000
00000000
00010000
10000000
00000000
00100000
00000000
,
01000000
00000000
00100000
00000000
00010000
00000000
00000000
00001000
00000000
00010000
00000000
00000100
00000010
00000000
00000001
00000000
,
00000012
00002003
00023000
20030000
,
30100000
00000000
00010000
00000000
00001000
00000000
00000000
00010000
00000000
00000010
00000000
00001000
00000100
00000000
00000010
00000000
,
00000001
00000000
00000100
00000000
00000001
00000000
00000000
00000010
00000000
00001000
00000000
00010000
00001000
00000000
01000000
00000000
,
00001000
00000000
00010000
00000000
01000000
00000000
00000000
10000000
00000000
00100000
00000000
00010000
00001000
00000000
00010000
00000000
,
00101000
00011000
00001100
01001000
;

//---------------dance-double - ----------------
#NOTES:
     dance-double:
     :
     Hard:
     7:
     0.422,0.000,0.571,0.000,0.000,242.000,58.000,0.000,0.000,0.000,0.000:
00000000
00000000
00000000
00000000
,
00000000
00000000
00000000
00000000
,
00000000
00000000
00000000
00000000
,
00000000
00000000
00000000
00000000
,
10010000
00000000
11000000
00000000
10000000
01000000
00000000
00100000
,
00000000
00010000
01000000
00010000
00000000
01000000
00001000
00000000
,
00011000
00000000
00001100
00000000
00000010
00000001
00000000
00000100
,
00000000
00000010
00001000
00000010
00000000
00010000
00001000
00000000
,
10010000
00110000
01010000
10100000
,
10000000
01000000
00100000
00010000
00000000
00100000
00001000
00000000
,
00010000
00001000
00010000
00000000
00000100
00000010
00000000
00000001
,
00000000
00000101
00000000
00001010
00000000
00010000
00001000
00000000
,
10010000
00110000
00011000
00001100
,
00000010
00000001
00000100
00000010
00000000
00001000
00000100
00000000
,
00010000
00001000
00010000
00000000
00001000
00100000
00000000
01000000
,
00000000
10010000
00000000
10100000
00000000
10000000
01000000
00000000
,
10000000
00000000
00010000
00000000
01000000
00000000
00100000
10000000
,
00000000
00010000
00100000
00000000
00001000
00000000
00010000
00000000
,
00001100
00000000
00000011
00000000
00000001
00000100
00000001
00000000
,
00001010
00000000
00011000
00000000
01000000
00100000
01000000
00000000
,
00010000
00000000
10000000
00000000
01000000
00000000
00100000
00010000
,
00000000
00100000
00001000
00000000
00010000
00000000
00001000
00000000
,
00001100
00000000
00000011
00000000
00000100
00000010
00000100
00000000
,
00001010
00000000
00011000
00000000
00100000
01000000
00100000
00000000
,
00010000
01000000
00100000
00000000
10000000
00000000
01000000
00000000
,
00110000
00000000
00010000
01000000
00000000
10000000
01000000
00000000
,
00010000
00000000
10010000
00000000
10000000
00000000
01000000
00100000
,
00000000
00010000
01000000
00000000
00001000
00010000
00001000
00000000
,
00010000
00000100
00000010
00000000
00000001
00000000
00001000
00000000
,
00001010
00000000
00000100
00000001
00000000
00000100
00001000
00000000
,
00000100
00000000
00001001
00000000
00001000
00000000
00000100
00000010
,
00000000
00000001
00000100
00000000
00000010
00001000
00000010
00000000
,
00011000
01010000
00011000
00001100
,
00000010
00000001
00000100
00000010
00000000
00001000
00000001
00000000
,
00010000
00001000
00010000
00000000
00001000
01000000
00000000
00100000
,
00000000
10100000
00000000
11000000
00000000
00100000
00010000
00000000
,
00011000
00110000
00011000
00001010
,
00001000
00000100
00000010
00000001
00000000
00000100
00000010
00000000
,
00010000
00001000
00010000
00000000
00001000
00100000
00000000
01000000
,
00000000
10100000
00000000
11000000
00000000
00100000
00010000
00000000
,
00011000
01001000
00011000
00010100
,
00000010
00000000
00000001
00000100
00000001
00000000
00000100
00000000
,
00000010
00001000
00000100
00000010
,
00000001
00000000
00000100
00000010
00001000
00000000
00000001
00000000
,
00011000
00101000
00011000
00010010
,
00000100
00000000
00000001
00000010
00000100
00000000
00001000
00000000
,
00000001
00000100
00000010
00001000
,
00010010
00000000
00010000
00001000
00010000
00000000
01010000
00000000
,
10000000
11000000
00100000
10100000
,
10000000
01000000
00000000
00100000
,
00000000
00010000
00000000
01000000
,
00100000
10000000
00000000
01000000
,
00100000
00011000
00000010
00001100
,
00001000
00000100
00000000
00000001
,
00000000
00000010
00000000
00001000
,
00000001
00000010
00000000
00000100
,
00011000
00110000
00011000
00001010
;

//---------------dance-double - M.Emirzian----------------
#NOTES:
     dance-double:
     M.Emirzian:
     Easy:
     3:
     0.217,0.000,0.079,0.059,0.000,140.000,8.000,6.000,0.000,0.000,0.000:
00000000
00000000
00000000
00000000
,
00000000
00000000
00000000
00000000
,
00000000
00000000
00000000
00000000
,
00000000
00000000
00000000
00000000
,
00000100
00000000
00010000
00000000
,
00001000
00010000
00001000
00000000
,
01000000
00000000
00100000
00000000
,
20020000
00000000
00000000
30030000
,
00100000
10000000
00100000
00000000
,
00010000
10000000
00010000
00000000
,
10000000
01000000
00010000
00001000
,
00022000
00000000
00000000
00033000
,
00010000
00000100
00010000
00000000
,
00000010
00001000
00000010
00000000
,
00000100
00000001
00001000
00000100
,
00000220
00000000
00000000
00000330
,
00001000
00000001
00000100
00000000
,
00000010
00010000
00001000
00000000
,
00010000
00000100
00010000
00000000
,
00001000
01000000
00010000
00000000
,
00100000
01000000
10000000
00000000
,
01000000
00100000
00010000
00000000
,
10010000
00010000
01000000
00000000
,
01010000
00001000
00010000
00000000
,
00010100
00010000
00001000
00000000
,
00010010
00010000
00001000
00000000
,
00000010
00001000
00000100
00000010
,
00000001
00000000
00000000
00000000
,
00000010
00001000
00000100
00000000
,
00000010
00000001
00001000
00000000
,
00000010
00010000
00001000
00010000
,
00001000
00000000
00000000
00000000
,
00010000
00001000
01000000
00000000
,
00100000
10000000
00100000
00000000
,
01000000
00000000
00010000
00000000
,
10000000
01000000
00010000
00000000
,
00001000
01000000
00001000
00010000
,
00001000
00010000
00000100
00000000
,
00000010
00001000
00000010
00000000
,
00000100
00000001
00000100
00000000
,
00000010
00001000
00000100
00001000
,
00000100
00000000
00010000
00000000
,
00001000
01000000
00010000
00000000
,
01000000
00010000
10000000
00000000
,
01000000
00100000
01000000
00100000
,
00010000
00000000
00100000
00000000
,
00001000
00010000
00001000
00000000
,
00000100
00000000
00000001
00000000
,
00001000
00000010
00000100
00000000
,
00000000
00000000
00000000
00000000
,
00000010
00000000
00001000
00000000
,
00000100
00000000
00010000
00000000
,
00001000
01000000
00010000
00100000
,
00000000
00000000
00000000
00000000
,
01000000
10000000
00010000
00000000
,
01000000
00000000
00001000
00000000
,
00011000
00000000
00000000
00000000
;

//---------------dance-double - M.Emirzian----------------
#NOTES:
     dance-double:
     M.Emirzian:
     Medium:
     5:
     0.304,0.000,0.256,0.000,0.000,190.000,26.000,0.000,0.000,0.000,0.000:
00000000
00000000
00000000
00000000
,
00000000
00000000
00000000
00000000
,
00000000
00000000
00000000
00000000
,
00000000
00000000
00000000
00000000
,
00010000
10000000
01000000
00000000
,
00010000
10000000
01000000
00000000
,
00100000
00010000
01000000
00001000
,
00011000
00000000
00000000
00000000
,
00000100
00000000
00000010
00000000
,
00000001
00001000
00000010
00000000
00000001
00001000
00000010
00000000
,
00000100
00000001
00001000
00000100
,
00001100
00000000
00000000
00000000
,
00000010
00000000
00010000
00000000
,
00001000
01000000
00010000
00000000
00001000
01000000
00010000
00000000
,
00100000
10000000
01000000
00100000
,
00010000
00000000
10010000
00000000
,
00100000
10000000
00100000
00000000
10010000
00000000
00000000
00000000
,
00100000
01000000
10000000
00000000
10010000
00000000
00000000
00000000
,
10000000
00100000
01010000
00000000
,
00100000
00001000
00011000
00000000
,
00010000
00000100
00001000
00000000
00001010
00000000
00000000
00000000
,
00000001
00000100
00000010
00000000
00001010
00000000
00000000
00000000
,
00001000
00000100
00010100
00000000
,
00001000
01000000
01010000
00000000
,
00000000
00000000
00010000
01000000
00010000
00000000
10000000
00000000
,
00100000
10000000
00010000
01000000
00000000
00000000
00000000
00000000
,
00100000
10000000
01000000
00000000
,
00110000
00000000
00000000
00000000
,
00000000
00110000
00000000
00011000
,
00000000
00001100
00000000
00011000
,
00000000
00000100
00001000
00000001
,
00000110
00000000
00000000
00000000
,
00001100
00000000
00011000
00000000
,
00010000
00100000
01000000
00000000
00010000
00100000
01000000
00000000
,
10000000
00010000
01000000
00100000
,
10000000
00000000
00000000
00000000
,
00110000
00000000
01010000
00000000
,
00001000
00010000
00000100
00000000
00001000
00010000
00000100
00000000
,
00000010
00000001
00001000
00000010
,
00000100
00000001
00001000
00000100
,
00001000
00000001
00001000
00000000
00001000
00000001
00001000
00000000
,
00000100
00001000
00000100
00000000
00001000
00000100
00001000
00000000
,
00010000
00001000
00010000
00000000
00001000
00010000
00001000
00000000
,
01000000
00100000
10000000
00000000
01000000
00000000
00100000
00000000
,
00010000
10000000
01000000
00000000
00010000
10000000
01000000
00000000
,
00100000
00010000
01000000
00000000
00100000
00010000
01000000
00000000
,
00001000
00010000
00000100
00000000
00001000
00010000
00000100
00000000
,
00001000
00000010
00000100
00000001
,
00001000
00000100
00000010
00000001
,
00001000
00000010
00010000
00001000
,
01000000
00010000
00100000
01000000
,
10000000
00010000
01000000
00100000
,
10000000
01000000
00100000
00010000
,
10000000
00010000
10000000
00010000
,
10000000
10010000
00000000
01010000
,
00000000
00011000
00000000
00001010
,
00011000
00000000
00000000
00000000
;
