#TITLE:Hand of Time;
#SUBTITLE:;
#ARTIST:Reflection Theory;
#TITLETRANSLIT:;
#SUBTITLETRANSLIT:;
#ARTISTTRANSLIT:;
#GENRE:;
#CREDIT:;
#BANNER:Hand of Time-banner.png;
#BACKGROUND:Hand of Time-bg.png;
#LYRICSPATH:;
#CDTITLE:;
#MUSIC:Reflection Theory - Hand of time.ogg;
#OFFSET:0.016;
#SAMPLESTART:20.590;
#SAMPLELENGTH:12.980;
#SELECTABLE:YES;
#BPMS:0.000=92.000,32.000=184.000,288.000=92.000,304.000=184.000;
#STOPS:;
#BGCHANGES:0.000=Hand of Time-bg.png=1.000=0=0=1=====,
16.000=VOL1-17-NTSC.mpg=1.000=1=0=1===CrossFade==,
24.000=VOL1-27-NTSC.mpg=1.000=1=0=1===CrossFade==,
32.000=675_JumpBack.mpg=1.000=0=0=1=====,
48.000=EV01452N.mpg=1.000=0=0=1=====,
64.000=686_JumpBack.mpg=1.000=0=0=1=====,
80.000=739_JumpBack.mpg=1.000=0=0=1=====,
96.000=666_JumpBack.mpg=1.000=0=0=1=====,
112.000=EV01441N.mpg=1.000=0=0=1=====,
128.000=686_JumpBack.mpg=1.000=0=0=1=====,
144.000=675_JumpBack.mpg=1.000=0=0=1=====,
160.000=736_JumpBack.mpg=1.000=0=0=1=====,
176.000=vol4-01-ntsc.mpg=1.200=0=0=1=====,
192.000=676_JumpBack.mpg=1.000=0=0=1=====,
208.000=675_JumpBack.mpg=1.000=0=0=1=====,
224.000=EV01452N.mpg=1.000=0=0=1=====,
240.000=739_JumpBack.mpg=1.000=0=0=1=====,
256.000=686_JumpBack.mpg=1.200=0=0=1=====,
264.000=736_JumpBack.mpg=1.000=0=0=1=====,
272.000=666_JumpBack.mpg=1.000=0=0=1=====,
280.000=676_JumpBack.mpg=1.000=0=0=1=====,
288.000=jb_047.mpg=1.000=0=0=1=====,
296.000=jb_105.mpg=1.000=1=0=1===CrossFade==,
304.000=Hand of Time-bg.png=1.000=0=0=1=====,
99999=-nosongbg-=1.000=0=0=0 // don't automatically add -songbackground-
;
#KEYSOUNDS:;
// cache tags:
#FIRSTBEAT:16.000;
#LASTBEAT:304.000;
#SONGFILENAME:/Songs/In The Groove/Hand of Time/Handoftime.sm;
#HASMUSIC:1;
#HASBANNER:1;
#MUSICLENGTH:117.713;
// end cache tags

//---------------dance-single - K. Ward----------------
#NOTES:
     dance-single:
     K. Ward:
     Hard:
     8:
     0.495,0.000,0.017,0.161,0.059,387.000,2.000,19.000,0.000,0.000,0.000:





0000
0000
0000
0000
,
0000
0000
0000
0000
,
0000
0000
0000
0000
,
0000
0000
0000
0000
,
1000
0002
0000
0103
0010
2000
0000
3001
,
0100
0020
0000
0130
0002
0000
1003
0000
,
0001
2000
0000
3010
0100
0002
0000
1003
,
0010
0200
0000
0310
2002
0000
0000
3003
,
1000
0000
0010
0100
0001
0000
0100
0000
,
0001
0000
0100
0010
1000
0000
0010
0000
,
1000
0000
0010
0100
0001
0000
0100
0000
,
0001
0100
1000
0000
1000
0100
0001
0000
,
1000
0000
0010
0100
0001
0000
0100
0000
,
0001
0000
0100
0010
1000
0000
0010
0000
,
1000
0000
0010
0100
0001
0000
0100
0000
,
1000
0100
0001
0000
0001
0100
1000
0000
,
1000
0000
0010
0100
0000
0100
0001
0000
,
0001
0000
0100
0010
0000
0010
1000
0000
,
1000
0000
0010
0100
0000
0100
0010
0000
,
0001
0100
1000
0000
1000
0100
0001
0000
,
0001
0000
0100
0010
0000
0010
1000
0000
,
1000
0000
0010
0100
0000
0100
0001
0000
,
0001
0000
0100
0010
0000
0010
0100
0000
,
1000
0100
0001
0000
0001
0100
1000
0000
,
1000
0000
0010
0100
0010
0000
0010
0000
,
0001
0000
0100
0010
0100
0000
0000
0000
,
1000
0000
0010
0100
0010
0000
0010
0000
,
0001
0100
1000
0000
1000
0100
0001
0000
,
1000
0000
0010
0100
0010
0000
0010
0000
,
0001
0000
0100
0010
0100
0000
0100
0000
,
1000
0000
0010
0100
0010
0000
0010
0000
,
1000
0100
0001
0000
0001
0100
1000
0000
,
1000
0000
0000
0010
0000
0010
0100
0000
,
0010
0000
0100
0010
1000
0000
0000
0000
,
0001
0000
0000
0100
0000
0100
0010
0000
,
0100
0000
0010
0100
0001
0000
0000
0000
,
1000
0010
0100
0001
0000
0001
1000
0000
,
0001
0100
0010
1000
0000
1000
0001
0000
,
1000
0010
0010
1000
,
1000
0100
0001
0000
0001
0100
1000
0000
,
1000
0000
0000
0010
1000
0000
0010
0000
0100
0000
0001
0000
0100
0000
0000
0000
,
0001
0100
0001
0000
0010
0000
0010
0000
,
0001
0000
0000
0100
0001
0000
0100
0000
0010
0000
1000
0000
0010
0000
0000
0000
,
1000
0010
1000
0000
0200
0000
0010
0300
,
0001
0000
0000
0100
0001
0000
0100
0000
0010
0000
0100
0000
0010
0000
0000
0000
,
1000
0010
0100
0001
0100
0000
0001
0000
,
1000
0010
0100
0010
0100
0010
0100
0001
,
1000
0000
0001
0000
2000
0000
0010
3000
,
0001
0000
0000
0100
0001
0000
0100
0000
0010
0000
1000
0000
0010
0000
0000
0000
,
1000
0010
1000
0000
0100
0000
0100
0000
,
1000
0000
0000
0010
1000
0000
0010
0000
0100
0000
0001
0000
0100
0000
0000
0000
,
0001
0100
0001
0000
0020
0000
0100
0030
,
1000
0000
0000
0010
1000
0000
0010
0000
0100
0000
0010
0000
0100
0000
0000
0000
,
1000
0010
0100
0001
0100
0000
0001
0000
,
2000
0000
0000
0000
0000
0000
3001
0010
,
0200
0000
0000
0300
,
1000
0000
0000
0010
1000
0000
0010
0000
0100
0000
0001
0000
0100
0000
0000
0000
,
0001
0100
0001
0000
0010
0000
0010
0000
,
0001
0000
0000
0100
0001
0000
0100
0000
0010
0000
1000
0000
0010
0000
0000
0000
,
1000
0010
1000
0000
0200
0000
0010
0300
,
0001
0000
0000
0100
0001
0000
0100
0000
0010
0000
0100
0000
0010
0000
0000
0000
,
1000
0010
0100
0001
0100
0000
0001
0000
,
1000
0010
0100
0010
0100
0010
0100
0001
,
1000
0000
0001
0000
2000
0000
0010
3000
,
0001
0000
0000
0100
0001
0000
0100
0000
0010
0000
1000
0000
0010
0000
0000
0000
,
1000
0010
1000
0000
0100
0000
0100
0000
,
1000
0000
0000
0010
1000
0000
0010
0000
0100
0000
0001
0000
0100
0000
0000
0000
,
0001
0100
0001
0000
0020
0000
0100
0030
,
1000
0000
0000
0010
1000
0000
0010
0000
0100
0000
0010
0000
0100
0000
0000
0000
,
1000
0010
0100
0001
0100
0000
0001
0000
,
2000
0000
0000
0000
0000
0000
3001
0010
,
0200
0000
0000
0300
,
1000
0000
0001
0000
0100
0100
0010
0000
,
0100
0000
0000
0000
0001
0000
0000
0000
0100
0010
0100
0000
0010
0000
0000
0000
,
1000
0000
0010
0000
0100
0100
0010
0000
,
1000
0000
0000
0000
0010
0000
0000
0000
0100
0010
0100
0000
0010
0000
0000
0000
,
1001
0000
0000
0000
;

//---------------dance-single - K. Ward----------------
#NOTES:
     dance-single:
     K. Ward:
     Medium:
     4:
     0.343,0.000,0.042,0.136,0.000,262.000,5.000,16.000,0.000,0.000,0.000:





0000
0000
0000
0000
,
0000
0000
0000
0000
,
0000
0000
0000
0000
,
0000
0000
0000
0000
,
0100
0000
0000
0010
1000
0000
0110
0000
,
0010
0000
0000
0100
0001
0000
0110
0000
,
0001
0000
0000
0100
0010
0000
1001
0000
,
0100
1001
0010
1001
,
1000
0000
0000
0010
0000
0000
1000
0000
,
0001
0000
0000
0100
0000
0000
0001
0000
,
1000
0000
0000
0010
0000
0000
1000
0000
,
1000
0001
0001
1000
,
1000
0000
0000
0010
0000
0000
1000
0000
,
0001
0000
0000
0100
0000
0000
0001
0000
,
1000
0000
0000
0010
0000
0000
1000
0000
,
1000
0001
0001
1000
,
1000
0000
0000
0010
0000
0000
0100
0000
,
0001
0000
0000
0100
0000
0000
0010
0000
,
1000
0000
0000
0100
0000
0000
0010
0000
,
0001
1000
1000
0001
,
1000
0000
0000
0010
0000
0000
0100
0000
,
0001
0000
0000
0100
0000
0000
0010
0000
,
1000
0000
0000
0010
0000
0000
0100
0000
,
0001
1000
0001
0001
,
1000
0000
1000
0010
0000
0000
1000
0000
,
0001
0000
0001
0100
0000
0000
0001
0000
,
1000
0000
1000
0010
0000
0000
1000
0000
,
1000
0001
0001
1000
,
1000
0000
1000
0010
0000
0000
1000
0000
,
0001
0000
0001
0100
0000
0000
0001
0000
,
1000
0000
1000
0100
0000
0000
0010
0000
,
0100
0100
0010
0000
,
1000
0000
0000
0010
0000
0000
0100
0000
,
0001
0100
0010
0010
,
1000
0000
0000
0100
0000
0000
0010
0000
,
0001
1000
1000
0001
,
1000
0000
0000
0010
0000
0000
0100
0000
,
0001
0100
0100
0010
,
1000
0000
0000
0010
0000
0000
0100
0000
,
0002
0000
0000
0000
2000
0000
0000
3003
,
0010
0010
0010
0001
,
0100
0100
0100
0001
,
0010
0010
0010
0001
,
0020
0001
0000
0031
,
1000
1000
1000
0010
,
0100
0100
0100
0010
,
1000
1000
1000
0010
,
2000
0000
0001
3000
0002
0000
1000
0003
,
0010
0010
0010
0001
,
0100
0100
0100
0001
,
0010
0010
0010
0001
,
0020
0001
0000
0031
,
1000
1000
1000
0010
,
0100
0100
0100
0010
,
2000
0000
3002
0000
,
0203
0000
0000
0300
0010
0000
0000
0000
,
0010
0010
0010
0001
,
0100
0100
0100
0001
,
0010
0010
0010
0001
,
0020
0001
0000
0031
,
1000
1000
1000
0010
,
0100
0100
0100
0010
,
1000
1000
1000
0010
,
2000
0000
0001
3000
0002
0000
1000
0003
,
0010
0010
0010
0001
,
0100
0100
0100
0001
,
0010
0010
0010
0001
,
0020
0001
0000
0031
,
1000
1000
1000
0010
,
0100
0100
0100
0010
,
2000
0000
3002
0000
,
0203
0000
0000
0300
0010
0000
0000
0000
,
1000
0000
0010
0000
0100
0010
1000
0000
,
0001
0000
0100
0000
0010
0100
0001
0000
,
1000
0000
0010
0000
0100
0010
1000
0000
,
0001
0000
0100
0000
0010
0100
0001
0000
,
1000
0000
0000
0000
,
;

//---------------dance-single - K. Ward----------------
#NOTES:
     dance-single:
     K. Ward:
     Easy:
     3:
     0.234,0.000,0.000,0.127,0.000,178.000,0.000,15.000,0.000,0.000,0.000:





0000
0000
0000
0000
,
0000
0000
0000
0000
,
0000
0000
0000
0000
,
0000
0000
0000
0000
,
2000
0000
0000
0000
,
0000
0000
3001
0100
,
0002
0000
0000
0000
,
1003
0010
2000
3000
,
0001
0000
1000
0000
,
0010
0000
0100
0000
,
0001
0000
1000
0000
,
0010
0010
0100
0100
,
0001
0000
1000
0000
,
0010
0000
0100
0000
,
0001
0000
1000
0000
,
0020
0000
0000
0030
,
1000
0000
0010
0000
,
0100
0000
0001
0000
,
0010
0000
0100
0000
,
1000
1000
0001
0001
,
0010
0000
0100
0000
,
1000
0000
0001
0000
,
0010
0000
0100
0000
,
2000
0000
0000
3000
,
0001
0001
0000
1000
,
0010
0010
0000
1000
,
0001
0001
0000
0100
,
0010
0000
0100
0000
,
0001
0001
0000
1000
,
0010
0010
0000
1000
,
0001
0001
0000
0100
,
0020
0000
0000
0030
,
0100
0001
0000
1000
,
0010
1000
0000
0001
,
0010
0001
0000
1000
,
0010
0000
0100
0000
,
0001
1000
0000
1000
,
0001
1000
0000
1000
,
0001
0001
0000
0100
,
0020
0000
0000
0030
,
1000
1000
0010
0000
,
0100
0100
0001
0000
,
1000
1000
0001
0000
,
2000
3000
0002
0003
,
1000
1000
0010
0000
,
0100
0100
0001
0000
,
1000
1000
0001
0000
,
1000
0010
0000
0010
,
1000
1000
0010
0000
,
0100
0100
0001
0000
,
0001
0001
1000
0000
,
0100
0000
0010
0000
,
0002
0000
0000
0003
,
0000
0000
1000
0000
,
0001
0000
0001
0000
,
2000
0000
0000
3000
,
0001
0001
0100
0000
,
0010
0010
1000
0000
,
0001
0001
1000
0000
,
0002
0003
2000
3000
,
0001
0001
0100
0000
,
0010
0010
1000
0000
,
0001
0001
1000
0000
,
0001
0100
0000
0100
,
0001
0001
0100
0000
,
0010
0010
1000
0000
,
1000
1000
0001
0000
,
0010
0000
0100
0000
,
2000
0000
0000
3000
,
0000
0000
0001
0000
,
1000
0000
1000
0000
,
0002
0000
0000
0003
,
1000
0010
0100
0001
,
0001
0100
0010
1000
,
1000
0010
0100
0001
,
0001
0100
0010
1000
,
0001
0000
0000
0000
;

//---------------dance-single - K. Ward----------------
#NOTES:
     dance-single:
     K. Ward:
     Challenge:
     10:
     0.761,0.000,0.255,0.289,0.353,563.000,30.000,34.000,31.000,0.000,0.000:





0000
0000
0000
0000
,
0000
0000
0000
0000
,
0000
0000
0000
0000
,
0000
0000
0000
0000
,
1000
0000
0001
0100
0000
0010
1000
0000
0001
0000
0100
0010
0000
1000
0001
0000
,
0100
0000
0010
1000
0000
0001
0100
0000
0010
0100
0001
0000
0010
0001
0100
0000
,
0010
0000
1000
0010
0000
0100
0001
0000
1000
0000
0010
0100
0000
0001
0100
0000
,
0001
0000
1000
0010
0000
0100
0001
0000
2000
0000
0000
0000
3001
0000
MMMM
0000
,
2000
0000
0000
3001
0100
0000
0010
0000
1000
0000
0001
0000
0100
0000
0001
0000
,
2000
0000
0000
3001
0100
0000
0010
0000
1000
0000
0001
0000
0100
0000
0001
0000
,
2000
0000
0000
3001
0100
0000
0010
0000
1000
0000
0001
0000
0100
0000
0010
0000
,
1000
0100
1000
0010
0100
0001
0100
0010
1000
0000
0001
0000
1000
0000
0000
0000
,
0002
0000
0000
1003
0010
0000
0100
0000
0001
0000
1000
0000
0010
0000
1000
0000
,
0002
0000
0000
1003
0010
0000
0100
0000
0001
0000
1000
0000
0010
0000
1000
0000
,
0002
0000
0000
1003
0010
0000
0100
0000
0001
0000
1000
0000
0010
0000
0100
0000
,
0001
0010
0001
0010
0001
0000
0000
0000
1000
0100
1000
0100
1000
0000
0000
0000
,
1000
0001
0100
0010
0100
0010
1200
M000
,
1300
0001
0100
0010
0100
0001
0012
00M0
,
1003
0010
1000
0001
1000
0001
1100
0000
,
1000
0100
1000
0010
0100
0001
0100
0010
1000
0000
0001
0000
1000
0000
0000
0000
,
0002
0000
0000
1003
0010
0000
0100
0000
0001
0000
1000
0000
0010
0000
1000
0000
,
0002
0000
0000
1003
0010
0000
0100
0000
0001
0000
1000
0000
0010
0000
1000
0000
,
0002
0000
0000
1003
0010
0000
0100
0000
0001
0000
1000
0000
0010
0000
0100
0000
,
0001
0010
0011
0000
1000
0100
1100
0000
,
1000
0100
1000
0000
0010
0000
0100
0000
0010
0000
1000
0000
1100
0000
0000
0000
,
0001
0010
0001
0000
0100
0000
0010
0000
0100
0000
0001
0000
0011
0000
0000
0000
,
1000
0100
1000
0000
0010
0000
0100
0000
0010
0000
1000
0000
1100
0000
0000
0000
,
0001
0100
1000
0100
1000
0100
0001
0000
,
1000
0100
1000
0000
0010
0000
0100
0000
0010
0000
1000
0000
1100
0000
0000
0000
,
0001
0010
0001
0000
0100
0000
0010
0000
0100
0000
0001
0000
0011
0000
0000
0000
,
1000
0100
1000
0000
0010
0000
0100
0000
0010
0100
0010
0000
1000
0000
0001
0000
,
1000
0100
0001
0100
0001
0100
1000
0000
,
2000
0000
0010
3010
0000
0010
0200
0001
,
0301
0000
0100
0020
0000
1030
1000
0001
,
1000
0000
0200
0010
0000
0310
0001
1000
,
0100
0010
0001
0010
0100
1000
0002
1000
,
1003
0000
0110
0011
0000
1100
0110
0000
,
0011
0000
1100
1010
0000
0101
0110
0010
,
1000
0010
0100
0010
0100
0001
0100
0010
,
2000
0000
0000
0001
0000
0000
3002
0000
M000
0103
0000
000M
,
0001
0000
0100
0000
0010
0000
1000
0000
0010
0000
0100
0000
0010
0100
0010
0000
,
1000
0000
0010
0000
0100
0000
0010
0000
0100
0000
0001
0000
0100
0001
0100
0000
,
0010
0000
1000
0000
0010
0000
0100
0000
0001
0000
0100
0000
0010
0100
0010
0000
,
0200
2300
3002
0023
,
1030
0000
0010
0000
0100
0000
0001
0000
0100
0000
0010
0000
0100
0010
0100
0000
,
0001
0000
0100
0000
0010
0000
0100
0000
0010
0000
1000
0000
0010
1000
0010
0000
,
0100
0000
0001
0000
0100
0000
0010
0000
1000
0000
0010
0000
0100
0010
0100
0000
,
0001
0010
1000
0010
0001
0010
1000
0010
,
0001
0100
0101
0000
1000
0001
0101
0000
,
1000
0000
0010
0000
0110
0000
0100
0000
0010
0000
0100
0000
0010
0100
0001
0000
,
1000
0010
1010
0000
0001
1000
1010
0000
,
0001
0000
0100
0000
0110
0000
0010
0000
0100
0000
0010
0000
1000
0010
1000
0000
,
0102
1000
0010
0100
,
2003
0000
0001
0000
0100
0100
0100
0000
,
3002
0000
MMM0
0000
0000
MMM0
0000
0000
0000
MMM0
0000
0000
0103
0000
0010
0000
,
2000
0000
0010
0000
0001
0001
3001
0001
,
1000
0000
0010
0000
0100
0000
0001
0000
0100
0000
0010
0000
0100
0010
0100
0000
,
0001
0000
0100
0000
0010
0000
0100
0000
0010
0000
1000
0000
0010
1000
0010
0000
,
0100
0000
0001
0000
0100
0000
0010
0000
1000
0000
0010
0000
0100
0010
0100
0000
,
0001
0000
1000
0000
0001
0100
0001
0000
1000
0000
0010
0000
1000
0010
1000
0000
,
0M00
0100
0010
0001
0M00
0100
0010
1000
,
000M
0001
0100
0010
1000
1000
0010
1000
,
0000
M000
0010
0000
0100
0000
0001
0000
0M00
0000
0100
0000
0010
0000
1000
0000
,
1000
0000
0100
0000
0001
0000
0100
0000
1000
0000
0100
0000
1000
0100
1000
0100
,
1000
0000
0010
0000
0100
0000
0001
0000
0100
0000
0010
0000
0100
0010
0100
0000
,
0001
0000
0100
0000
0010
0000
0100
0000
0010
0000
1000
0000
0010
1000
0010
0000
,
0100
0000
0001
0000
0100
0000
0010
0000
1000
0000
0010
0000
0100
0010
0100
0000
,
0020
0032
2003
3200
,
0301
0010
0100
1000
0001
0010
0100
1000
,
0001
1000
0010
0100
0001
1000
0010
1000
,
0002
0000
MMM0
0000
0000
MMM0
0000
0000
0000
MMM0
0000
0000
0103
0000
0010
0000
,
2000
0000
0001
0000
0001
0001
3002
0000
,
1003
0010
0100
0000
0010
0100
0001
0000
1000
0010
1000
0000
0011
0000
0000
0000
,
1000
0010
0100
0000
0010
0100
0001
0000
1000
0010
1000
0100
1100
0000
0000
0000
,
0001
0100
0010
0000
0100
0010
1000
0000
0001
0100
0001
0000
1100
0000
0000
0000
,
0001
0100
0010
0000
0100
0010
1000
0000
0001
0100
0010
1000
0010
0100
0001
1000
,
1001
0000
0000
0000
;

//---------------dance-double - M. Emirzian----------------
#NOTES:
     dance-double:
     M. Emirzian:
     Easy:
     3:
     0.314,0.000,0.076,0.646,0.000,174.000,9.000,76.000,0.000,0.000,0.000:





00000000
00000000
00000000
00000000
,
00000000
00000000
00000000
00000000
,
00000000
00000000
00000000
00000000
,
00000000
00000000
00000000
00000000
,
10000000
00010000
01000000
00001000
,
00010000
00010000
00010000
00001000
,
00010000
00000010
00001000
00000100
,
00000010
00000010
00000010
00000001
,
00000200
00000000
00000300
00000020
00000000
00000030
00000000
00000000
,
00020000
00000000
00030000
00000000
00000000
00002000
00000000
00003000
,
02000000
00000000
03000000
00000000
00000000
00020000
00000000
00030000
,
01000000
01000000
01000000
00000000
,
00200000
00000000
00300000
20000000
00000000
30000000
00000000
00000000
,
00200000
00000000
00300000
00000000
00000000
02000000
00000000
03000000
,
00002000
00000000
00003000
00000000
00000000
00020000
00000000
00030000
,
00001000
00001000
00001000
00000000
,
00020000
00000000
00030000
00000020
00000000
00000030
00000000
00000000
,
00002000
00000000
00003000
00000000
00000000
00000200
00000000
00000300
,
00000020
00000000
00000030
00000000
00000000
00000002
00000000
00000003
,
00000100
00000100
00000100
00000000
,
00000020
00000000
00000030
00002000
00000000
00003000
00000000
00000000
,
00000200
00000000
00000300
00000000
00000000
00020000
00000000
00030000
,
00002000
00000000
00003000
00000000
00000000
02000000
00000000
03000000
,
00010000
00010000
00010000
00000000
,
10000000
00000000
01000000
00000000
,
00010000
00000000
00001000
00001000
,
00010000
00000000
00000100
00000000
,
00000010
00000010
00000001
00000000
,
00000100
00000000
00000010
00000000
,
00000100
00000000
00000001
00000001
,
00000100
00000000
00001000
00001000
,
00010000
00000000
00101000
00000000
,
01000000
00000000
10000000
00000000
,
00100000
00000000
10000000
00000000
,
01000000
00000000
00010000
00000000
,
00001000
00001000
00010000
00000000
,
00000100
00000000
00000010
00000000
,
00000001
00000000
00000100
00000000
,
00001000
00000000
00000100
00000000
,
00000001
00001000
00001000
00000000
,
00000200
00000300
00000020
00000030
,
00002000
00003000
00020000
00030000
,
00200000
00300000
20000000
30000000
,
02000000
03000000
00020000
00030000
,
02000000
03000000
20000000
30000000
,
00200000
00300000
00020000
00030000
,
00002000
00003000
00000020
00000030
,
00002000
00003000
00020000
00030000
,
00002000
00003000
00000200
00000300
,
00000002
00000003
00000020
00000030
,
00002000
00003000
00000020
00000030
,
00000002
00000003
00000200
00000300
,
00000020
00000030
00010000
00000000
,
00010010
00000000
00011000
00000000
,
01001000
00000000
01010000
00000000
,
00100000
00100000
00100000
00000000
,
00200000
00300000
20000000
30000000
,
00200000
00300000
00020000
00030000
,
00200000
00300000
20000000
30000000
,
02000000
03000000
00020000
00030000
,
00002000
00003000
00020000
00030000
,
02000000
03000000
00020000
00030000
,
00002000
00003000
00000200
00000300
,
00002000
00003000
00020000
00030000
,
00002000
00003000
00000020
00000030
,
00000002
00000003
00000020
00000030
,
00002000
00003000
00000020
00000030
,
00000002
00000003
00000200
00000300
,
00002000
00003000
00020000
00030000
,
00200000
00300000
10000000
00000000
,
01010000
00000000
00011000
00000000
,
00010100
00000000
00010000
00010000
,
00010000
00000000
00001000
00000010
,
00000001
00000100
00000010
00010000
,
00000100
00010000
00100000
10000000
,
01000000
01000000
01000000
00000000
00100000
00100000
00100000
00000000
,
10010000
00000000
00000000
00000000
,
;

//---------------dance-double - M. Emirzian----------------
#NOTES:
     dance-double:
     M. Emirzian:
     Medium:
     6:
     0.500,0.000,0.178,0.917,0.000,283.000,21.000,108.000,0.000,0.000,0.000:





00000000
00000000
00000000
00000000
,
00000000
00000000
00000000
00000000
,
00000000
00000000
00000000
00000000
,
00000000
00000000
00000000
00000000
,
10000000
01000000
00010000
00001000
,
00000010
00001000
00010000
00100000
,
00010000
00000000
00001000
00000000
00010000
00100000
00010000
00000000
,
00001000
00000010
00001000
00000000
00011000
00000000
00010010
00000000
,
00001001
00000000
00000000
00000100
00000000
00000000
00000000
00000000
,
00002020
00000000
00003030
00000000
00000000
00010000
00000000
00000000
,
00022000
00000000
00033000
00000000
00000000
02000000
00000000
03000000
,
10000000
00010000
10000000
00000000
,
10100000
00000000
00000000
01000000
00000000
00000000
00000000
00000000
,
00220000
00000000
00330000
00000000
00000000
00100000
00000000
00000000
,
00202000
00000000
00303000
00000000
00000000
00001000
00000000
00000000
,
00010000
00000010
00010000
00000000
,
00001100
00000000
00000000
00000010
00000000
00000000
00000000
00000000
,
00002002
00000000
00003003
00000000
00000000
00000100
00000000
00000000
,
00020200
00000000
00030300
00000000
00000000
00010000
00000000
00000000
,
00001000
01000000
00001000
00000000
,
01010000
00000000
00000000
00100000
00000000
00000000
00000000
00000000
,
20200000
00000000
30300000
00000000
00000000
01000000
00000000
00000000
,
00220000
00000000
00330000
00000000
00000000
00100000
00000000
00000000
,
00001000
00010000
00001000
00000000
,
00000010
00000001
00000100
00000100
,
00000010
00000010
00000100
00000100
,
00001000
00010000
00010000
00001000
,
01000000
01000000
10010000
10000000
,
01000000
01000000
10000000
10000000
,
00100000
00100000
00010000
00010000
,
00001000
00001000
00000100
00000100
,
00000001
00001000
00000001
00000000
00001100
00000000
00000010
00000001
,
00000010
00000010
00000100
00000100
,
00010000
00010000
00001000
00001000
,
00000010
00000010
00001000
00001000
,
00010000
00000000
00010000
00000000
00100000
10000000
00100000
00000000
,
10000000
10000000
01000000
01000000
,
00100000
00000000
00100000
00000000
00001000
00010000
00001000
00000000
,
00000010
00000010
00000001
00000001
,
00000100
00000001
00000100
00000000
00000110
00000000
00000000
00000000
,
00000200
00002300
00003200
00000302
,
00000023
00002030
00023000
00230000
,
20300000
32000000
03020000
02030000
,
23000000
00000000
30200000
00000000
00310000
00001000
00010000
00000000
,
02000000
03020000
00032000
00003020
,
00002030
00023000
00032000
00003200
,
00000302
00000203
00002300
00013000
,
00001000
00000000
00000110
00000000
00000100
00000001
00000100
00000000
,
00000020
00002030
00003200
00002300
,
00003020
00000230
00000302
00000023
,
00002030
00023000
02030000
03200000
,
00320000
02030000
23000000
32000000
,
03010000
10000000
00010000
00000000
02000000
00000000
03200000
00000000
,
00320000
00032000
00023000
02030000
,
03010000
01000000
00010000
00000000
00001000
00000000
00010000
00000000
,
00010100
00010000
00000010
00000000
,
00000200
00000302
00000203
00002300
,
00023000
02030000
03200000
00320000
,
00230000
20300000
30200000
00320000
,
02030000
03200000
00320000
00032000
,
00203000
00320000
02030000
23000000
,
32000000
03020000
00230000
00302000
,
00023000
02030000
03020000
00032000
,
00003020
00002030
00023000
00032000
,
00003200
00000320
00002030
00003200
,
00000302
00000203
00002300
00003020
,
00000230
00000302
00000023
00002030
,
00013000
00001000
00010000
00000000
00100000
00000000
10000000
00000000
,
01000000
01000000
00100000
00100000
,
00001000
00000000
00001000
00000000
00010000
00001000
00010000
00000000
,
00000100
00000100
00001000
00001000
,
00000010
00000000
00000010
00001000
00000100
00001000
00000010
00000000
,
00001001
00000000
00000100
00000000
00001000
00010000
00001000
00000000
,
00010000
00001000
00010000
01000000
10000000
01000000
00100000
00000000
,
00010000
00000000
01000000
00000000
00100000
10000000
01000000
00000000
,
00010000
00001000
00000010
00001000
00010000
00100000
00010000
00001000
,
00011000
00000000
00000000
00000000
;

//---------------dance-double - M. Emirzian----------------
#NOTES:
     dance-double:
     M. Emirzian:
     Hard:
     9:
     0.592,0.000,0.272,0.204,0.030,432.000,32.000,24.000,0.000,0.000,0.000:





00000000
00000000
00000000
00000000
,
00000000
00000000
00000000
00000000
,
00000000
00000000
00000000
00000000
,
00000000
00000000
00000000
00000000
,
00000010
00000000
00000001
00000000
00000100
00000000
00001000
00000000
00000100
00000000
00000001
00000000
00000010
00000100
00000010
00000000
,
00000100
00000000
00010000
00000000
00001000
00000000
00000010
00000000
00001000
00010000
00001000
00000000
00000100
00000000
00001000
00000000
,
00010000
00001000
00010000
00100000
10000000
01000000
00010000
01000000
,
10000000
00000000
00100000
00000000
00010000
00000000
00001000
00000000
00010000
00001000
00010000
00000000
00010100
00000000
00001100
00000000
,
00000010
00000000
00000001
00000200
00000000
00001300
00000100
00000000
,
00000001
00000000
00000010
00002000
00000000
00003010
00000001
00000000
,
00000001
00000000
00000100
00002000
00000000
00013000
00100000
00000000
,
10000000
01000000
00100000
00020000
00000000
01030000
00100000
00000000
,
10000000
01000000
00010000
02000000
00000000
13000000
01000000
00000000
,
00100000
00000000
00001000
00020000
00000000
00031000
00000010
00000000
,
00000100
00000000
00001000
00000200
00000000
00000301
00000100
00000000
,
00001000
00000010
00000100
00000002
00000000
00000013
00000100
00000000
,
00001000
00000010
00000100
00002000
00000000
00013000
00100000
00000000
,
01000000
00000000
10000000
02000000
00000000
03010000
01000000
00000000
,
00100000
00000000
10000000
02000000
00000000
03100000
01000000
00000000
,
00010000
00001000
00000100
00000020
00000000
00010030
00001000
00000000
,
00000010
00000100
00001000
00000020
00000000
00000031
00000010
00002000
,
00000000
00003100
00000010
00000000
00000001
00000100
00000010
00000000
,
00000010
00000100
00001000
00000000
00010000
01000000
00100000
00000000
,
00001000
00010000
00100000
01000000
00010000
00100000
01000000
00000000
,
11000000
00000000
01010000
00000000
01000000
00000000
10000000
00200000
,
00000000
00310000
00100000
00000000
01000000
00010000
00100000
00000000
,
01000000
00010000
00001000
00000020
00000000
00001030
00010000
00200000
,
00000000
00310000
00001000
00000000
00000010
00000100
00001000
00000000
,
00000101
00000000
00001100
00000000
00000100
00000001
00000010
00000000
,
00001010
00000000
00011000
00000000
00010000
00100000
10000000
00000000
,
01000000
00100000
00001000
00000000
00010000
00001000
00000010
00000000
,
00001000
00010000
00100000
10000000
00100000
00010000
00100000
00000000
,
10100000
00000000
00110000
00000000
00001000
00000000
00010000
01000000
,
00000000
10000000
01000000
00000000
00010000
00001000
00000100
00000000
,
00000010
00000100
00000001
00000010
00000000
00000100
00001000
00000010
,
00000000
00000100
00000001
00000000
00000100
00000010
00010000
00000000
,
00001010
00000000
00011000
00000000
00001000
00010000
00100000
00000000
,
10100000
00000000
00110000
00000000
10000000
01000000
00100000
00000000
,
10000000
00100000
00010000
00000000
00100000
01000000
00010000
00000000
,
00001000
00000100
00000001
00000010
00001000
00000010
00000001
00000000
,
00000101
00000000
00000010
00001000
00000100
00000000
00000010
00000000
,
00000001
00000000
00000100
00001000
00010000
00001000
01000000
00000000
,
00010000
00000000
00100000
01000000
10000000
00000000
00100000
00000000
,
00010000
00000000
00001000
02000000
00000000
03100000
10000000
00000000
,
01000000
00000000
00010000
00001000
00000010
00000000
00000001
00000000
,
00001000
00000010
00010000
00000000
00001000
00000000
00000100
00000010
,
00010000
00000000
00001000
00000010
00000001
00000100
00000010
00000000
,
00010000
00001000
00000000
02000000
00000000
03100000
10000000
00000000
,
01000000
00000000
00100000
00001000
00010000
00000000
01000000
00000000
,
00100000
00000000
00010000
01000000
10000000
01000000
00010000
00000000
,
00100000
00000000
01000000
00010000
00001000
00000000
00000100
00000000
,
00000010
00000000
00010000
00002000
00000000
00003010
00000001
00000000
,
00000010
00000000
00000100
00010000
00001000
00000000
00000100
00000000
,
00000010
00010000
00001000
00000000
00100000
00000000
01000000
10000000
,
00100000
00000000
00010000
00001000
00000100
00000010
00010000
00000000
,
00001000
01000000
00100000
00010000
00001000
00100000
01000000
00000000
,
10000000
00000000
00100000
00000000
01000000
00100000
00010000
00000000
,
00100000
00000000
10000000
01000000
00010000
00000000
01010000
00000000
,
00011000
00000000
00000010
00001000
00010000
00001000
00000010
00000000
,
00000100
00001000
00000010
00000100
00000000
00000101
00000000
00001100
,
00001000
00000000
00001000
00000000
00010000
00100000
10000000
00000000
,
01000000
00000000
00100000
00010000
01000000
00000000
01001000
00000000
,
01010000
00000000
00100000
00010000
00001000
00010000
00100000
00000000
,
00010000
00001000
00000100
00000001
00000000
00000011
00000000
00001010
,
00001000
00000000
00010000
00000000
00001000
00020000
00000000
00130000
,
01000000
00000000
10000000
00000000
01000000
00020000
00000000
00130000
,
01000000
00000000
00010000
00002000
00000000
00003010
00000100
00000000
,
00000001
00000200
00000000
00001300
00000100
00000000
00000011
00000000
,
00000100
00001000
00000100
00000001
00000010
00001000
00010000
00100000
,
10000000
01000000
00010000
01000000
10000000
00100000
01000000
00001000
,
00010000
01000000
00010000
00001000
00000010
00000100
00001000
00000000
,
00000010
00000100
00000001
00000010
00000100
00010000
00001000
01000000
,
01010000
00000000
10010000
00000000
10000000
00000000
01000000
00000000
00010000
00000000
00001000
00010000
00000010
00000000
00001010
00000000
,
00000000
00000000
00001000
00000000
00000010
00000000
00000100
00000000
00000001
00000100
00000010
00000000
00001010
00000000
00010010
00000000
,
00000000
00000000
00010000
00000000
00001000
00000000
00100000
00000000
01000000
00000000
10000000
00100000
01000000
00000000
10010000
00000000
,
00000000
00000000
00100000
00000000
01000000
00000000
00001000
00000000
00010000
00000100
00001000
00000000
00001010
00000000
00000100
00000000
,
00001001
00000000
00000000
00000000
;

//---------------dance-double - M. Emirzian----------------
#NOTES:
     dance-double:
     M. Emirzian:
     Challenge:
     10:
     0.735,0.000,0.459,0.059,0.119,545.000,54.000,7.000,18.000,0.000,0.000:





00000000
00000000
00000000
00000000
,
00000000
00000000
00000000
00000000
,
00000000
00000000
00000000
00000000
,
00000000
00000000
00000000
00000000
,
10000000
00000000
01000000
00000000
00010000
00000000
00000100
00000000
00000001
00000000
00000100
00000000
00000010
00001000
00000100
00000000
,
00010000
00000000
00100000
00000000
10000000
00000000
01000000
00000000
00010000
00001000
00100000
00000000
00011000
00000000
00000100
00000000
,
00001000
00000010
00000001
00000000
00000010
00000000
00001010
00000000
00000100
00001000
00010000
00000000
00001000
00000000
00101000
00000000
,
00010000
01000000
00100000
00000000
00010000
00001000
00010000
00000000
00000010
00000100
00000001
00000010
00000100
00001000
00001100
00000000
,
00001010
00000000
00010000
00001000
00000100
00001000
00010000
00000000
,
01000000
00000000
10000000
01000000
00010000
01000000
10000000
00100000
,
00010000
00001000
01000000
00001000
00010000
00000100
00000010
00000001
,
00000100
00000000
00000000
00000000
00000010
00000000
00000000
00000000
00001000
00000000
00000000
00000000
00001001
00000000
00000000
00000000
00000000
0000000M
00000000
00000000
00001100
00000000
00000000
00000000
00010100
00000000
00000000
00000000
00000000
00000000
00000000
00000000
,
00001000
00010000
00100000
00010000
00001000
01000000
00010000
00100000
,
10000000
00100000
00010000
01000000
10000000
01000000
00100000
00010000
,
00001000
01000000
00100000
01000000
00010000
00100000
01000000
00010000
,
00001000
00000000
00000000
00000000
00010000
00000000
00000000
00000000
00000100
00000000
00000000
00000000
00001100
00000000
00000000
00000000
00000000
0000MM00
00000000
00000000
00000011
00000000
00000000
00000000
00000000
00000000
00000000
00000000
00001001
00000000
00000000
00000000
,
00000100
00000000
00001000
00000100
00000001
00000100
00001000
00010000
,
00100000
10000000
01000000
10000000
00100000
00010000
00100000
01000000
,
00001000
00010000
00001000
00000010
00000100
00010000
00001000
00000100
,
00000010
00000000
00000000
00000000
00001000
00000000
00000000
00000000
00000100
00000000
00000000
00000000
00000110
00000000
00000000
00000000
00000000
00000M00
00000000
00000000
00000011
00000000
00000000
00000000
00001001
00000000
00000000
00000000
00000000
00000000
00000000
00000000
,
00000010
00001000
00000100
00001000
00000010
00000100
00002000
00000000
,
00013000
01000000
00010000
00001000
01000000
00100000
00020000
00000000
,
00130000
10000000
01000000
00100000
00001000
00010000
00100000
01000000
,
00010000
00000000
00000000
00000000
00100000
00000000
00000000
00000000
01000000
00000000
00000000
00000000
01100000
00000000
00000000
00000000
00000000
00M00000
00000000
00000000
11000000
00000000
00000000
00000000
00000000
00000000
00000000
00000000
10010000
00000000
00000000
00000000
,
00010000
01000000
00100000
00010000
00001000
00010000
01000000
00000000
,
00010000
00001000
00000100
00000010
00010000
00001000
00000010
00000001
,
00000100
00000010
00010000
00001000
00000010
00000100
00001000
00000010
,
00000100
00000000
00000000
00000000
00000001
00000000
00000000
00000000
00000010
00000000
00000000
00000000
00001001
00000000
00000000
00000000
00000000
0000000M
00000000
00000000
00001010
00000000
00000000
00000000
00010010
00000000
00000000
00000000
00000000
00000000
00000000
00000000
,
00002000
00000000
00013000
00001000
00000010
00000100
00010000
00100000
,
00010000
00001000
00100000
01000000
10000000
01000000
00010000
01000000
,
00100000
00001000
00010000
00100000
01000000
00001000
00010000
00000100
,
00000010
00000000
00000000
00000000
00000100
00000000
00000000
00000000
00010000
00000000
00000000
00000000
00001100
00000000
00000000
00000000
00000000
0000MM00
00000000
00000000
00000011
00000000
00000000
00000000
00000000
00000000
00000000
00000000
00000110
00000000
00000000
00000000
,
00001000
00000010
00000100
00001000
00010000
01000000
00010000
00001000
,
00010000
00000010
00001000
00000100
00000001
00000100
00001000
00000010
,
00010000
01000000
00100000
00001000
00010000
00100000
01000000
00001000
,
00010000
00000000
00000000
00000000
01000000
00000000
00000000
00000000
10000000
00000000
00000000
00000000
10010000
00000000
00000000
00000000
00000000
M0000000
00000000
00000000
01010000
00000000
00000000
00000000
00110000
00000000
00000000
00000000
00000000
00000000
00000000
00000000
,
00001000
00010000
00001000
00000100
00001000
00010000
00100000
00010000
,
00001000
00000010
00000001
00000100
00000001
00000010
00000100
00000010
,
00002000
00000000
00000000
00000000
00000000
00000000
00000000
00000000
00023000
00000000
00000000
00000000
00000000
0000M000
00000000
00000000
00230000
00000000
00000000
00000000
00000000
000M0000
00000000
00000000
20300000
00000000
00000000
00000000
00000000
00M00000
00000000
00000000
,
31000000
00000000
00000000
00000000
00010000
M0000000
00000000
00000000
00001000
00000000
00000000
00000000
00000000
00000000
00000000
00000000
00010000
00000000
00000000
00000000
00001000
00000000
00000000
00000000
00000010
00000000
00000000
00000000
00001000
00000000
00000000
00000000
,
00010000
00000100
00000010
00000001
00000100
00000010
00010000
00000100
,
00000110
00001001
00000110
00010100
,
00001000
00010000
01000000
00010000
00001000
01000000
00100000
10000000
,
01000000
00000000
00000000
00000000
00010000
00000000
00000000
00000000
01000000
00000000
00000000
00000000
11000000
00000000
00000000
00000000
00000000
MM000000
00000000
00000000
00110000
00000000
00000000
00000000
00100000
00000000
00000000
00000000
01000000
00000000
00000000
00000000
,
10000000
00100000
00010000
00001000
00010000
01000000
00100000
00001000
,
00010000
00100000
01000000
00001000
00000010
00000001
00001000
00000010
,
00000100
00001000
00010000
00000010
00010000
00001000
00000010
00000100
,
00001001
00000000
00000000
00000000
00000110
00000000
00000000
0000000M
00000000
00000000
00000000
00000000
00000101
00000000
00000000
00000000
00000000
00000000
00000000
00000000
00001010
00000000
00000000
00000000
00001100
00000000
00000000
00000000
00000000
00000000
00000000
00000000
,
00010000
00100000
10000000
01000000
00010000
01000000
10000000
00100000
,
11000000
00000000
00110000
00000000
01001000
00001000
00011000
00010000
,
00000100
00001000
00000010
00001000
00000100
00000010
00000001
00000100
,
00000010
00000000
00010000
00000000
00000100
00000000
00000110
00000000
00000000
000000M0
00010100
00000000
00000000
00000000
00010000
00000000
,
00001000
00000100
00001000
00010000
01000000
10000000
00100000
00010000
,
00100000
01000000
00001000
00000010
00000100
00010000
00000010
00000100
,
00000001
00000010
00000100
00001000
00000010
00000100
00001000
00010000
,
00000100
00000000
00000000
00000000
00010000
00000000
00000000
00000000
00001000
00000000
00000000
00000000
00101000
00000000
00000000
00000000
00000000
00M00000
00000000
00000000
01001000
00000000
00000000
00000000
01010000
00000000
00000000
00000000
00010000
00000000
00000000
00000000
,
10000000
00100000
01000000
00001000
00010000
01000000
00100000
00001000
,
00010000
00000010
00000100
00000001
00000010
00000100
00010000
00001000
,
00000100
00000001
00000010
00001000
00010000
00100000
10000000
01000000
,
00100000
00001000
00010000
01000000
10000000
00010000
01000000
00100000
,
00010000
00001000
00000100
00000010
00001000
00000100
00000010
00000001
,
00000100
00001000
00010000
00000100
00000010
00000001
00000100
00000010
,
00010000
00001000
00100000
01000000
00010000
00001000
01000000
00100000
,
10000000
01000000
00100000
00001000
01000000
00100000
00010000
00001000
,
00010000
00000100
00000010
00000001
00000100
00000010
00001000
00000100
,
00000001
00000100
00001000
00000001
00000100
00000010
00010000
00001000
,
00100000
01000000
10000000
00100000
01000000
00001000
00010000
01000000
,
10000000
00100000
01000000
00001000
00100000
01000000
00010000
00000000
,
00000010
00000100
00001000
00010000
00001000
00000010
00000100
00001000
,
00000001
00000100
00001000
00000100
00000001
00000010
00001000
00010000
,
01000000
10000000
00100000
00010000
00100000
01000000
00001000
00000000
,
00010000
00000100
00000010
00001000
00010000
00100000
01000000
00010000
,
10010000
00000000
10100000
00000000
10000000
00000000
00100000
00000000
01000000
00000000
00010000
01000000
00100000
00000000
10100000
00000000
,
00000000
00000000
01000000
00000000
00010000
00000000
00001000
00000000
00010000
00000100
00000010
00000000
00000011
00000000
00000101
00000000
,
00000000
00000000
00000010
00000000
00010000
00000000
00100000
00000000
01000000
00000000
00010000
01000000
00100000
00000000
10100000
00000000
,
00000000
00000000
01000000
00000000
00010000
00000000
00000100
00000000
00001000
00000010
00000100
00000000
00000101
00000000
00000010
00000000
,
00001100
00000000
00000000
00000000
;

//---------------lights-cabinet - ----------------
#NOTES:
     lights-cabinet:
     :
     Easy:
     1:
     1.000,0.000,1.000,0.433,0.059,425.000,223.000,51.000,0.000,223.000,0.000:


00000000
00000000
00000000
00000000
,
00000000
00000000
00000000
00000000
,
00000000
00000000
00000000
00000000
,
00000000
00000000
00000000
00000000
,
10000000
00020000
00000011
01030000
00100000
20000000
00000011
30010000
,
01000000
00200000
00000011
01300000
00020000
00000000
10030011
00000000
,
00010000
20000000
00000011
30100000
01000000
00020000
00000011
10030000
,
00100000
02000000
00000011
03100000
20020011
01101100
01101100
31131100
,
10000011
00000000
00100000
01000011
00010000
00000000
01000000
00000000
,
00010011
00000000
01000000
00100000
10000000
00000011
00100000
00000000
,
10000011
00000000
00100000
01000000
00010000
00000011
01000000
00000000
,
00010011
01000000
11110000
00000000
10000000
01000011
11110000
00000000
,
10000011
00000000
00100000
01000011
00010000
00000000
01000000
00000000
,
00010011
00000000
01000000
00100000
10000000
00000011
00100000
00000000
,
10000011
00000000
00100000
01000000
00010000
00000011
01000000
00000000
,
10000022
01000000
11110000
00000000
00010033
01000000
11110000
00000000
,
10000011
00000000
00100000
01000011
00000000
01000000
00010000
00000000
,
00010011
00000000
01000000
00100000
00000000
00100011
10000000
00000000
,
10000011
00000000
00100000
01000000
00000000
01000011
00100000
00000000
,
00010011
01000000
11110000
00000022
10000000
01000000
11110033
00000000
,
00010011
00000000
01000000
00100011
00000000
00100000
10000000
00000000
,
10000011
00000000
00100000
01000000
00000000
01000011
00010000
00000000
,
00010011
00000000
01000000
00100000
00000000
00100011
01000000
00000000
,
10000022
01000000
11110000
00000000
00010033
01000000
11110000
00000000
,
10000011
00000000
00100000
01000011
00100000
00000000
00100000
00000000
,
00010011
00000000
01000000
00100000
01000000
00000011
00000000
00000000
,
10000011
00000000
00100000
01000000
00100000
00000011
00100000
00000000
,
00010022
01000000
11110000
00000000
10000033
01000000
11110000
00000000
,
10000011
00000000
00100000
01000011
00100000
00000000
00100000
00000000
,
00010011
00000000
01000000
00100000
01000000
00000011
01000000
00000000
,
10000011
00000000
00100000
01000000
00100000
00000011
00100000
00000000
,
10000022
01000000
11110000
00000000
00010033
01000000
11110000
00000000
,
10000011
00000000
00000000
00100011
00000000
00100000
01000000
00000000
,
00100011
00000000
01000000
00100000
10000000
00000011
00000000
00000000
,
00010011
00000000
00000000
01000000
00000000
01000011
00100000
00000000
,
01000022
00000000
00100000
01000000
00010033
00000000
11110000
00000000
,
10000011
00100000
01000000
00010011
00000000
10010000
11110000
00000000
,
00010011
01000000
00100000
10000000
00000000
10010011
11110000
00000000
,
01100011
10010000
01100000
10010000
,
22220000
00000000
33330000
11111100
,
10000011
00000000
00000000
00100000
10000011
00000000
00100000
00000000
01000011
00000000
00010000
00000000
01000011
00000000
00000000
00000000
,
00010011
01000000
00010011
00000000
00100011
00000000
00100011
00000000
,
00010011
00000000
00000000
01000000
00010011
00000000
01000000
00000000
00100011
00000000
10000000
00000000
00100011
00000000
00000000
00000000
,
10000022
00100000
10000033
00000011
02000000
00000011
00100000
03000000
,
00010011
00000000
00000000
01000000
00010011
00000000
01000000
00000000
00100011
00000000
01000000
00000000
00100011
00000000
00000000
00000000
,
10000011
00100000
01000011
00010000
01000011
00000000
00010011
00000000
,
10000011
00100000
01000011
00100000
01000011
00100000
01000011
00010000
,
10000022
00000000
00010000
00000000
20000033
00000000
00100000
30000000
,
00010011
00000000
00000000
01000000
00010011
00000000
01000000
00000000
00100011
00000000
10000000
00000000
00100011
00000000
00000000
00000000
,
10000011
00100000
10000011
00000000
01000011
00000000
01000011
00000000
,
10000011
00000000
00000000
00100000
10000011
00000000
00100000
00000000
01000011
00000000
00010000
00000000
01000011
00000000
00000000
00000000
,
00010011
01000000
00010000
00000022
00200000
00000000
01000033
00300000
,
10000011
00000000
00000000
00100000
10000000
00000000
00100011
00000000
01000000
00000000
00100000
00000000
01000011
00000000
00000000
00000000
,
10000011
00100000
01000000
00010000
01000000
00000011
00010000
00000000
,
20010011
00000000
00010000
00000000
00010000
00000011
30010000
00100000
,
12010022
10010000
10010033
13010000
,
10000011
00000000
00000000
00100000
10000011
00000000
00100000
00000000
01000011
00000000
00010000
00000000
01000011
00000000
00000000
00000000
,
00010011
01000000
00010011
00000000
00100011
00000000
00100011
00000000
,
00010011
00000000
00000000
01000000
00010011
00000000
01000000
00000000
00100011
00000000
10000000
00000000
00100011
00000000
00000000
00000000
,
10000022
00100000
11110000
00000000
02000033
00000000
10110000
03000000
,
00010011
00000000
00000000
01000000
00010011
00000000
01000000
00000000
00100011
00000000
01000000
00000000
00100011
00000000
00000000
00000000
,
10000011
00100000
01000011
00010000
01000011
00000000
00010011
00000000
,
10000011
00100000
01000011
00100000
01000011
00100000
01000011
00010000
,
10000022
00000000
11110000
00000000
20000033
00000000
01110000
30000000
,
00010011
00000000
00000000
01000000
00010011
00000000
01000000
00000000
00100011
00000000
10000000
00000000
00100011
00000000
00000000
00000000
,
10000011
00100000
10000011
00000000
01000011
00000000
01000011
00000000
,
10000011
00000000
00000000
00100000
10000011
00000000
00100000
00000000
01000011
00000000
00010000
00000000
01000011
00000000
00000000
00000000
,
00010022
01000000
00010000
00000000
00200033
00000000
01000000
00300000
,
10000011
00000000
00000000
00100000
10000000
00000000
00100011
00000000
01000000
00000000
00100000
00000000
01000000
00000000
00000000
00000000
,
10000011
00100000
01000000
00010000
01000000
00000011
00010000
00000000
,
20000011
00000000
01110000
00000000
01110011
00000000
30010000
00100000
,
12110022
10110000
10111133
13111100
,
00001111
11110000
00000000
11110000
00000011
11110000
00000000
11110000
,
00000011
00000000
11110000
00000000
00000000
00000000
11110000
00000000
01000111
00101000
01000100
00000000
00101111
00000000
11110000
00000000
,
00000011
11110000
00000000
11110000
00000011
11110000
00000000
11110000
,
00000011
00000000
11110000
00000000
00000000
00000000
11110000
00000000
00000111
00001000
11110100
00000000
01101111
00000000
11110000
00000000
,
11111111
00000000
00000000
00000000
;

//---------------dance-single - M. Puls----------------
#NOTES:
     dance-single:
     M. Puls:
     Beginner:
     1:
     0.085,0.000,0.017,0.000,0.000,68.000,2.000,0.000,0.000,0.000,0.000:





0000
0000
0000
0000
,
0000
0000
0000
0000
,
0000
0000
0000
0000
,
0000
0000
0000
0000
,
1000
0000
0000
0000
,
0000
0000
0000
0000
,
0001
0000
0000
0000
,
0000
0000
0000
0000
,
0100
0000
0000
0000
,
1000
0000
0000
0000
,
1000
0000
0000
0000
,
0001
0000
0000
0000
,
0100
0000
0000
0000
,
0100
0000
0000
0000
,
0100
0000
0000
0000
,
0001
0000
0000
0000
,
0001
0000
0000
0000
,
1000
0000
0000
0000
,
0010
0000
0000
0000
,
0010
0000
0000
0000
,
0010
0000
0000
0000
,
1000
0000
1000
0000
,
0000
0000
0000
0000
,
0001
0000
0001
0000
,
0000
0000
0000
0000
,
0001
0000
0000
0000
,
0010
0000
0000
0000
,
0001
0000
0000
0000
,
1000
0000
0000
0000
,
0100
0000
0000
0000
,
1000
0000
0000
0000
,
0100
0000
0000
0000
,
0010
0000
0000
0000
,
0100
0000
0000
0000
,
1000
0000
0000
0000
,
0001
0000
0000
0000
,
1000
0000
0000
0000
,
0001
0000
0000
0000
,
0100
0000
0000
0000
,
0000
0000
0000
0000
,
0001
0000
0000
0000
,
0001
0000
0000
0000
,
1000
0000
0000
0000
,
1000
0000
0000
0000
,
0001
0000
0000
0000
,
0010
0000
0000
0000
,
0100
0000
0000
0000
,
0001
0000
0000
0000
,
0001
0000
0000
0000
,
1000
0000
0000
0000
,
0100
0000
0000
0000
,
0100
0000
0000
0000
,
0100
0000
0000
0000
,
0100
0000
0000
0000
,
0010
0000
0000
0000
,
0010
0000
0000
0000
,
0010
0000
0000
0000
,
0100
0000
0000
0000
,
0000
0000
0000
0000
,
1000
0000
0010
0000
,
1000
0000
0000
0000
,
0100
0000
0000
0000
,
0010
0000
0000
0000
,
0100
0000
0000
0000
,
0001
0000
0010
0000
,
0001
0000
0000
0000
,
0010
0000
0000
0000
,
0100
0000
0000
0000
,
0001
0000
0000
0000
,
0000
0000
0000
0000
,
1000
0000
0000
0000
,
0010
0000
0000
0000
,
0100
0000
0000
0000
,
0000
0000
0000
0000
,
1001
0000
0000
0000
,
0000
0000
0000
0000
,
1001
0000
0000
0000
;
