#TITLE:Fly With Me;
#SUBTITLE:;
#ARTIST:Nina;
#TITLETRANSLIT:;
#SUBTITLETRANSLIT:;
#ARTISTTRANSLIT:;
#GENRE:;
#CREDIT:;
#BANNER:Fly With Me-banner.png;
#BACKGROUND:Fly With Me-bg.png;
#LYRICSPATH:;
#CDTITLE:;
#MUSIC:Nina - Fly With Me.ogg;
#OFFSET:-0.061;
#SAMPLESTART:16.700;
#SAMPLELENGTH:15.140;
#SELECTABLE:YES;
#BPMS:0.000=135.012,32.000=137.001,33.500=119.380,33.750=93.740,34.000=84.520,34.250=68.080,34.500=47.720,34.750=29.480,35.000=135.012,152.000=134.892,156.000=135.012,191.500=135.112,196.000=135.012;
#STOPS:35.000=0.947
;
#BGCHANGES:0.000=Fly With Me-bg.png=1.000=0=0=1=====,
16.000=vol4-20-ntsc.mpg=1.000=0=0=1=====,
24.000=vol4-13-ntsc.mpg=1.000=0=0=1=====,
32.000=vol4-13-ntsc.mpg=0.900=0=0=1=====,
35.000=vol4-13-ntsc.mpg=0.000=0=0=1=====,
36.000=vol4-24-ntsc.mpg=1.000=0=0=1=====,
52.000=vol3-10-ntsc.mpg=1.000=0=0=1=====,
68.000=vol3-11-ntsc.mpg=1.000=0=0=1=====,
84.000=VOL1-06-NTSC.mpg=1.000=0=0=1=====,
100.000=VOL1-29-NTSC.mpg=1.000=0=0=1=====,
104.000=vol3-06-ntsc.mpg=1.000=0=0=1=====,
120.000=VOL1-39-NTSC.mpg=1.000=0=0=1=====,
136.000=vol4-09-ntsc.mpg=1.000=0=0=1=====,
152.000=jb_043.mpg=1.000=0=0=1=====,
156.000=vol4-20-ntsc.mpg=1.000=0=0=1=====,
172.000=vol4-24-ntsc.mpg=1.000=0=0=1=====,
188.000=vol4-13-ntsc.mpg=1.000=0=0=1=====,
196.000=vol3-10-ntsc.mpg=1.000=0=0=1=====,
212.000=vol3-07-ntsc.mpg=1.000=0=0=1=====,
228.000=vol3-11-ntsc.mpg=1.000=0=0=1=====,
236.000=vol4-04-ntsc.mpg=1.000=0=0=1=====,
252.000=jb_043.mpg=1.000=0=0=1=====,
260.000=vol4-04-ntsc.mpg=1.000=0=0=1=====,
268.000=Fly With Me-bg.png=1.000=0=0=1=====,
99999=-nosongbg-=1.000=0=0=0 // don't automatically add -songbackground-
;
#KEYSOUNDS:;
// cache tags:
#FIRSTBEAT:8.000;
#LASTBEAT:268.000;
#SONGFILENAME:/Songs/In The Groove/Fly With Me/flywithme.sm;
#HASMUSIC:1;
#HASBANNER:1;
#MUSICLENGTH:124.081;
// end cache tags

//---------------dance-single - K. Ward----------------
#NOTES:
     dance-single:
     K. Ward:
     Easy:
     2:
     0.161,0.000,0.032,0.000,0.000,136.000,4.000,0.000,0.000,0.000,0.000:



0000
0000
0000
0000
,
0000
0000
0000
0000
,
0000
0000
0000
0000
,
0000
0000
0000
0000
,
1000
0000
0000
0000
,
0001
0000
0000
0000
,
1000
0000
0010
0000
,
1000
0000
0010
0000
,
1001
0000
0000
0000
,
1000
0000
0100
0000
,
1000
0000
1000
0000
,
0001
0000
0010
0000
,
0001
0000
0001
0000
,
1000
0000
0001
0000
,
1000
0000
1000
0000
,
0001
0000
0001
0000
,
0100
0000
0100
0010
,
1000
0000
0001
0000
,
0100
0000
0010
0000
,
1000
0000
1000
0000
,
0001
0000
0000
0000
,
1000
0000
0001
0000
,
0100
0000
0010
0000
,
1000
0000
1000
0000
,
0001
0000
0010
0000
,
0001
0000
0000
0000
,
1000
0000
1000
1000
,
0010
0000
0100
0100
,
0001
0000
1000
1000
,
0001
0000
0100
0100
,
0001
0000
1000
1000
,
0010
0000
1000
1000
,
0001
0000
0100
0100
,
0010
0000
1000
1000
,
0001
0000
0100
0000
,
0010
0000
1000
0000
,
0001
0000
0100
0000
,
0010
0000
1000
0000
,
1001
0000
0000
0000
,
1000
0000
0001
0000
,
0100
0000
0010
0000
,
1000
0100
1000
0100
,
1000
0100
1000
0000
,
0001
0000
0001
0000
,
0100
0000
0010
0000
,
1000
0000
0010
0000
,
0100
0000
0010
0000
,
1000
0000
0000
0000
,
1001
0000
0000
0000
,
0001
0000
0010
0000
,
0001
0000
0001
0000
,
1000
0000
0100
0000
,
1000
0000
1000
0000
,
0001
0000
1000
0000
,
0001
0000
0001
0000
,
1000
0000
1000
0000
,
0010
0000
0010
0100
,
0001
0000
0001
0000
,
0100
0000
0001
0001
,
1000
0000
0010
0000
,
0100
0000
0010
0000
,
1000
0000
0010
0000
,
0100
0000
0001
0000
,
1000
0000
0100
0000
,
1000
0000
0010
0000
,
1000
1000
0001
0001
,
0100
0100
0001
0000
,
1001
0000
0000
0000
;

//---------------dance-single - K. Ward----------------
#NOTES:
     dance-single:
     K. Ward:
     Medium:
     5:
     0.297,0.000,0.048,0.048,0.000,246.000,6.000,6.000,0.000,0.000,0.000:



0000
0000
0000
0000
,
0000
0000
0000
0000
,
1001
0000
0000
0000
,
0110
0000
0000
0000
,
1000
0001
1000
0001
0100
0000
0010
0000
,
0001
1000
0001
1000
0010
0000
0100
0000
,
1000
0001
1000
0001
0100
0000
0010
0000
,
0001
1000
0001
1000
0010
0000
0100
0000
,
1001
0000
0000
0000
,
1000
0001
0010
0010
,
0001
0000
1000
0000
0001
0010
0001
0000
,
1000
0010
0100
0100
,
0001
0000
1000
0000
0001
1000
0001
1000
,
0001
1000
0100
0100
,
1000
0000
0001
0000
1000
0100
1000
0000
,
0001
0100
0010
0010
,
1000
0000
0001
0000
1000
0001
1000
0000
,
1000
0010
1000
0001
,
1000
0010
1000
0001
,
2000
0000
0000
0000
0001
3000
0001
0100
,
0000
0000
0010
0010
,
0001
0100
0001
1000
,
0001
0100
0001
1000
,
0002
0000
0000
0000
1000
0003
1000
0010
,
0000
0000
1000
0010
,
1000
0000
0000
0000
,
0010
0000
0000
0000
1000
0010
0100
0000
,
0001
0000
0000
0000
0100
0001
0100
0000
,
0010
0000
0000
0000
1000
0010
0100
0000
,
0001
0000
0000
0000
0100
0001
0100
0000
,
0010
0000
0010
0100
0010
0000
0000
0000
,
0100
0000
0100
0001
0100
0000
0000
0000
,
1000
0000
1000
0010
1000
0000
0000
0000
,
0010
0000
0010
0100
0010
0000
0000
0000
,
0001
1000
0001
0000
0001
0000
0000
0000
,
1000
0001
1000
0000
1000
0000
0000
0000
,
0001
1000
0001
0000
0001
0000
0000
0000
,
1000
0001
1000
0000
1000
0001
1000
0001
,
1001
0000
0000
0000
,
1000
0010
1000
0001
,
1000
0010
1000
0001
,
2000
0001
0000
0001
,
0000
0001
3010
0000
,
0001
0100
0001
1000
,
0001
0100
0001
1000
,
0002
1000
0000
1000
,
0000
1000
0103
0000
,
1000
0000
0000
0000
,
0001
0000
0000
0000
,
1000
0001
0010
0010
,
0001
0000
1000
0000
0001
0010
0001
0000
,
1000
0010
0100
0100
,
0001
0000
1000
0000
0001
1000
0001
1000
,
0001
1000
0100
0100
,
1000
0000
0001
0000
1000
0100
1000
0000
,
0001
0100
0010
0010
,
1000
0000
0001
0000
1000
0001
1000
0000
,
1000
0010
1000
0001
,
1000
0010
1000
0001
,
2000
0001
0000
0001
,
0000
0001
3010
0000
,
0002
0000
1000
0000
,
1000
0000
1000
0003
,
1100
0001
0001
0001
,
0010
0001
0001
0001
,
0100
0001
0001
0001
,
0010
0001
0100
0001
0100
0000
0010
0000
,
1001
0000
0000
0000
;

//---------------dance-single - R. McKanna----------------
#NOTES:
     dance-single:
     R. McKanna:
     Hard:
     7:
     0.416,0.000,0.064,0.048,0.153,347.000,8.000,6.000,0.000,0.000,0.000:




0000
0000
0000
0000
,
0000
0000
0000
0000
,
0000
0000
0000
0000
,
0000
0000
0000
0000
,
1000
0000
0100
1000
0000
0100
1000
0000
0010
0000
0000
0000
0100
0000
0000
0000
,
0001
0000
0010
0001
0000
0010
0001
0000
0100
0000
0000
0000
0001
0000
0000
0000
,
1000
0000
0010
1000
0000
0010
1000
0000
0100
0000
0000
0000
0010
0000
0000
0000
,
0001
0000
0100
0001
0000
0100
0001
0000
0010
0000
0000
0000
0001
0000
0000
0000
,
1001
0000
0000
0000
,
1000
0000
0000
0100
0000
0000
1000
0000
0001
0000
0000
0000
0001
0000
0000
0000
,
1000
0000
0000
0001
0000
0000
1000
0000
0010
0000
0100
0000
0001
0000
0000
0000
,
1000
0000
0000
0010
0000
0000
1000
0000
0100
0000
0000
0000
0100
0000
0000
0000
,
1000
0000
0000
0100
0000
0000
1000
0000
0010
0000
0100
0000
0001
0000
1000
0000
,
0001
0000
0000
0100
0000
0000
0001
0000
1000
0000
0000
0000
1000
0000
0000
0000
,
0001
0000
0000
1000
0000
0000
0001
0000
0010
0000
0100
0000
1000
0000
0000
0000
,
0001
0000
0000
0010
0000
0000
0001
0000
0100
0000
0000
0000
0100
0000
0000
0000
,
0001
0000
0000
0100
0000
0000
0001
0000
0010
0000
0100
0000
1000
0000
0001
0000
,
0100
0000
0010
0100
0001
0000
0110
0000
,
0001
0000
0010
0100
1000
0000
0110
0000
,
2000
0000
0001
0000
0010
0000
0001
0001
,
3000
0000
1000
0000
1000
0001
1000
0001
,
0010
0000
0100
0010
0001
0000
0110
0000
,
0001
0000
0100
0010
1000
0000
0110
0000
,
0002
0000
1000
0000
0100
0000
1000
1000
,
0003
0000
0000
0000
0001
0000
0000
0000
0001
0000
0000
0000
0001
0000
0000
1000
,
0100
0000
0000
0000
,
1001
0000
0000
0100
0000
0000
0010
0000
1000
0000
0100
0000
1000
0000
0010
0000
,
1000
0000
0000
0100
0000
0000
1000
0000
0001
0000
0100
0000
0001
0000
0010
0000
,
0001
0000
0000
0100
0000
0000
0010
0000
1000
0000
0010
0000
0100
0000
0010
0000
,
1000
0000
0000
0001
0000
0000
0100
0000
0010
0000
0100
0000
0001
0000
0100
0000
,
0010
0000
0000
0100
0000
0000
0001
0000
0100
0000
0010
0000
0100
0000
0001
0000
,
1000
0000
0000
0001
0000
0000
0010
0000
0100
0000
0001
0000
0100
0000
0010
0000
,
0100
0000
0000
1000
0000
0000
0010
0000
0100
0000
1000
0000
0100
0000
0010
0000
,
0100
0000
0000
0001
0000
0000
0010
0000
1000
0000
0010
0000
0001
0000
0100
0000
,
0002
0000
0000
0100
0000
0000
1000
0000
1000
0000
0000
0000
0010
0000
0010
0000
,
0010
0000
0000
1000
0000
0000
0100
0000
0100
0000
0000
0000
1003
0000
1000
0000
,
2000
0000
0000
0100
0000
0000
0001
0000
0001
0000
0000
0000
0010
0000
0010
0000
,
0010
0000
0000
0001
0000
0000
0100
0000
0100
0000
0000
0000
0001
0000
0001
0000
,
3001
1000
0100
0001
,
0100
0000
0000
0010
0000
0000
1000
0000
,
0100
0000
0000
0001
0000
0000
0100
0000
,
1000
0000
0010
1000
0100
0000
0010
1000
,
0100
0000
0010
1000
0100
0000
0100
0000
,
0100
0000
0000
0010
0000
0000
0001
0000
,
0010
0000
0000
1000
0000
0000
0010
0000
,
0001
0000
0010
0001
0100
0000
0010
0001
,
0100
0000
0000
0000
0010
0000
0001
0000
0100
0000
0000
0000
0100
0000
0000
0010
,
1000
0000
0000
0000
0000
0000
0000
0100
,
2002
0000
0000
3003
,
0001
0000
0000
0010
0000
0000
0001
0000
1000
0000
0000
0000
1000
0000
0000
0000
,
0001
0000
0000
1000
0000
0000
0001
0000
0100
0000
0010
0000
1000
0000
0000
0000
,
0001
0000
0000
0100
0000
0000
0001
0000
0010
0000
0000
0000
0010
0000
0000
0000
,
0001
0000
0000
0010
0000
0000
0001
0000
0100
0000
0010
0000
1000
0000
0001
0000
,
1000
0000
0000
0010
0000
0000
1000
0000
0001
0000
0000
0000
0001
0000
0000
0000
,
1000
0000
0000
0001
0000
0000
1000
0000
0100
0000
0010
0000
0001
0000
0000
0000
,
1000
0000
0000
0100
0000
0000
1000
0000
0010
0000
0000
0000
0010
0000
0000
0000
,
1000
0000
0000
0010
0000
0000
1000
0000
0100
0000
0010
0000
0001
0000
1000
0000
,
0010
0000
1000
0100
1000
0100
0010
0000
,
0100
0000
1000
0010
1000
0010
0100
0100
,
0001
0000
0010
1000
0100
0000
0010
0001
,
0100
0000
0010
1000
0100
0000
0100
0000
,
0001
0000
0100
0010
0100
0010
1000
0000
,
0100
0000
0001
0010
0001
0010
0100
0100
,
0010
0000
0001
1000
0001
1000
0100
0000
,
0010
0000
1000
0001
1000
0001
0010
0010
,
0100
0000
1000
0010
1000
0010
0100
0000
,
1000
0000
0001
0100
0001
0100
0010
0010
,
1001
0000
0000
0000
;

//---------------dance-single - K. Ward----------------
#NOTES:
     dance-single:
     K. Ward:
     Challenge:
     9:
     0.693,0.000,0.556,0.226,0.387,505.000,69.000,28.000,0.000,0.000,0.000:



0000
0000
0000
0000
,
0000
0000
0000
0000
,
0000
0000
0000
0000
,
0000
0000
0000
0000
,
0001
0000
0010
0001
0000
0010
0001
0000
0100
0000
0010
0000
0100
0000
0010
0000
,
1000
0000
0100
1000
0000
0100
1000
0000
0010
0000
0100
0000
0010
0000
0100
0000
,
0001
0000
0100
0001
0000
0100
0001
0000
0010
0000
0100
0000
0010
0000
0100
0000
,
1000
0000
0010
1000
0000
0010
1000
0000
0100
0000
1000
0000
0010
0000
0100
0000
,
0022
0000
0000
0000
0000
0000
0000
0000
0000
0000
0000
0000
0000
0033
0000
0000
,
0100
0000
0001
0100
0001
0000
1000
0000
0010
1000
0010
0000
0100
0000
0010
0000
,
1000
0000
0010
1000
0010
0000
0100
0000
0001
0100
0001
0000
0200
0000
0000
0000
,
0301
0000
1000
0100
1000
0000
0001
0000
0010
0001
0100
0000
0001
0000
0100
0000
,
0010
0000
1000
0100
1000
0000
0010
0000
0100
0010
0000
0100
0001
0000
1000
0000
,
0001
0000
0010
0001
0100
0000
0010
0000
0100
0001
1000
0000
0010
0000
0100
0000
,
0001
0000
0010
0001
0010
0000
0001
0000
0100
0010
1000
0000
0020
0000
0000
0000
,
1030
0000
0001
0010
0001
0000
0100
0000
0010
1000
0001
0000
1000
0000
0010
0000
,
1000
0000
0100
1000
0100
0000
1000
0000
0010
0100
0000
0001
0100
0000
0001
0000
,
0010
0110
0010
0110
1000
0110
1000
1100
,
0100
0110
0010
0110
1000
0110
1000
1001
,
0010
0110
1001
1001
1100
0011
1001
2002
,
0000
0000
0000
0000
3003
0000
0000
0000
0001
1000
0001
1000
0001
0000
1000
0000
,
0100
0110
0010
0011
0100
0110
0001
1100
,
0100
0110
0010
0110
1000
0110
1000
1001
,
1100
0110
1001
0011
0010
0110
1001
2002
,
0000
0000
3003
0000
0000
0000
0000
0000
1000
0100
1000
0000
0001
0100
0010
1000
,
0002
0000
0000
0003
0000
0000
0000
0000
,
1001
0000
0000
0110
0000
0000
0010
1000
0100
0000
1000
0000
0010
0000
1000
0000
,
1001
0000
0000
0110
0000
0000
0100
0001
0010
0000
0001
0000
0100
0000
0001
0000
,
1001
0000
0000
0110
0000
0000
0010
1000
0100
0000
1000
0000
0010
0000
1000
0000
,
1001
0000
0000
0110
0000
0000
0100
0001
0010
0000
0001
0000
0100
0000
0001
0000
,
0110
0000
0000
1100
0000
0000
1000
0100
1000
0000
0100
0000
1000
0000
0100
0000
,
0110
0000
0000
0011
0000
0000
0001
0010
0001
0000
0010
0000
0001
0000
0010
0000
,
0110
0000
0000
1100
0000
0000
1000
0100
1000
0000
0100
0000
1000
0000
0100
0000
,
0110
0000
0000
1001
0000
0000
0001
0010
0001
0000
0010
0000
0001
0000
1000
0000
,
0020
0000
0000
0100
0000
0000
1000
0000
1000
0000
1000
0000
1030
0000
0000
0000
,
0200
0000
0000
0010
0000
0000
0001
0000
0001
0000
0001
0000
0301
0000
0000
0000
,
2000
0000
0000
0001
0000
0000
0010
0000
0010
0000
0010
0000
3010
0000
0000
0000
,
2000
0000
0000
0001
0000
0000
3001
0000
1000
0010
0100
0001
0010
0001
0100
0010
,
1000
0000
0000
0000
,
1000
0110
0010
0110
0001
0011
1000
0110
,
1000
0110
0010
0011
0100
0110
1000
1001
,
0010
0100
0010
0000
1001
0000
0000
0000
0010
0100
0010
0000
1001
0000
0000
0000
,
0001
0000
0100
0000
0010
0000
1000
0000
0001
1000
0001
1000
0001
0000
0000
0000
,
1000
0110
0010
0110
1000
0110
1000
1100
,
0110
1100
0001
0110
1000
1100
0001
1100
,
0010
0100
0010
0000
1001
0000
0000
0000
0100
0010
0100
0000
1001
0000
0000
0000
,
1000
0100
1000
0000
0001
0010
0001
0000
1000
0000
0100
0000
1000
0000
0001
0100
,
0020
0000
0000
0000
,
2000
0030
0000
0010
0001
0000
3010
0001
,
1000
0000
0001
0010
0001
0000
1000
0000
0100
1000
0010
0000
1000
0000
0010
0000
,
1000
0000
0001
0010
0001
0000
1000
0000
0100
1000
0100
0000
2000
0000
0000
0000
,
3001
0000
0010
0001
0010
0000
0001
0000
0100
0010
1000
0000
0010
0000
1000
0000
,
0010
0000
0100
0001
0100
0000
0010
0000
1000
0100
0000
1000
0010
0000
0100
0000
,
0001
0000
0010
0001
0010
0000
0001
0000
0100
0010
1000
0000
0010
0000
1000
0000
,
0001
0000
0010
0001
0010
0000
0001
0000
0100
0010
1000
0000
0002
0000
0000
0000
,
1003
0000
0001
0010
0001
0000
1000
0000
0100
1000
0010
0000
0100
0000
0001
0000
,
1000
0000
0001
0010
0001
0000
1000
0000
0100
1000
0000
0010
0100
0000
0001
0000
,
0100
0000
0010
1000
0001
0000
0010
0000
0001
0000
0010
0000
0200
0000
0000
0000
,
1300
0000
0010
1000
0001
0000
0010
0000
0001
0000
0010
0000
0200
0000
0000
0000
,
1300
0010
0200
0000
0301
0010
0002
0000
,
0103
0010
2000
0010
0010
0010
3020
0000
,
1030
0100
0020
0000
0031
0100
0020
0000
,
1030
0100
2000
0010
3010
0010
0200
0000
,
0301
0000
0000
0000
0001
0010
0001
0010
0001
0000
0000
0000
1000
0100
1000
0100
,
1000
0000
0000
0000
0001
0010
0001
0010
0001
0000
0010
0000
0002
0000
0100
0000
,
0103
0000
0000
0000
1000
0100
1000
0100
1000
0000
0000
0000
0010
1000
0010
1000
,
0001
0000
0100
0000
0001
1000
0001
0000
0100
0000
0010
0000
0100
0001
0100
0000
,
0011
0000
0000
0000
;

//---------------dance-double - M. Emirzian----------------
#NOTES:
     dance-double:
     M. Emirzian:
     Easy:
     4:
     0.282,0.000,0.193,0.089,0.000,210.000,24.000,11.000,0.000,0.000,0.000:



00000000
00000000
00000000
00000000
,
00000000
00000000
00000000
00000000
,
00000000
00000000
00000000
00000000
,
00000000
00000000
00000000
00000000
,
00000001
00001000
00001000
00000000
,
00000001
00000100
00000100
00000000
,
00000010
00010000
00010000
00001000
,
00010000
00010000
00001000
00000000
,
00202000
00000000
00000000
00303000
,
00100000
00010000
00010000
10100000
,
10000000
10000000
01000000
00000000
,
00100000
00010000
00010000
01001000
,
00001000
00001000
00010000
00000000
,
00001000
00000010
00000010
00000011
,
00000100
00000100
00000010
00000000
,
00010000
00001000
00001000
00100000
,
00110000
01000000
01000000
00000000
,
10000000
10000000
01000000
00100000
,
00001000
00000000
00001000
00010000
,
00000100
00000010
00000100
00001000
,
00001001
00000110
00001001
00000000
,
00000100
00000001
00000010
00000100
,
00010000
00000000
00001000
00100000
,
00010000
01000000
00100000
01000000
,
10010000
01100000
10010000
00000000
,
00200000
00000000
00000000
00000000
,
00301000
00010000
00001000
00001000
,
00000000
00000100
00000001
00000001
,
00000000
00000010
00000100
00000100
,
00001010
00000010
00001000
00001000
,
00000200
00010000
00010300
00002000
,
00010000
00013000
00200000
00000000
,
02300000
00010000
03010000
00200000
,
01000000
01300000
10000000
00010000
,
10000000
10000000
10000000
00100000
,
00100000
00100000
00010000
00010000
,
00010000
00001000
00001000
00001000
,
00010000
00010000
00010000
00000100
,
00002000
00000000
00000000
00000000
,
00003010
00000100
00000001
00000100
,
00000010
00000000
00001000
00000100
,
00000010
00000001
00000100
00000010
,
00001010
00010010
00011000
00000000
,
00001000
00010000
00001000
01000000
,
00010000
00000000
10000000
01000000
,
00010000
01000000
10000000
00100000
,
10010000
01010000
01001000
00001000
,
00020000
00000000
00000000
00000000
,
00030000
00000000
00000000
00000000
,
00001000
00001000
00010000
00010100
,
00001000
00000010
00000010
00000000
,
00000100
00000100
00000001
00001001
,
00000100
00000010
00000010
00000000
,
00000100
00000100
00010000
00011000
,
00001000
01000000
01000000
00000000
,
00100000
00100000
10000000
01100000
,
01000000
00010000
00010000
00000000
,
10000000
00000000
01000000
00000000
,
00100000
00000000
00002000
00010000
,
00013000
00000000
00000010
00000000
,
00001001
00000000
00000100
00000010
,
00000100
00000000
00000001
00000000
,
00000010
00000000
00000100
00010000
,
00001000
00000000
00010000
00001000
00010000
00000000
00001000
00000000
,
01000000
00000000
00010000
01000000
00010000
00000000
01000000
00000000
,
00100000
10000000
00010000
00100000
,
00001000
00000000
01000000
00000000
00001000
00000000
00010000
00000100
,
00010100
00000000
00000000
00000000
,
;

//---------------dance-double - M. Emirzian----------------
#NOTES:
     dance-double:
     M. Emirzian:
     Medium:
     6:
     0.363,0.000,0.105,0.040,0.000,297.000,13.000,5.000,0.000,0.000,0.000:



00000000
00000000
00000000
00000000
,
00000000
00000000
00000000
00000000
,
00000000
00000000
00000000
00000000
,
00000000
00000000
00000000
00000000
,
00001000
00000000
00000000
00010000
00010000
00000000
00000100
00000000
,
00001000
00000000
00000000
00000010
00000010
00000000
00000100
00000001
,
00001000
00000000
00000000
00000010
00000010
00000000
00000100
00000000
,
00000010
00000000
00000000
00010000
00010000
00000000
00001000
00010000
,
00022000
00000000
00000000
00033000
,
00100000
00000000
10000000
00000000
01000000
00000000
00100000
00100000
,
00010000
00000000
01000000
00001000
00010000
00000000
00001000
00000000
,
00010100
00000000
00001000
00000000
00000010
00000000
00000100
00000100
,
00000001
00000000
00000010
00000100
00001000
00000000
00000010
00000000
,
00010100
00000000
00001000
00000000
00000100
00000000
00010000
00010000
,
00001000
00000000
01000000
00001000
00010000
00000000
01000000
00000000
,
10100000
00000000
01000000
00000000
00010000
00000000
00100000
00100000
,
00001000
00000000
00010000
00001000
01000000
00000000
01010000
00000000
,
01001000
00000000
00010000
00000000
00001000
00000000
00000010
00000100
,
00001000
00000000
00000010
00000100
00001000
00000000
00000100
00000000
,
00000001
00000010
00001000
00000000
00000010
00000001
00000100
00000000
,
00000010
00010000
00001000
01000000
,
00100000
00000000
10000000
01000000
00100000
00000000
00010000
01000000
,
10000000
00000000
01000000
00000000
00100000
10000000
01000000
00000000
,
00100000
01000000
10000000
00100000
00000000
00010000
00000000
00001000
,
00000000
00000010
00000000
00000100
00000000
00001000
00000000
00000001
,
00002000
00000000
00000000
00000000
,
00003010
00000000
00000100
00000000
00000001
00000100
00001000
00000000
,
00000100
00000000
00001000
00000000
00010000
00001000
01000000
00000000
,
00101000
00000000
00010000
00000000
01000000
00100000
01000000
00000000
,
00010000
10000000
01000000
00000000
00100000
01000000
00100000
00000000
,
01000000
10000000
00100000
00010000
,
00001000
00000000
00010000
00000100
00000010
00000100
00001000
00000000
,
00000001
00000100
00000010
00000100
,
00000001
00000000
00000010
00000100
00000010
00000001
00001000
00000000
,
00000010
00000100
00001000
00010000
,
01000000
00000000
10000000
00100000
01000000
00100000
10000000
00000000
,
01000000
00100000
00001000
00010000
,
00100000
00000000
00010000
00001000
01000000
00001000
00010000
00000010
,
00002000
00000000
00000000
00000000
,
00003100
00000000
00000010
00000000
00000001
00000010
00000001
00000000
,
00000010
00000000
00000100
00000000
00010000
00000000
00001000
00010000
,
00001000
00100000
00001000
00010000
,
01000000
00100000
01000000
00010000
,
00001000
00010000
00100000
00000000
01000000
00000000
00100000
10000000
,
01000000
00000000
00100000
00000000
00010000
01000000
00100000
01000000
,
00010000
00000000
10000000
00000000
01000000
00010000
00001000
00000000
,
01000000
00010000
00100000
00000000
00001000
00000000
00010000
00001000
,
00002000
00000000
00000000
00000000
,
00003000
00000000
00000000
00000000
,
00010100
00000000
00001000
00000000
00000010
00000000
00000100
00000100
,
00000010
00000000
00001000
00000100
00000010
00000000
00000100
00000000
,
00001001
00000000
00000100
00000000
00000010
00000000
00010000
00010000
,
00001000
00000000
01000000
00100000
01000000
00000000
00010000
00000000
,
01100000
00000000
10000000
00000000
01000000
00000000
00100000
00100000
,
00010000
00000000
01000000
00100000
01000000
00000000
00010000
00000000
,
00100000
01000000
00100000
00000000
00001000
00010000
01000000
00000000
,
10000000
01000000
00010000
00000000
00001000
00000000
00000000
00000000
,
00010000
00000000
00001000
00000000
00010000
00001000
00000010
00000000
,
00000100
00000010
00000001
00001001
,
00000100
00000000
00000010
00000100
00000001
00000000
00000010
00000000
,
00000100
00000000
00001000
00000010
00000100
00000000
00000010
00000000
,
00001000
00000100
00000010
00000000
00001000
00000000
00010000
00000000
,
00100000
01000000
00100000
10000000
,
10010000
10000000
01000000
01000000
,
00100000
00000000
00100000
00000000
00010000
01000000
00100000
01000000
,
00010000
00010000
00100000
00100000
,
00001000
00010000
00001000
00000010
00000100
00000010
00000001
00000100
,
00001001
00000000
00000000
00000000
;

//---------------dance-double - M. Emirzian----------------
#NOTES:
     dance-double:
     M. Emirzian:
     Hard:
     8:
     0.459,0.000,0.145,0.056,0.129,374.000,18.000,7.000,0.000,0.000,0.000:



00000000
00000000
00000000
00000000
,
00000000
00000000
00000000
00000000
,
00000000
00000000
00000000
00000000
,
00000000
00000000
00000000
00000000
,
00000010
00000000
00000000
00000100
00000000
00000000
00000010
00000000
00000001
00000000
00000000
00000000
00000101
00000000
00000000
00000000
,
00000010
00000000
00000000
00000100
00000000
00000000
00010000
00000000
00001000
00000000
00000000
00000000
00110000
00000000
00000000
00000000
,
01000000
00000000
00000000
00100000
00000000
00000000
10000000
00000000
00010000
00000000
00000000
00000000
10100000
00000000
00000000
00000000
,
01000000
00000000
00000000
00010000
00000000
00000000
00100000
00000000
01000000
00000000
00100000
00000000
00001000
00000000
00010000
00000000
,
00022000
00000000
00000000
00033000
,
00000100
00000000
00000000
00001000
00000000
00000000
00000010
00000000
00000100
00000000
00000000
00000000
00000101
00000000
00000000
00000000
,
00000010
00000000
00000000
00000100
00000000
00000000
00000010
00000000
00010000
00000000
00001000
00000000
00100000
00000000
00000000
00000000
,
01000000
00000000
00000000
10000000
00000000
00000000
00100000
00000000
01000000
00000000
00000000
00000000
00101000
00000000
00000000
00000000
,
00010000
00000000
00000000
01000000
00000000
00000000
00100000
00000000
00010000
00000000
00001000
00000000
00000010
00000000
00000000
00000000
,
00000001
00000000
00000000
00000100
00000000
00000000
00000010
00000000
00000100
00000000
00000000
00000000
00000101
00000000
00000000
00000000
,
00000100
00000000
00000000
00001000
00000000
00000000
00010000
00000000
00100000
00000000
01000000
00000000
00010000
00000000
00000000
00000000
,
00100000
00000000
00000000
01000000
00000000
00000000
00100000
00000000
00010000
00000000
00000000
00000000
11000000
00000000
00000000
00000000
,
10000000
00000000
00000000
00100000
00000000
00000000
01000000
00000000
00001000
00000000
00010000
00000000
00000100
00000000
00001000
00000000
,
00000110
00000000
00000100
00000010
00000100
00000001
00000100
00001000
,
00010000
00000000
00001000
00010000
01000000
00100000
01000000
00000000
,
10000000
00100000
01000000
00000000
00100000
10000000
01000000
00100000
,
01000000
00000000
00010000
00001000
01000000
00001000
00010000
00000000
,
00001000
00000100
00000010
00000100
00001000
00000000
00010000
01000000
,
00100000
01000000
00010000
00000000
00001000
00000010
00000100
00000010
,
00001000
00000000
00010000
00000000
00001000
00000100
00000010
00000000
,
00000100
00000001
00000010
00000000
00001100
00000000
00000101
00000000
,
00000200
00000000
00000000
00000000
00000000
00000000
00000000
00000300
,
00001000
00000000
00000000
00000010
00000000
00000000
00010000
00000000
00001000
00000000
00001000
00000000
00100000
00000000
00100000
00000000
,
01000000
00000000
00000000
10000000
00000000
00000000
00100000
00000000
01000000
00000000
01000000
00000000
00100000
00000000
00100000
00000000
,
00010000
00000000
00000000
00001000
00000000
00000000
00000010
00000000
00000100
00000000
00000100
00000000
00000010
00000000
00000010
00000000
,
00000001
00000000
00000000
00000100
00000000
00000000
00001000
00000000
00000100
00000000
00000100
00000000
00001000
00000000
00001000
00000000
,
00010000
00000000
00000000
01000000
00000000
00000000
10000000
00000000
00010000
00000000
00010000
00000000
01000000
00000000
01000000
00000000
,
00100000
00000000
00000000
10000000
00000000
00000000
01000000
00000000
00010000
00000000
00010000
00000000
00001000
00000000
00001000
00000000
,
00000100
00000000
00000000
00000001
00000000
00000000
00000010
00000000
00000100
00000000
00000100
00000000
00000010
00000000
00000010
00000000
,
00000001
00000000
00000000
00000100
00000000
00000000
00001000
00000000
00010000
00000000
00010000
00000000
00100000
00000000
00100000
00000000
,
10000000
00000000
00000000
00100000
00000000
00000000
01000000
00000000
00001000
00000000
00001000
00000000
00010000
00000000
00010000
00000000
,
01000000
00000000
00000000
10000000
00000000
00000000
00010000
00000000
01000000
00000000
01000000
00000000
00100000
00000000
00100000
00000000
,
00010000
00000000
00000000
00001000
00000000
00000000
00000010
00000000
00000100
00000000
00000100
00000000
00001000
00000000
00001000
00000000
,
00000001
00000000
00000000
00000100
00000000
00000000
00000010
00000000
00010000
00000000
00010000
00000000
00001000
00000000
00001000
00000000
,
01001000
00000000
00000000
00000000
,
00100000
00000000
01000000
00100000
01000000
10000000
00020000
00000000
,
01030000
00000000
00100000
00010000
00001000
00010000
02000000
00000000
,
03010000
00000000
00001000
00010000
00000100
00000000
00001000
00000010
,
00000100
00000000
00000001
00000010
00000100
00001000
00000010
00000100
,
00000010
00000000
00000100
00001000
00010000
00100000
01000000
00100000
,
00010000
00000000
00011000
00000000
00001000
00000010
00000100
00000010
,
00001000
00000000
00010000
00000000
00001000
00000100
00000010
00000100
,
00000001
00000010
00001000
00010000
00100000
01000000
00100000
10000000
,
00020000
00000000
00000000
00000000
,
00030000
00000000
00000000
00000000
,
00100000
00000000
00000000
00010000
00000000
00000000
01000000
00000000
00100000
00000000
00000000
00000000
10100000
00000000
00000000
00000000
,
10000000
00000000
00000000
01000000
00000000
00000000
00100000
00000000
01000000
00000000
00010000
00000000
00001000
00000000
00000000
00000000
,
00000100
00000000
00000000
00000001
00000000
00000000
00000010
00000000
00000100
00000000
00000000
00000000
00000011
00000000
00000000
00000000
,
00000100
00000000
00000000
00000010
00000000
00000000
00000100
00000000
00001000
00000000
00010000
00000000
00100000
00000000
00000000
00000000
,
01000000
00000000
00000000
00100000
00000000
00000000
01000000
00000000
00010000
00000000
00000000
00000000
10010000
00000000
00000000
00000000
,
10000000
00000000
00000000
01000000
00000000
00000000
00010000
00000000
00001000
00000000
00000010
00000000
00000001
00000000
00000000
00000000
,
00000010
00000000
00000000
00000100
00000000
00000000
00001000
00000000
00000001
00000000
00000000
00000000
00000011
00000000
00000000
00000000
,
00000100
00000000
00000000
00001000
00000000
00000000
00000010
00000000
00000100
00000000
00001000
00000000
00010000
00000000
01000000
00000000
,
10000000
00000000
00100000
00000000
01000000
00010000
00100000
00000000
,
02000000
00000000
13000000
01000000
00100000
01000000
00010000
00001000
,
00000010
00000000
00000100
00001000
00000001
00000000
00000100
00000010
,
00010000
00000000
00001000
01000000
00010000
00100000
01000000
10000000
,
00010000
01000000
00100000
01000000
10000000
00000000
01000000
00000000
,
00010000
10000000
00100000
00010000
00001000
00000010
00000100
00000001
,
00000100
00001000
00000010
00000100
00000010
00001000
00000001
00000010
,
00000100
00000010
00000001
00000100
00001000
00010000
01000000
10000000
,
00100000
01000000
00100000
00010000
00001000
00000010
00000100
00000010
,
00000001
00000100
00001000
00010000
01000000
00100000
00010000
10000000
,
10010000
00000000
00000000
00000000
;

//---------------dance-double - M. Emirzian----------------
#NOTES:
     dance-double:
     M. Emirzian:
     Challenge:
     9:
     0.607,0.000,0.282,0.032,0.399,488.000,35.000,4.000,8.000,0.000,0.000:



00000000
00000000
00000000
00000000
,
00000000
00000000
00000000
00000000
,
00000000
00000000
00000000
00000000
,
00000000
00000000
00000000
00000000
,
10000000
00000000
00100000
01000000
00000000
00000000
00010000
00000000
00100000
00000000
00000000
00000000
01000000
00000000
00100000
00000000
,
01000000
00000000
00010000
00001000
00000000
00000000
00010000
00000000
00000100
00000000
00000000
00000000
00000010
00000000
00000001
00000000
,
00000100
00000000
00000010
00000100
00000000
00000000
00000001
00000000
00001000
00000000
00000000
00000000
00000010
00000000
00010000
00000000
,
00001000
00000000
01000000
00100000
00000000
00000000
01000000
00000000
00010000
00000000
00100000
00000000
01000000
00000000
10000000
00000000
,
02200000
00000000
00000000
00000000
00000000
00000000
03300000
0MM00000
,
10000000
00000000
00100000
01000000
00000000
00100000
10000000
00000000
00010000
00100000
00000000
00100000
01000000
00000000
00100000
00000000
,
00001000
00000000
00010000
00000100
00000000
00000010
00000100
00000000
00001000
00000001
00000000
00000001
00000100
00000000
00000010
00000000
,
00000100
00000000
00000001
00000010
00000000
00000100
00010000
00000000
00001000
01000000
00000000
01000000
00100000
00000000
01000000
00000000
,
00010000
00000000
00100000
01000000
00000000
00100000
00001000
00000000
01000000
00100000
00000000
00100000
10000000
00000000
01000000
00000000
,
00010000
00000000
00001000
01000000
00000000
00001000
00010000
00000000
00000010
00001000
00000000
00001000
00000100
00000000
00000010
00000000
,
00000100
00000000
00001000
00000010
00000000
00000100
00000001
00000000
00000010
00001000
00000000
00001000
00010000
00000000
00000100
00000000
,
00001000
00000000
00000010
00010000
00000000
00001000
01000000
00000000
00100000
10000000
00000000
10000000
00010000
00000000
00100000
00000000
,
01000000
00000000
10000000
00010000
10000000
00000000
00001000
00010000
00001000
00000000
00100000
01000000
00100000
00000000
00110000
00000000
,
00100000
01000000
10000000
00100000
01000000
00100000
00010000
00001000
,
00010000
00100000
00010000
00001000
00000100
00000010
00001000
00000100
,
00000000
00000101
00000000
00010010
00000000
00101000
00000000
01010000
,
00000000
10100000
00000000
10000000
01000000
00010000
00001000
00010000
,
01000000
00100000
01000000
00010000
00001000
00000100
00000010
00000100
,
00000001
00000010
00000100
00000010
00000001
00000100
00001000
00010000
,
00000000
01001000
00000000
10100000
00000000
01100000
00000000
00101000
,
00000000
00000000
00010010
00000000
00000000
00000000
00001100
00000000
00000000
00000000
00000100
00000000
00001000
00000100
00001000
00000000
,
00000001
00000000
00000000
0000M00M
00000000
00000000
00000000
00000000
,
00011000
00000000
00000000
00101000
00000000
00000000
01000000
00000000
10000000
00100000
01000000
00000000
00010000
00000000
01000000
00000000
,
00100000
00000000
00000000
00010000
00000000
00000000
00001000
00000000
00000010
00000100
00001000
00000000
00000010
00000000
00000100
00000000
,
00000101
00000000
00000000
00001100
00000000
00000000
00001000
00000000
00010000
00001000
00100000
00000000
01000000
00000000
00010000
00000000
,
01000000
00000000
00000000
10000000
00000000
00000000
00100000
00000000
01000000
00010000
10000000
00000000
01000000
00000000
00100000
00000000
,
00110000
00000000
00000000
00101000
00000000
00000000
00001000
00000000
00010000
00000100
00001000
00000000
00000010
00000000
00000100
00000000
,
00000001
00000000
00000000
00000010
00000000
00000000
00000100
00000000
00000010
00000001
00001000
00000000
00000100
00000000
00010000
00000000
,
00011000
00000000
00000000
01001000
00000000
00000000
01000000
00000000
00100000
10000000
00010000
00000000
00100000
00000000
01000000
00000000
,
00100000
00000000
00000000
00001000
00000000
00000000
00010000
00000000
00000010
00001000
00000001
00000000
00000100
00000000
00000001
00000000
,
00000010
00000000
00000100
00000000
00000010
00000000
00001000
00000000
00010000
00001000
01000000
00000000
00100000
00000000
10000000
00000000
,
00010000
00000000
01000000
00000000
00100000
00000000
01000000
00000000
00001000
00010000
00000010
00000000
00000100
00000000
00000010
00000000
,
00001000
00000000
00000100
00000000
00000001
00000000
00000100
00000000
00001000
00000001
00000100
00000000
00001000
00000000
00010000
00000000
,
01000000
00000000
00000000
10000000
00000000
00000000
00100000
00000000
01000000
00010000
00100000
00000000
01000000
10000000
00100000
00000000
,
01010000
0M0M0000
00000000
00000000
,
00100000
01000000
00010000
01000000
00100000
00000000
00001000
00010000
,
00100000
01000000
00100000
00000000
00010000
00001000
00000010
00000100
,
00001000
00000000
00000001
00000100
00000010
00000100
00001000
00010000
,
00100000
00000000
01000000
00000000
00010000
00000000
00100000
00000000
01000000
10000000
00010000
00000000
01100000
00000000
00000000
00000000
,
00010000
01000000
00100000
01000000
00010000
00000000
00001000
00000010
,
00000100
00000010
00001000
00000000
00010000
00100000
01000000
00100000
,
00010000
00001000
00010000
00000000
00001000
00000000
00000010
00000000
00000100
00000000
00000010
00000000
00001000
00000000
00010000
00000000
,
00001000
00000000
00000100
00000000
00000001
00000000
00000010
00000000
00000100
00010000
00000100
00000000
00010000
00001000
01000000
00000000
,
00022000
00000000
00000000
00000000
,
00033000
00000000
00000000
000MM000
00000000
00000000
00000000
00000000
,
00100000
00000000
01000000
00100000
00000000
01000000
10000000
00000000
01000000
00010000
00000000
00010000
00100000
00000000
01000000
00000000
,
00010000
00000000
00001000
00100000
00000000
00001000
00010000
00000000
00000010
00001000
00000000
00001000
00000100
00000000
00000010
00000000
,
00000001
00000000
00000100
00000010
00000000
00000100
00001000
00000000
00010000
00000100
00000000
00010000
00001000
00000000
00001000
00000000
,
01000000
00000000
00100000
10000000
00000000
01000000
00010000
00000000
00001000
00010000
00000000
00010000
00000010
00000000
00010000
00000000
,
00001000
00000000
00000010
00000001
00000000
00000100
00000010
00000000
00001000
00000100
00000000
00000100
00010000
00000000
00001000
00000000
,
01000000
00000000
00001000
00010000
00000000
00001000
01000000
00000000
00010000
00100000
00000000
00100000
01000000
00000000
10000000
00000000
,
01000000
00000000
00010000
00001000
00000000
00010000
00000100
00000000
00010000
00001000
00000000
00000010
00000001
00000000
00000001
00000000
,
00000100
00000000
00000010
00001000
00000010
00000000
00100000
00010000
00100000
00000000
00000100
00001000
00000100
00000000
00010000
00000000
,
00001010
00010100
01001000
10100000
,
11000000
00100000
01010000
00000000
01001000
00001000
00011000
00000000
,
00000010
00001000
00010000
01000000
00100000
01000000
00010000
00001000
,
00010000
00100000
00010000
00001000
00000010
00000000
00000011
00000000
,
00001100
00000010
00000100
00001000
00010000
01000000
00100000
01000000
,
00010000
00001000
00010000
00100000
01000000
00100000
00010000
00001000
,
00000010
00000000
00000100
00000000
00000010
00000000
00001000
00000000
00010000
00000000
00001000
00000000
00000100
00000010
00001000
00000000
,
00000100
00000000
00000010
00000000
00001000
00000000
00010000
00000000
01000000
00000000
10000000
00000000
00100000
01000000
00010000
00000000
,
10000000
01000000
00100000
01000000
10000000
00010000
00100000
00001000
,
00010000
00000000
00000100
00000000
00000010
00000000
00000100
00000000
00001000
00000010
00000100
00000010
00001000
00000100
00000010
00000001
,
00001001
00000000
00000000
00000000
;

//---------------lights-cabinet - ----------------
#NOTES:
     lights-cabinet:
     :
     Easy:
     1:
     0.987,0.000,1.000,0.097,0.169,385.000,189.000,12.000,0.000,160.000,0.000:


00000000
00000000
00000000
00000000
,
00000000
00000000
00000000
00000000
,
10000011
00000000
01000000
10000000
00000000
01000000
10000000
00000000
00100000
00000000
00000000
00000000
01000000
00000000
00000000
00000000
,
00010000
00000000
00100000
00010000
00000000
00100000
00010000
00000000
01000000
00000000
00000000
00000000
00010000
00000000
00000000
00000000
,
10000000
00000000
01000000
10000000
00000000
01000000
10000000
00000000
00100000
00000000
00000000
00000000
01000000
00000000
00000000
00000000
,
00010000
00000000
00100000
00010000
00000000
00100000
00010000
00000000
01000000
00000000
00000000
00000000
00010000
00000000
00000000
00000000
,
10000000
00000000
00100000
10000000
00000000
00100000
10000000
00000000
01000000
00000000
00000000
00000000
00100000
00000000
00000000
00000000
,
00010000
00000000
01000000
00010000
00000000
01000000
00010000
00000000
00100000
00000000
00000000
00000000
01100000
00000000
10010000
00000000
,
22220022
33330033
00000000
00000000
,
10010011
00000000
00000000
01000000
01000011
00000000
10000000
00000000
00110011
00000000
00000000
00000000
01010011
00000000
00000000
00000000
,
10100011
00000000
00000000
00010000
10000011
00000000
10000000
00000000
00110011
00000000
01000000
00000000
01010011
00000000
00000000
00000000
,
10010011
00000000
00000000
00100000
00000011
00000000
10000000
00000000
01010011
00000000
00000000
00000000
01000011
00000000
00000000
00000000
,
10010011
00000000
00000000
01000000
00000011
00000000
10000000
00000000
00110011
00000000
01000000
00000000
00010011
00000000
10000000
00000000
,
10010011
00000000
00000000
01000000
00000011
00000000
00010000
00000000
10100011
00000000
00000000
00000000
10000011
00000000
00000000
00000000
,
00110011
00000000
00000000
10000000
01000011
00000000
00010000
00000000
00100011
00000000
01000000
00000000
10010011
00000000
00000000
00000000
,
10010011
00000000
00000000
00100000
10000011
00000000
00010000
00000000
01100011
00000000
00000000
00000000
01000011
00000000
00000000
00000000
,
10010011
00000000
00000000
01000000
00100011
00000000
00010000
00000000
00100011
00000000
01000000
00000000
10100011
00000000
00010000
00000000
,
11000011
00000000
10100000
01000000
00010011
00000000
01100000
00000000
,
10010011
00000000
00100000
01000000
10100011
00000000
01100011
00000000
,
10010011
00000000
10010000
00000000
01100011
00000000
10010000
00010000
,
10000011
00000000
10000000
00000000
10100011
00010000
11000011
00010000
,
10100011
00000000
11000000
00100000
01010011
00000000
11100000
00000000
,
10010011
00000000
01000000
00100000
11000011
00000000
01110011
00000000
,
11110011
00000000
10100000
00000000
01010011
00000000
11000000
10000000
,
10000011
00000000
00000000
00000000
00010000
00000000
00000000
00000000
00110011
00000000
00000000
00000000
00010011
00000000
00000011
10000000
,
01110011
00000000
00000000
00000000
,
11110011
00000000
00000000
01000000
00000000
00000000
00100000
00000000
10010011
00000000
01000000
00000000
10010011
00000000
00100000
00000000
,
11100011
00000000
00000000
01000000
00000000
00000000
10000000
00000000
00110011
00000000
01000000
00000000
10010011
00000000
00100000
00000000
,
11110011
00000000
00000000
01000000
00000000
00000000
00100000
00000000
10010011
00000000
00100000
00000000
01100011
00000000
00100000
00000000
,
11110011
00000000
00000000
00010000
00000000
00000000
01000000
00000000
10100011
00000000
01000000
00000000
10010011
00000000
01000000
00000000
,
10110011
00000000
00000000
01000000
00000000
00000000
00010000
00000000
01000011
00000000
00100000
00000000
01010011
00000000
00010000
00000000
,
11100011
00000000
00000000
00010000
00000000
00000000
00100000
00000000
11000011
00000000
00010000
00000000
01100011
00000000
00100000
00000000
,
01010011
00000000
00000000
10000000
00000000
00000000
00100000
00000000
11000011
00000000
10000000
00000000
01010011
00000000
00100000
00000000
,
11100011
00000000
00000000
00010000
00000000
00000000
00100000
00000000
11010011
00000000
00100000
00000000
10010011
00000000
01000000
00000000
,
11110011
00000000
00000000
01000000
00000011
00000000
10000000
00000000
10000011
00000000
00000000
00000000
00100011
00000000
00100000
00000000
,
00100011
00000000
00000000
10000000
00000011
00000000
01000000
00000000
01000011
00000000
00000000
00000000
10000011
00000000
10000011
00000000
,
10000011
00000000
00000000
01000000
00000011
00000000
00010000
00000000
00010011
00000000
00000000
00000000
00100011
00000000
00100000
00000000
,
00100011
00000000
00000000
00010000
00000011
00000000
01000000
00000000
01000011
00000000
00000000
00000000
10010011
00000000
01100011
00000000
,
11110011
00000000
00000000
00000000
,
01000000
00000000
00000000
00100000
00000000
00000000
10000000
00000000
,
01000000
00000000
00000000
00010000
00000000
00000000
01000000
00000000
,
10000000
00000000
00100000
10000000
01000000
00000000
00100000
10000000
,
01000000
00000000
00100000
10000000
01000000
00000000
01000000
00000000
,
01000011
00000000
00000011
00100000
00000011
00000000
00010011
00000000
,
00100011
00000000
00000011
10000000
00000011
00000000
00100011
00000000
,
00010011
00000000
00100011
00010000
01000011
00000000
00100011
00010000
,
01000011
00000000
00000000
00000000
00100011
00000000
00010000
00000000
01000011
00000000
00000000
00000000
01000011
00000000
00000000
00100000
,
10000022
00000033
00000000
00000000
,
20020022
30030033
00000000
00000000
,
00010011
00000000
00000000
00100000
00000011
00000000
00010000
00000000
10000011
00000000
00000000
00000000
10000011
00000000
00000000
00000000
,
00110011
00000000
00000000
10000000
00000011
00000000
00010000
00000000
01000011
00000000
00100000
00000000
10100011
00000000
00000000
00000000
,
00010011
00000000
00000000
01000000
00000011
00000000
00010000
00000000
10100011
00000000
00000000
00000000
10100011
00000000
00000000
00000000
,
00010011
00000000
00000000
00100000
00000011
00000000
00010000
00000000
01000011
00000000
00100000
00000000
10000011
00000000
00010000
00000000
,
10100011
00000000
00000000
00100000
00000011
00000000
10000000
00000000
10010011
00000000
00000000
00000000
10010011
00000000
00000000
00000000
,
10000011
00000000
00000000
00010000
00000011
00000000
10000000
00000000
01000011
00000000
00100000
00000000
10010011
00000000
00000000
00000000
,
10000011
00000000
00000000
01000000
00000011
00000000
10000000
00000000
01100011
00000000
00000000
00000000
01100011
00000000
00000000
00000000
,
10010011
00000000
00000000
00100000
00000011
00000000
10000000
00000000
01000011
00000000
00100000
00000000
00010011
00000000
10000000
00000000
,
00100011
00000000
10000000
01000000
10000011
01000000
00100011
00000000
,
01100011
00000000
10000000
00100000
10000011
00100000
01000011
01000000
,
10010011
00000000
00100000
10000000
01000011
00000000
00100000
00010000
,
11000011
00000000
00100000
10000000
01000011
00000000
01000011
00000000
,
00110011
00000000
01000000
00100000
01000011
00100000
10000000
00000000
,
11000011
00000000
00010000
00100000
01010011
00100000
01000011
01000000
,
00100011
00000000
01110000
10000000
00010011
10000000
01000000
00000000
,
00100011
00000000
10000000
00010000
10000011
00010000
00100011
00100000
,
11010011
00000000
10000000
00100000
10000011
00100000
01000000
00000000
,
11100011
00000000
00010011
01000000
10010011
01000000
10100011
00100011
,
11110011
00000000
00000000
00000000
;

//---------------dance-single - M. Puls----------------
#NOTES:
     dance-single:
     M. Puls:
     Beginner:
     1:
     0.073,0.000,0.032,0.000,0.000,59.000,4.000,0.000,0.000,0.000,0.000:



0000
0000
0000
0000
,
0000
0000
0000
0000
,
0000
0000
0000
0000
,
0000
0000
0000
0000
,
1000
0000
0000
0000
,
1000
0000
0000
0000
,
0001
0000
0000
0000
,
0001
0000
0000
0000
,
1001
0000
0000
0000
,
0000
0000
0000
0000
,
1000
0000
0000
0000
,
0100
0000
0000
0000
,
1000
0000
0000
0000
,
0001
0000
0000
0000
,
0010
0000
0000
0000
,
0001
0000
0000
0000
,
0100
0000
0000
0000
,
0010
0000
0000
0000
,
1000
0000
0000
0000
,
1000
0000
0000
0000
,
0000
0000
0000
0000
,
0100
0000
0000
0000
,
0001
0000
0000
0000
,
0001
0000
0000
0000
,
0000
0000
0000
0000
,
1001
0000
0000
0000
,
1000
0000
0000
0000
,
0100
0000
0000
0000
,
0010
0000
0000
0000
,
0001
0000
0000
0000
,
0001
0000
0000
0000
,
0010
0000
0000
0000
,
0100
0000
0000
0000
,
1000
0000
0000
0000
,
0001
0000
0000
0000
,
0100
0000
0000
0000
,
0010
0000
0000
0000
,
1000
0000
0000
0000
,
0000
0000
0000
0000
,
0001
0000
0000
0000
,
0100
0000
0000
0000
,
0010
0000
0000
0000
,
0000
0000
0000
0000
,
1000
0000
0000
0000
,
0010
0000
0000
0000
,
0100
0000
0000
0000
,
0000
0000
0000
0000
,
1001
0000
0000
0000
,
0000
0000
0000
0000
,
0001
0000
0001
0000
,
1000
0000
1000
0000
,
0000
0000
0000
0000
,
0001
0000
0000
0000
,
1000
0000
0000
0000
,
0010
0000
0000
0000
,
0100
0000
0000
0000
,
0010
0000
0000
0000
,
1000
0000
0000
0000
,
1000
0000
0000
0000
,
1000
0000
0000
0000
,
0100
0000
0000
0000
,
0100
0000
0000
0000
,
0100
0000
0000
0000
,
0010
0000
0000
0000
,
0010
0000
0000
0000
,
0010
0000
0000
0000
,
0001
0000
1000
0000
,
1001
0000
0000
0000
;
