#TITLE:One False Move;
#SUBTITLE:;
#ARTIST:Dust Devil;
#TITLETRANSLIT:;
#SUBTITLETRANSLIT:;
#ARTISTTRANSLIT:;
#GENRE:Electronic Score;
#CREDIT:;
#BANNER:One False Move-banner.png;
#BACKGROUND:One False Move-bg.png;
#LYRICSPATH:;
#CDTITLE:;
#MUSIC:One False Move.ogg;
#OFFSET:0.062;
#SAMPLESTART:15.960;
#SAMPLELENGTH:11.960;
#SELECTABLE:YES;
#BPMS:0.000=105.000,140.000=52.500,148.000=105.000,172.000=52.500;
#STOPS:140.000=1.143
;
#BGCHANGES:0.000=One False Move-bg.png=1.000=0=0=1=====,
12.000=In The Groove 2/431_JumpBack.mpg=1.000=1=0=1===CrossFade==,
13.500=In The Groove 2/464_JumpBack.mpg=1.000=0=0=1=====,
21.500=In The Groove 2/451_JumpBack.mpg=1.000=0=0=1=====,
29.500=In The Groove 2/952_JumpBack.mpg=1.000=0=0=1===SlideLeft==,
37.500=In The Groove 2/451_JumpBack.mpg=1.000=0=0=1===SlideRight==,
45.500=-random-=1.000=0=0=1===SlideUp==,
53.500=-random-=1.000=0=0=1===SlideDown==,
61.500=-random-=1.000=0=0=1===SlideLeft==,
69.500=-random-=1.000=0=0=1===SlideRight==,
76.000=-random-=1.000=0=0=1=====,
92.000=-random-=1.000=0=0=1===FadeLeft==,
108.000=-random-=1.000=0=0=1===FadeRight==,
124.000=-random-=1.000=0=0=1===FadeUp==,
140.000=One False Move-bg.png=0.300=0=0=1=====,
141.000=In The Groove 2/464_JumpBack.mpg=1.000=1=0=1=SongBgWithMovieViz==CrossFade==0.5^0.5^0.5^1,
148.000=In The Groove 2/429_JumpBack.mpg=1.000=0=0=1=====,
156.000=-random-=1.000=0=0=1=====,
164.000=-random-=1.000=0=0=1=====,
172.000=In The Groove 2/449_JumpBack.mpg=1.000=0=0=1=StretchPaused====,
172.500=One False Move-bg.png=1.000=1=0=1===CrossFade==,
99999=-nosongbg-=1.000=0=0=0 // don't automatically add -songbackground-
;
#BGCHANGES2:13.500=flash=1.000=0=0=1=====,
21.500=flash=1.000=0=0=1====1^1^0^1=,
76.000=flash=1.000=0=0=1=====,
140.000=flash=1.000=0=0=1=====,
148.000=flash=1.000=0=0=1====1^1^0^1=,
156.000=flash=1.000=0=0=1====1^1^0^1=,
164.000=flash=1.000=0=0=1====1^1^0^1=,
172.000=flash=1.000=0=0=1=====,
;
#KEYSOUNDS:;
// cache tags:
#FIRSTBEAT:12.000;
#LASTBEAT:174.500;
#SONGFILENAME:/Songs/In The Groove 2/One False Move/One False Move.sm;
#HASMUSIC:1;
#HASBANNER:1;
#MUSICLENGTH:108.586;
// end cache tags

//---------------dance-single - K.W----------------
#NOTES:
     dance-single:
     K.W:
     Hard:
     9:
     0.441,0.000,0.368,0.074,0.571,285.000,40.000,8.000,70.000,2.000,0.000:
0000
0000
0000
0000
,
0000
0000
0000
0000
,
0000
0000
0000
0000
,
1001
0000
0000
0110
0000
0000
0011
0000
0000
0000
0000
0000
0000
0000
0000
0000
,
0000
0000
0000
0000
0000
0000
0000
0000
0000
0000
1000
0100
0010
0100
1000
0001
,
1010
0000
0000
0110
0000
0000
0011
0000
0000
0000
0000
0000
0000
0000
0000
0000
,
0000
0000
0000
0000
0000
0000
0000
0000
0000
0000
1000
0001
0100
0010
1000
0100
,
0010
0000
0000
0100
0000
0000
1001
0000
0000
0000
0000
0000
0000
0000
0000
0000
,
0000
0000
0000
0000
0000
0000
0000
0000
0001
0010
0001
0100
0010
1000
0001
0010
,
0001
0000
0000
1000
0000
0000
0020
0000
0000
0000
0000
0000
0000
0000
0000
0000
,
0100
0000
0000
0000
0031
0000
0000
0000
0100
0001
0010
0011
0000
0000
1001
0000
,
0010
0000
0100
0010
0000
1000
1100
0000
0000
0000
0000
0000
0000
0000
0000
0000
,
0000
0000
0000
0000
0000
0000
0000
0000
0000
0000
0010
0100
0001
0010
0001
1000
,
0001
0000
0001
0010
0000
0010
0100
0000
0000
0000
0000
0000
0000
0000
0000
0000
,
0000
0000
0000
0000
0000
0000
0000
0000
0000
0000
0001
0010
0001
0100
0010
1000
,
0100
0000
0100
0010
0000
0010
0011
0000
0000
0000
0000
0000
0000
0000
0000
0000
,
0000
0000
0000
0000
0000
0000
0000
0000
1000
0010
0100
0001
0010
0001
1000
0010
,
2000
0000
0000
0200
0000
0000
0001
0000
3300
0000
0000
0000
1111
0000
0000
0000
,
0000
0000
0000
0000
0000
0000
0000
0000
0001
0100
0010
1000
0000
0000
1001
0000
,
0010
0100
0001
0100
0010
1000
0001
0100
0010
1000
0010
0100
0001
0010
0001
0010
,
0100
1000
0100
0010
0100
1000
0010
0100
0001
0010
0001
1000
0100
1000
0100
0010
,
0001
0100
0010
1000
0001
0010
0001
1000
0010
0100
0010
1000
0100
0010
0100
1000
,
0010
0100
0001
0010
0001
1000
0010
0100
0010
0001
0010
0100
0001
0000
0011
0000
,
1000
0000
0100
0000
0010
0000
0100
0000
1000
0000
0010
0000
0100
0000
0010
0000
0100
0000
0001
0000
0010
0000
0001
0000
1000
0000
0010
0000
1000
0100
1000
0100
,
1000
0100
0010
0100
1000
0010
0100
0010
0001
0010
0100
0010
1000
0000
0110
0000
,
0100
0001
0100
0010
1000
0100
0010
0100
1000
0010
0100
0001
0010
0000
1001
0000
,
0010
0001
1000
0010
0100
0001
0010
0100
0010
0100
1000
0001
1000
0000
0110
0000
,
1001
0000
0000
0000
M00M
0000
0000
0000
0000
0000
0000
0000
1100
0000
0000
0000
MM00
0000
0000
0000
0000
0000
0000
0000
0000
0000
0000
0000
0000
0001
0010
0001
,
0010
00MM
0000
1001
M00M
0000
0000
0100
,
0110
0000
0000
0000
0MM0
0000
0000
0000
0000
0000
0000
0000
1001
0000
0000
0000
M00M
0000
0000
0000
0000
0000
0000
0000
0000
0000
0000
0000
0000
1000
0100
1000
,
0100
0MM0
0000
0110
0MM0
0000
0000
0000
,
1001
M00M
0000
1100
MM00
0000
0000
0001
,
0011
00MM
0000
0110
0MM0
0000
M00M
1001
,
2002
0M00
0000
0000
0000
0000
0000
0000
00M0
0000
0000
0000
0000
0000
0MM0
0000
,
0000
0000
0000
0MM0
0000
0000
0000
0000
0000
0000
0000
3003
0000
M00M
0000
0000
,
1001
0000
0000
M00M
0000
M000
0000
000M
0M00
0000
0000
0000
0MM0
0000
0000
M00M
,
0000
0M01
1000
001M
0100
M001
0M10
0001
10M0
0100
001M
0100
0000
0000
MM0M
0000
,
1001
0000
M00M
0000
0110
0000
1100
0000
0000
MM00
0000
0000
00MM
0000
0000
0000
,
1100
0010
0100
0012
0000
1003
0100
0010
,
0110
0MM0
M00M
1001
M00M
0000
0MM0
0000
,
1100
0000
0100
0010
0100
1000
0010
0100
,
0011
0000
0010
0001
0100
0000
0010
0100
0010
0000
1000
0100
1000
0000
0010
0100
,
0001
0000
0010
0001
1000
0000
0010
0100
0001
0010
0001
1000
0001
0100
0010
1000
,
2002
0000
0000
0000
0000
0000
0000
0000
3003
M00M
M00M
0000
0000
0000
0000
0000
;

//---------------dance-single - K.W----------------
#NOTES:
     dance-single:
     K.W:
     Easy:
     4:
     0.171,0.000,0.221,0.092,0.014,96.000,24.000,10.000,8.000,0.000,0.000:
0000
0000
0000
0000
,
0000
0000
0000
0000
,
0000
0000
0000
0000
,
0110
0000
0000
2002
0000
0000
3003
0000
,
0000
0000
0000
1000
,
1001
0000
0000
0220
0000
0000
0330
0000
,
0000
0000
0000
1000
,
0001
0000
0000
0020
0000
0000
0030
0000
,
0000
0000
0001
1000
,
0010
0000
0000
0200
0000
0000
0300
0000
,
0000
0000
0010
0100
,
0001
0000
0000
1100
0000
0000
0000
0000
,
0000
0000
0000
1000
,
1000
0000
0000
0010
0000
0000
0020
0000
0000
0000
0000
0000
0030
0000
0000
0000
,
0000
0000
0000
0010
,
0100
0000
0000
0001
0000
0000
0002
0000
0000
0000
0000
0000
0003
0000
0000
0000
,
0000
0000
1000
0001
,
0100
0000
0000
0010
0000
0000
0100
0000
0000
0000
0000
0000
1001
0000
0000
0000
,
0000
0000
0110
0110
,
0001
0001
0001
1000
,
0010
0010
0010
1000
,
0100
0100
0100
1000
,
0001
0010
0001
0100
,
0100
0010
1000
0100
,
1000
0010
0100
0001
,
1000
1000
0010
0010
,
0100
0100
0001
1000
,
1001
0000
0000
0000
,
0110
0000
0000
0000
,
1001
0000
0000
0000
,
1100
0000
0000
0000
,
1001
0000
0011
0000
,
1100
0000
0110
0000
,
2002
0000
0000
0000
,
0000
0000
0000
3003
,
0110
0000
M00M
0MM0
,
0MM0
M00M
0000
0000
,
1001
0010
0010
0000
,
1100
0001
0001
0000
,
0011
1000
1000
0000
,
1001
0100
0010
1000
,
0110
1000
0001
0010
,
0001
1000
0100
1000
,
1001
0000
0000
0000
;

//---------------dance-single - C . Foy----------------
#NOTES:
     dance-single:
     C . Foy:
     Challenge:
     10:
     0.525,0.000,0.387,0.341,0.677,320.000,42.000,37.000,97.000,20.000,0.000:
0000
0000
0000
0000
,
0000
0000
0000
0000
,
0000
0000
0000
0000
,
1001
0000
1000
0100
0000
2000
0200
0000
0000
0000
0000
0000
0010
0000
0000
0000
,
0001
0000
0000
0000
0011
0000
3300
0000
0000
0000
1000
0001
0100
0001
0010
0001
,
0011
0000
0001
1100
0000
0002
0200
0000
0000
0000
0000
0000
0010
0000
0000
0000
,
1000
0000
0000
0000
1010
0000
0303
0000
0000
0000
1000
0001
0100
0010
1000
0100
,
0010
0000
0010
0100
0000
0100
2002
0000
0000
0000
0000
0000
0010
0000
0000
3000
,
2000
0000
0000
0000
0010
0000
3003
0000
0001
1000
0010
0100
0010
1000
0100
0010
,
0100
0000
1000
0001
0000
0200
0002
0000
0000
0000
0000
0000
0000
0000
0000
0000
,
0010
0000
0000
0000
1000
0000
0303
0000
0100
0001
1000
1010
0000
0000
0101
0000
,
0010
0000
1000
0010
0000
2000
0200
0000
0000
0000
0000
0000
0010
0000
0000
0000
,
0001
0000
0000
0000
0011
0000
3300
0000
0000
0000
1000
0100
0010
0001
0100
0010
,
1000
0000
0010
1000
0000
0002
0200
0000
0000
0000
0000
0000
1010
0000
0000
0000
,
10M0
0000
0000
0000
M010
0000
0303
0000
0000
0000
0001
0010
0001
0100
0010
1000
,
0100
0000
0100
0010
0000
0200
2000
0000
0000
0000
0000
0000
0011
0000
0000
0000
,
00M1
0000
0000
0000
001M
0000
3300
0000
1000
0010
0100
0001
0010
0001
1000
0010
,
1001
0000
1001
0100
0000
1000
0202
0000
0000
0000
0303
0000
MMMM
0000
0000
0000
,
0000
0000
0000
0000
0000
0000
0000
0000
0001
0100
0010
1000
0000
0000
1001
0000
,
0101
0100
0010
1000
0100
0010
1000
0010
0100
1000
0010
0100
0010
0001
0010
0100
,
0110
0010
1000
0010
0100
1000
0100
0001
0010
0001
0100
0010
0100
0001
0100
0010
,
0110
0100
0001
0010
0100
0010
1000
0010
0001
0100
0010
0001
0010
0100
0001
0100
,
0101
0000
0100
0000
0001
0000
0010
0000
0100
0000
0010
0000
1000
0000
0010
0000
0001
0000
0100
0000
0010
0000
0100
0000
0001
0000
0000
0000
0101
0000
0000
1000
,
0100
0000
0100
0000
0010
0000
0100
0000
0001
0000
0100
0000
0010
0000
0001
0000
0100
0000
0010
0000
0001
0000
0010
0000
1000
0000
0001
0000
0100
0001
0100
0010
,
0100
0001
0010
0100
0001
0100
1000
0100
0010
1000
0010
0001
0100
0000
1010
0000
,
1000
0010
0001
0010
0100
0001
0100
1000
0100
0010
0001
0010
1000
0000
1001
0000
,
0010
0000
0100
0000
0001
0000
0100
0000
0010
0000
0001
0000
0010
0000
1000
0000
0010
0000
0001
0000
0010
0000
0100
0000
0001
0000
0000
0000
1010
0000
0000
0100
,
0001
0000
0000
0000
0M0M
0000
0000
0000
0000
0000
0000
0000
1010
0000
0000
0000
M0MM
0000
0000
0000
0000
0000
0000
0000
0000
0000
0000
0000
0000
1000
0010
1000
,
0001
0000
0000
0000
MMMM
0000
0000
0000
0000
0000
0000
0000
1001
0000
0000
0000
M00M
0000
0000
0000
0000
0000
0000
0000
0000
0000
0000
0000
0000
0000
0000
0010
,
1000
0000
0000
0000
M0M0
0000
0000
0000
0000
0000
0000
0000
1001
0000
0000
0000
M00M
0000
0000
0000
0000
0000
0000
0000
0000
0000
0000
0000
0000
0001
1000
0001
,
0100
0000
0000
0000
0M0M
0000
0000
0000
0000
0000
0000
0000
1010
0000
0000
0000
M0M0
0000
0000
0000
0000
0000
0000
0000
0000
0000
0000
0000
0000
0000
0000
0010
,
0001
0000
0000
0000
00MM
0000
0000
0000
0000
0000
0000
0000
0110
0000
0000
0000
0MM0
0000
0000
0000
0000
0000
0000
0000
0000
0000
0000
0000
0000
1000
0001
1000
,
0100
MM00
0000
1001
M00M
0000
M00M
0110
,
2002
0000
0M00
0000
0000
0000
0000
0000
00M0
0000
0000
0000
0010
0000
0000
0000
0M00
0000
0000
0000
0000
0000
0000
0000
00M0
0000
0000
0000
0000
0000
0000
0003
,
0M02
0000
0000
0000
0000
0000
0000
0000
0000
0000
0000
0000
0000
0000
0000
0000
0000
0000
0000
0000
0000
0000
0000
0000
00M0
0000
0000
0000
0000
0000
0000
0000
0000
0000
0000
0000
0000
0000
0000
0000
0000
0000
0000
0000
0000
0000
0000
0000
0M00
0000
0000
0000
0000
0000
0000
0000
0000
0000
0000
0000
0000
0000
0000
0000
0000
0000
3000
0000
0000
0000
0000
0000
2000
0000
0000
0000
0000
0000
0000
0000
0000
0000
0000
0000
00M0
0000
0000
0000
0000
0000
0000
0000
0000
0000
0000
0000
3003
0000
0000
0000
0000
0000
0000
0000
0000
0000
0000
0000
0000
0000
0000
0000
M00M
0000
0000
0000
0000
0000
0000
0000
0000
0000
0000
0000
0000
0000
0000
0000
0MM0
0000
0000
0000
0000
0000
0000
0000
0000
0000
0000
0000
0000
0000
0000
0000
M00M
0000
0000
0000
0000
0000
0000
0000
0000
0000
0000
0000
0000
0000
0000
0000
M00M
0000
0000
0000
0000
0000
0000
0000
0110
0000
0000
0000
0000
0000
0000
0000
M00M
0000
0000
0000
0000
0000
0000
0000
0000
0000
0000
0000
0000
0000
0000
0000
,
2002
0000
0000
3003
0000
0000
0000
0000
0000
0000
0000
0000
0000
0000
0000
0000
0000
0000
0000
0000
0000
0000
0000
0000
M00M
0000
0000
0000
0000
0000
0000
0000
0MM0
0000
0000
0000
0000
0000
0000
0000
0000
0000
0000
0000
0000
0000
0000
0000
0000
0000
0000
0000
0000
0000
0000
0000
0000
0000
0000
0000
0000
0000
0000
0000
0000
0000
0000
0000
0000
0000
0000
0000
0M00
0000
0000
0000
0000
0000
0000
0000
0000
0000
0000
0000
0000
0000
0000
0000
0000
0000
0000
0000
0000
0000
0000
0000
00M0
0000
0000
0000
0000
0000
0000
0000
0000
0000
0000
0000
0M00
0000
0000
0000
0000
0000
0000
0000
0000
0000
0000
0000
0000
0000
0000
0000
0000
0000
0000
0000
0000
0000
0000
0000
0000
0000
0000
0000
0000
0000
0000
0000
0000
0000
0000
0000
0MM0
0000
0000
0000
0000
0000
0000
0000
0000
0000
0000
0000
0000
0000
0000
0000
0000
0000
0000
0000
0000
0000
0000
0000
0000
0000
0000
0000
0000
0000
0000
0000
0000
0000
0000
0000
M000
0000
0000
0000
0000
0000
0000
0000
0000
0000
0000
0000
,
000M
0000
10M0
0000
0001
0000
M100
0000
0010
0000
100M
0000
0100
0000
10M0
0000
0M01
0000
M010
0000
0100
0000
M010
0000
0001
1000
0001
0100
M010
0100
0001
1000
,
00M1
0000
0000
0000
000M
0000
0000
0000
0000
0000
0000
0000
1010
0000
0000
0000
M0M0
0000
0000
0000
0000
0000
0000
0000
0000
0000
0000
0000
0000
0001
1000
0100
,
1000
0000
0000
0000
MM00
0000
0000
0000
0000
0000
0000
0000
0110
0000
0000
0000
0000
0000
0000
0000
0000
0000
0000
0000
0000
0000
0000
0000
0000
0000
0000
0100
,
0010
0000
0000
0000
00M0
0000
0000
0000
M000
0000
0000
0000
1010
0000
0000
0000
M0M0
0000
0000
0000
0101
0000
0000
0000
0M0M
0000
0000
0000
0000
0001
1000
0001
,
1000
0000
M00M
0000
0000
0000
0001
0010
0100
1000
0100
0010
0001
0000
0000
0000
,
2000
0000
0000
0000
0200
0000
0000
0000
0000
0000
0000
0000
3300
0000
0000
0000
0002
0000
0000
0000
0200
0000
0000
0000
0303
0000
0000
0000
2200
0000
0000
3300
,
0202
0000
0000
0000
0000
0000
0000
0000
0000
0000
0000
0000
0000
0000
0000
0000
0000
0000
0000
0000
0000
0000
0000
0000
0303
0000
0000
0000
0000
0000
0000
0000
0000
0000
0000
0000
0000
0000
0000
0000
0000
0000
0000
0000
0000
0000
0000
0000
2020
0000
0000
0000
0000
0000
0000
0000
0000
0000
0000
0000
0000
0000
0000
0000
0000
0000
3030
0000
0000
0000
0000
0000
0022
0000
0000
0000
0000
0000
0000
0000
0000
0000
0000
0000
0000
0000
0000
0000
0000
0000
0033
0000
0000
0000
0000
0000
0001
0000
0000
0000
0000
0000
0000
0000
0000
0000
0000
0000
0000
0000
0000
0000
0100
0000
0000
0000
0000
0000
0000
0000
0000
0000
0000
0000
0000
0000
0000
0000
0010
0000
0000
0000
0000
0000
0000
0000
0000
0000
0000
0000
0000
0000
0000
0000
1000
0000
0000
0000
0000
0000
0000
0000
0000
0000
0000
0000
0000
0000
0000
0000
0100
0000
0000
0000
0000
0000
0000
0000
0000
0000
0000
0000
0000
0000
0000
0000
0010
0000
0000
0000
0000
0000
0000
0000
0000
0000
0000
0000
0000
0000
0000
0000
,
2MM2
0000
00M0
0000
0M00
0000
00M0
0000
3003
M00M
M00M
0000
0000
0000
0000
0000
;

//---------------dance-single - K. Ward----------------
#NOTES:
     dance-single:
     K. Ward:
     Medium:
     6:
     0.262,0.000,0.276,0.147,0.111,153.000,30.000,16.000,37.000,0.000,0.000:
0000
0000
0000
0000
,
0000
0000
0000
0000
,
0000
0000
0000
0000
,
1001
0000
0000
0110
0000
0000
0011
0000
0000
0000
0000
0000
0000
0000
0000
0000
,
0000
0000
0000
0000
0000
0010
0100
0010
,
0100
0000
0000
1000
0000
0000
1100
0000
0000
0000
0000
0000
0000
0000
0000
0000
,
0000
0000
0000
0000
0000
0010
0001
0010
,
0100
0000
0000
0010
0000
0000
1001
0000
0000
0000
0000
0000
0000
0000
0000
0000
,
0000
0000
0000
0000
1000
1000
0010
0010
,
0100
0000
0000
0001
0000
0000
0020
0000
0000
0000
0000
0000
0000
0000
0000
0000
,
0001
0000
0000
0000
0130
0000
0000
0000
1000
0000
0000
0100
0000
0000
0010
0000
,
1100
0000
0000
0110
0000
0000
1001
0000
0000
0000
0000
0000
0110
0000
0000
0000
,
0000
0000
0000
0000
0000
0100
1000
0100
,
0010
0000
0000
0100
0000
0000
0012
0000
0000
0000
0000
0000
1003
0000
0000
0000
,
0000
0000
0000
0000
0000
0010
0100
1000
,
0100
0000
0000
0001
0000
0000
2100
0000
0000
0000
0000
0000
3010
0000
0000
0000
,
0000
0000
0000
0000
0000
0000
0000
0000
0100
0010
0000
0000
1000
0100
0000
0000
,
0010
0000
0000
0100
0000
0000
1001
0000
0000
0000
0000
0000
0220
0000
0000
0000
,
0000
0000
0000
0000
0330
0000
0000
0000
0001
0000
0000
0100
0000
0000
1000
0000
,
0100
0001
0010
0000
0100
0010
0001
0000
,
0100
1000
0100
0000
0001
0010
0001
0001
,
1000
0100
0001
0000
0001
0100
0010
0000
,
0100
1000
0100
0001
0010
0001
0001
0000
,
0020
0000
0000
0130
0000
0000
1000
1000
,
0002
0000
0000
0013
0000
0000
0100
1000
,
0100
0010
1001
0000
0100
0010
1100
0000
,
0010
0100
0011
0000
0010
0100
1001
0000
,
0110
0000
0000
0000
M00M
0000
0000
0000
0000
0101
0000
0000
M0M0
0000
0000
0000
0000
0000
0000
0000
0000
0000
0000
0000
,
1100
0000
0000
M00M
0000
0000
1001
0000
0000
0000
0MM0
0000
0000
0000
0010
0000
,
0200
M000
00M0
0301
00M0
0000
000M
0000
,
1000
0000
0010
0000
0100
M00M
1001
0000
,
0010
0100
0010
0001
,
1000
0100
1000
0000
0010
0100
0001
0000
,
2002
0000
0000
0000
,
0000
0000
0000
0000
0000
0000
3003
0000
M00M
0MM0
M00M
0000
,
1001
0000
0000
0000
00M0
0000
0000
0000
0M0M
0000
M000
000M
00M0
0M00
M000
0000
,
0000
0002
0000
0000
0000
0000
0000
2003
0000
0010
0000
3100
0000
0000
0000
0000
,
0002
0000
MM00
00M0
0000
0000
0013
0000
0000
0000
0000
0000
0110
0000
0000
0000
,
2000
0000
0000
0000
0000
0000
3100
0000
0000
M00M
0000
0000
0110
0000
0000
0000
,
0011
0000
0000
1100
0000
0MM0
0000
0000
,
0010
0100
0001
0010
,
1100
0000
0010
0000
0100
0001
0000
0010
,
0100
0000
0010
0001
0000
1000
0010
0100
,
2002
0000
0000
3003
M00M
0000
0000
0000
;

//---------------dance-double - M.Emirzian----------------
#NOTES:
     dance-double:
     M.Emirzian:
     Challenge:
     10:
     0.638,0.000,0.718,0.166,0.870,388.000,78.000,18.000,37.000,8.000,0.000:
00000000
00000000
00000000
00000000
,
00000000
00000000
00000000
00000000
,
00000000
00000000
00000000
00000000
,
00001000
00000000
00010000
00011000
00000000
00000100
00001001
00000000
0000M00M
00000000
00000000
00000000
00000020
00000000
00000000
00000000
,
00002000
00000000
00000000
00000000
00010100
00000000
00003030
00000000
00000000
00000000
00010000
00001000
01000000
00010000
00100000
01000000
,
10000000
00000000
00010000
01010000
00000000
00100000
11000000
00000000
MM000000
00000000
00000000
00000000
02000000
00000000
00000000
00000000
,
00020000
00000000
00000000
00000000
00101000
00000000
03030000
00000000
00000000
00000000
00001000
00100000
00001000
00000100
00000001
00001000
,
00000100
00000000
00000010
00000011
00000000
00001000
00001100
00000000
0000MM00
00000000
00000000
00000000
00000002
00000000
00000000
00000000
,
00000200
00000000
00000000
00000000
00001010
00000303
00000000
00000000
00000100
00000010
00010000
00100000
10000000
00001000
00010000
00001000
,
01000000
00000000
00010000
00110000
00000000
01000000
11000000
00000000
MM000000
00000000
00000000
00000000
00000000
00000000
00000000
00000000
,
00200000
00000000
00000000
00000000
02000000
00000000
00000000
00000000
13310000
00000000
00000000
10010000
00000000
00000000
01001000
00000000
,
00000100
00000000
00001000
00001001
00000000
00000100
00001010
00000000
0000M0M0
00000000
00000000
00000000
00000200
00000000
00000000
00000000
,
00002000
00000000
00000000
00000000
00010010
00000000
00003300
00000000
00000000
00000000
00000001
00001000
00000100
01000000
00100000
01000000
,
00001000
00000000
00010000
00101000
00000000
00010000
01001000
00000000
0M00M000
00000000
00000000
00000000
00020000
00000000
00000000
00000000
,
20000000
00000000
00000000
00000000
01100000
00000000
30030000
00000000
00000000
00000000
10000000
01000000
00100000
00001000
00000100
00000001
,
00010000
00000000
00000100
00001100
00000000
00000010
00010010
00000000
000M00M0
00000000
00000000
00000000
00000200
00000000
00000000
00000000
,
00002000
00000000
00000000
00000000
00010010
00003300
00000000
00000000
00001000
00000100
01000000
00100000
10000000
00001000
00010000
01000000
,
10000000
00000000
00010000
01010000
00000000
00001000
00101000
00000000
00000000
00000000
00000000
00000000
00021020
00000000
00000000
00000000
,
00000000
00000000
00000000
00000000
00030030
00000000
00000000
00000000
00001001
00000000
00000000
00010100
00000000
00000000
01000100
00000000
,
00010000
00000000
00001000
00000000
01000000
00000000
00010000
00000000
00100000
00000000
01000000
00000000
10000000
00000000
00010000
00000000
01000000
00000000
00001000
00000000
00000010
00000000
00000100
00000000
00001000
00000000
00000001
00000000
00000100
00000000
00000010
00001000
,
00000010
00000000
00001000
00000000
00000100
00000000
00010000
00000000
00001000
00000000
00010000
00000000
00000100
00000000
00010000
00000000
00100000
00000000
01000000
00000000
00010000
00000000
01000000
00000000
00100000
00000000
10000000
00000000
00010000
00000000
00100000
01000000
,
00100000
00000000
00010000
00000000
10000000
00000000
01000000
00000000
00010000
00000000
00000100
00000000
00000010
00000000
00000001
00000010
00000001
00000000
00000100
00000000
00000010
00000000
00001000
00000000
00000100
00000000
00000010
00000000
00000100
00000000
00010000
00001000
,
00010000
00000000
00100000
00000000
01000000
00000000
00010000
01000000
00010000
00000000
00100000
00000000
01000000
00000000
10000000
00010000
10000000
00000000
00100000
00000000
01000000
00000000
00001000
00000000
00010000
00001000
00010000
00000000
00000100
00001000
00000100
00000000
,
00000010
00000000
00000001
00000000
00001000
00000000
00000010
00000000
00010000
00000000
00100000
00000000
10000000
00000000
00010000
10000000
00010000
00000000
00100000
00000000
00001000
00000000
00010000
00000000
00000100
00000000
00000010
00000000
00000001
00000000
00001000
00000010
,
00001000
00000000
00000100
00000000
00010000
00000000
00001000
00000000
01000000
00000000
00100000
00000000
01000000
00000000
00010000
10000000
00010000
00000000
00100000
00000000
01000000
00000000
10000000
00000000
00010000
00000000
01000000
00000000
00001000
00000000
00010000
00001000
,
00010000
00000000
00000100
00000000
00000010
00000000
00000001
00000000
00001000
00000000
00000010
00000000
00000100
00000000
00000001
00000100
00000001
00000000
00001000
00000000
00000100
00000000
01000000
00000000
00100000
00000000
10000000
00000000
00010000
00000000
00100000
01000000
,
00100000
00000000
01000000
00000000
10000000
00000000
00010000
10000000
00010000
00000000
00100000
00000000
00001000
00000000
00010000
00001000
00010000
00000000
00000100
00000000
00001000
00000000
00000010
00000000
00000100
00000001
00000100
00000000
00000001
00001000
00000001
00000000
,
00000101
00000000
00000000
00000000
00000000
00001010
00010010
00000000
00000000
00001000
00000000
00000000
01000000
00000000
00011000
00000000
,
01001000
00000000
00000000
00110000
00000000
10010000
11000000
00000000
00000000
00100000
00000000
00000000
01000000
00000000
01001000
00000000
,
00011000
00000000
00000000
00010100
00000000
00001100
00001001
00000000
00000000
00000010
00000000
00000000
00000100
00000000
00001100
00000000
,
01000100
00000000
00000000
00010100
00000000
00011000
01001000
00000000
00000000
00010000
00000000
00000000
00100000
00000000
01010000
00000000
,
10100000
00000000
00000000
10010000
00000000
11000000
00110000
00000000
00000000
01000000
00000000
00000000
00001000
00000000
00011000
00000000
,
00100010
00000000
00000000
00011000
00000000
00010100
00001100
00000000
00000000
00000010
00000000
00000000
00000100
00000000
00001001
00000000
,
00000110
00000000
00000000
00000000
00010010
00000000
00000000
00100010
00000000
00000000
00011000
00000000
00000000
01000100
00000000
00000000
,
00010000
00000000
01000000
00000000
00010000
00000000
01000000
00000000
00010000
00000000
01000000
00000000
00010000
01000000
00010000
01000000
00010000
01000000
00010000
01000000
00010000
01000000
00010000
01000000
00010000
01000000
00010000
01000000
00010000
01000000
00010000
01000000
,
00010000
MMMM0000
00000000
00000000
01000000
00000000
0M000000
00000000
00000000
00000000
00100000
00000000
0MM00000
00000000
00000000
00000000
10000000
00000000
M0M00000
00000000
00000000
00000000
00000000
00000000
00000000
00000000
00000000
00000000
00000000
00000000
00000000
00000000
,
00000000
00000000
00000000
00000000
00000000
00000000
00000000
00000000
M00M0000
00000000
10000000
00000000
00010000
00000000
00100000
00000000
00001000
00000000
00010000
00000000
00001000
00000000
00100000
00000000
00001000
00010000
00000100
00001000
00000010
00000100
00000001
00001000
,
00000100
00000000
00000000
00000000
0000MM00
00000000
00000000
00000000
00000000
00000000
00000000
00000000
00001001
00000000
00000000
00000000
0000M00M
00000000
00000000
00000000
00000000
00000000
00000000
00000000
00000000
00000000
00000000
00000000
00000000
00000010
00001000
00000010
,
00000100
00000000
00000000
00000000
00000MM0
00000000
00000000
00000000
00000000
00000000
00000000
00000000
00011000
00000000
00000000
00000000
000MM000
00000000
00000000
00000000
00000000
00000000
00000000
00000000
00000000
00000000
00000000
00000000
00001000
00010000
00001000
01000000
,
00010000
00000000
00000000
00000000
0M0M0000
00000000
00000000
00000000
00000000
00000000
00000000
00000000
01000100
00000000
00000000
00000000
00000000
00000000
00000000
00000000
00011000
00000000
00000000
00000000
00000000
00000000
00000000
00000000
00000000
01000000
00010000
10000000
,
00100000
00000000
M0M00000
00000000
00000000
00000000
10000000
01000000
00100000
00001000
00010000
00000100
00000010
00000001
00001000
00000100
,
00000010
00001100
00010100
00000000
00001001
00010100
00000000
01001000
,
10010000
00000000
00000000
00000000
00000000
00000000
00110000
00000000
00000000
10010000
00000000
00000000
00100000
00000000
01000000
00000000
00010000
00000000
10000000
00000000
11000000
00000000
00110000
00000000
,
20020000
00000000
00000000
30030000
00000000
00000000
00000000
00000000
;

//---------------dance-double - M.Emirzian----------------
#NOTES:
     dance-double:
     M.Emirzian:
     Hard:
     9:
     0.472,0.000,0.442,0.147,0.539,295.000,48.000,16.000,5.000,6.000,0.000:
00000000
00000000
00000000
00000000
,
00000000
00000000
00000000
00000000
,
00000000
00000000
00000000
00000000
,
10000000
00000000
01000000
00100000
00000000
00001000
00010000
00000000
00000000
00000000
00000000
00000000
00020000
00000000
00000000
00000000
,
00002000
00000000
00000000
00000000
00100000
00033000
00000000
00000000
00000000
00000000
00000100
00001000
00000100
00000000
00000010
00000001
,
00001000
00000000
00000010
00000100
00000000
00000001
00001000
00000000
00000000
00000000
00000000
00000000
00000200
00000000
00000000
00000000
,
00020000
00000000
00000000
00000000
00001000
00030300
00000000
00000000
00000000
00000000
00010000
00001000
01000000
00000000
00010000
10000000
,
01000000
00000000
00100000
00010000
00000000
01000000
00001000
00000000
00000000
00000000
00000000
00000000
00020000
00000000
00000000
00000000
,
00000200
00000000
00000000
00000000
00001000
00030300
00000000
00000000
00000010
00000100
00000001
00000000
00001000
00000100
00000010
00000000
,
00000001
00000000
00000100
00000010
00000000
00010000
00001000
00000000
00000000
00000000
00000000
00000000
00000000
00000000
00000000
00000000
,
00010000
00000000
00000000
00000000
00001000
00000000
00000000
00000000
11000000
00000000
00000000
10010000
00000000
00000000
00110000
00000000
,
01000000
00000000
00001000
00010000
00000000
00000100
00001000
00000000
00000000
00000000
00000000
00000000
00000020
00000000
00000000
00000000
,
00000200
00000000
00000000
00000000
00001001
00000330
00000000
00000000
00000000
00000000
00000010
00001000
00000100
00000000
00010000
00001000
,
01000000
00000000
00001000
00100000
00000000
00010000
10000000
00000000
00000000
00000000
00000000
00000000
00020000
00000000
00000000
00000000
,
20000000
00000000
00000000
00000000
01100000
30030000
00000000
00000000
00000000
00000000
00100000
10000000
01000000
00000000
00010000
10000000
,
01000000
00000000
00010000
00001000
00000000
00000010
00000100
00000000
00000000
00000000
00000000
00000000
00000020
00000000
00000000
00000000
,
00020000
00000000
00000000
00000000
00001000
00030030
00000000
00000000
00010000
00000100
00001000
00000000
00000010
00000100
00000001
00000000
,
00001000
00000000
00000100
00010000
00000000
00001000
01000000
00000000
00000000
00000000
00000000
00000000
20020000
00000000
00000000
00000000
,
00000000
00000000
00000000
00000000
30030000
00000000
00000000
00000000
00110000
00000000
00000000
00101000
00000000
00000000
00010100
00000000
,
00001000
00000010
00000100
00000001
00001000
00000100
00000010
00000001
00001000
00000010
00010000
00001000
01000000
00010000
10000000
00100000
,
01000000
00010000
00100000
01000000
10000000
00010000
01000000
00001000
00010000
00000100
00001000
00000010
00000100
00000001
00001000
00000100
,
00001000
00000010
00010000
00001000
01000000
00100000
10000000
00010000
00100000
01000000
10000000
01000000
10000000
00010000
01000000
00001000
,
00010000
00000100
00000010
00000001
00001001
00000010
00010010
00011000
,
00000100
00010000
00001000
01000000
00010000
01000000
00100000
01000000
00010000
10000000
01000000
00100000
00010000
10000000
00100000
01000000
,
00010000
10000000
01000000
00100000
00001000
00010000
00000100
00001000
00000010
00000100
00000001
00001000
00000100
00000010
00000001
00001000
,
00000010
00010000
00001000
01000000
00010000
00100000
01000000
10000000
00010000
01000000
00100000
10000000
01000000
00100000
00001000
00010000
,
00000100
00000010
00000001
00001000
00010010
00001000
00010100
00011000
,
01000000
00000000
00000000
10010000
00000000
00000000
10000000
00000000
00000000
10100000
00000000
00000000
00000000
00000000
00000000
00000000
,
00010000
00000000
00000000
01100000
00000000
00000000
10000000
00000000
00000000
01010000
00000000
00000000
00000000
00000000
00000000
00000000
,
00001000
00000000
00000000
00011000
00000000
00000000
00000100
00000000
00000000
00010010
00000000
00000000
00000000
00000000
00000000
00000000
,
00001000
00000000
00000000
00000110
00000000
00000000
00000001
00000000
00000000
00001100
00000000
00000000
00000000
00000000
00000000
00000000
,
00000010
00000000
00000000
00010010
00000000
00000000
00001000
00000000
00000000
01001000
00000000
00000000
00000000
00000000
00000000
00000000
,
00010000
00000000
00000000
00110000
00000000
00000000
01000000
00000000
00000000
10010000
00000000
00000000
00000000
00000000
00000000
00000000
,
00100000
00000000
00000000
00010000
00011000
00000000
00000000
00010100
00000000
00000000
00011000
00000000
00000000
01001000
00000000
00000000
,
00000100
00001000
00000010
00000100
00000001
00001000
00000100
00001000
00000100
00001000
00000010
00010000
00001000
01000000
00010000
01000000
,
00100000
MMMM0000
00000000
00000000
00000000
0M100000
00000000
00000000
10000000
00000000
00000000
00000000
00000000
00000000
00000000
00000000
,
00000000
00000000
00000000
00000000
00010000
00000000
00000000
10000000
00000000
00000000
00000000
00010000
00000000
00000000
00000000
00000000
,
00100000
00000000
00000000
10010000
00000000
00000000
01000000
00000000
00000000
00110000
00000000
00000000
00000000
00000000
00000000
00000000
,
00001000
00000000
00000000
00011000
00000000
00000000
01000000
00000000
00000000
00101000
00000000
00000000
00000000
00000000
00000000
00000000
,
00001000
00000000
00000000
00010010
00000000
00000000
00001000
00000000
00000000
00010100
00000000
00000000
00000000
00000000
00000000
00000000
,
00000010
00000000
00000000
00001100
00000000
00000000
00000001
00000000
00000000
00001010
00000000
00000000
00000000
00000000
00000000
00000000
,
00000100
00010100
00011000
00000000
01001000
00011000
00000000
00110000
,
10010000
00000000
00000000
00000000
00000000
00000000
01001000
00000000
00000000
00011000
00000000
00000000
01000000
00000000
00010000
00000000
00100000
00000000
01000000
00000000
10000000
00000000
00010000
00000000
,
02200000
00000000
00000000
03300000
00000000
00000000
00000000
00000000
;

//---------------dance-double - M.Emirzian----------------
#NOTES:
     dance-double:
     M.Emirzian:
     Easy:
     3:
     0.167,0.000,0.193,0.018,0.000,104.000,21.000,2.000,0.000,0.000,0.000:
00000000
00000000
00000000
00000000
,
00000000
00000000
00000000
00000000
,
00000000
00000000
00000000
00000000
,
00011000
00000000
00000000
00010100
00000000
00000000
00000000
00000000
,
00000000
00000000
00000000
00000010
,
00001100
00000000
00000000
00001001
00000000
00000000
00000000
00000000
,
00000000
00000000
00000000
00010000
,
00001000
00000000
00000000
00101000
00000000
00000000
00000000
00000000
,
00000000
00000000
10000000
00100000
,
01000000
00000000
00000000
10010000
00000000
00000000
00000000
00000000
,
00000000
00000000
00001000
00010000
,
00000100
00000000
00000000
00001010
00000000
00000000
00000000
00000000
,
00000000
00000000
00000000
00000001
,
00001000
00000000
00000010
00001000
00000000
00000000
00000000
00000000
,
00000000
00000000
00000000
10000000
,
00010000
00000000
00000000
01100000
00000000
00000000
00000000
00000000
,
00000000
00000000
00001000
00010000
,
00000100
00000000
00000000
00001010
00000000
00000000
00002002
00000000
,
00000000
00003003
00000000
00000100
,
00001000
00000010
00001000
00000100
,
00010000
00001000
01000000
00010000
,
10000000
01000000
00100000
00010000
,
01000000
00001000
00010000
00000100
,
00001000
00000010
00000100
00000001
,
00001000
00000100
00010000
00001000
,
00100000
00010000
10000000
00100000
,
01000000
00010000
00100000
00001000
,
00011000
00000000
00000000
00010000
00000000
00000000
00000000
00000000
,
00010100
00000000
00000000
00001000
00000000
00000000
00000000
00000000
,
00000110
00000000
00000000
00000001
00000000
00000000
00000000
00000000
,
00001100
00000000
00000000
00010000
00000000
00000000
00000000
00000000
,
01001000
00000000
00000000
00100000
00000000
00000000
00000000
00000000
,
10010000
00000000
00000000
10000000
00000000
00000000
00000000
00000000
,
10000000
00010000
01000000
00001000
,
00010000
00000000
00000100
00000000
00001000
00000000
00000010
00000100
,
00000001
00000000
00000000
00000000
,
00000000
00000000
00000000
00000000
,
00001001
00000000
00000000
00000100
00000000
00000000
00000000
00000000
,
00011000
00000000
00000000
00010000
00000000
00000000
00000000
00000000
,
00101000
00000000
00000000
00100000
00000000
00000000
00000000
00000000
,
10010000
00000000
00000000
01000000
00000000
00000000
00100000
00000000
,
10000000
00010000
10000000
00000000
00100000
00001000
00000000
00010000
,
00001000
00000000
00010000
00000100
00001000
00000000
00000010
00000000
,
00001001
00000000
00000000
00000000
;

//---------------dance-double - M.Emirzian----------------
#NOTES:
     dance-double:
     M.Emirzian:
     Medium:
     5:
     0.268,0.000,0.184,0.055,0.005,178.000,20.000,6.000,0.000,0.000,0.000:
00000000
00000000
00000000
00000000
,
00000000
00000000
00000000
00000000
,
00000000
00000000
00000000
00000000
,
10000000
00010000
01000000
00110000
00000000
00000000
00000000
00000000
,
00000000
00000000
00000000
00000000
00000000
00001000
00010000
00000100
,
00001000
00000010
00000100
00001010
00000000
00000000
00000000
00000000
,
00000000
00000000
00000000
00000000
00000000
00000001
00001000
00000100
,
00000010
00000001
00001000
00001100
00000000
00000000
00000000
00000000
,
00000000
00000000
00000000
00000000
00001000
00000100
00010000
00001000
,
01000000
00010000
10000000
01100000
00000000
00000000
00000000
00000000
,
10000000
00000000
01000000
00000000
00100000
00010000
00100000
01000000
,
10000000
00010000
01000000
10010000
00000000
00000000
01010000
00000000
,
00000000
00000000
00000000
00000000
00000000
00001000
00010000
00000100
,
00001000
00000010
00000100
00001001
00000000
00000000
00000020
00000000
,
00000000
00000000
00000030
00000000
00000000
00001000
00000100
00010000
,
00001000
00010000
01000000
10010000
00000000
00000000
00020000
00000000
,
00000000
00000000
00030000
00000000
10000000
01000000
00100000
00010000
,
00100000
01000000
10000000
00110000
00000000
00000000
00022000
00000000
,
00000000
00000000
00000000
00000000
00033000
00000000
00000000
00000000
00010000
00000000
00000000
00000100
00000000
00000000
00001000
00000000
,
00000010
00000100
00000001
00001000
00000100
00001000
00000100
00000000
,
00000001
00000100
00000010
00001000
00000100
00001000
00000100
00000000
,
00010000
00001000
01000000
00010000
01000000
00100000
10000000
00000000
,
00010000
01000000
00100000
10000000
01000000
00100000
01000000
00000000
,
10000000
00010000
01000000
00010000
01000000
00010000
00100000
00000000
,
00001000
00010000
00001000
00010000
00000010
00001000
00000010
00000000
,
00000100
00000001
00001000
00000100
00000010
00000001
00001000
00000000
,
00000010
00010000
00001000
00010000
00001000
00010000
00001000
01000000
,
00011000
00000000
00000000
10010000
,
00000000
00000000
00000000
01001000
,
00000000
00000000
00000000
00010010
,
00000000
00000000
00000100
00000010
,
00000001
00001000
00000100
00010000
,
00001000
01000000
00010000
00000000
00100000
01000000
10000000
00000000
,
00010000
01000000
00001000
00010000
00001000
00010000
00000100
00001000
,
00000010
00000000
00000100
00000000
00000001
00001000
00000001
00000100
,
00001010
00000000
00000000
00000000
,
00000000
00000000
00000000
00001000
,
00000001
00000000
00000000
00001100
00000000
00000000
00000010
00000000
,
00001000
00000000
00000000
00011000
00000000
00000000
00010000
00000000
,
00001000
00000000
00000000
01010000
00000000
00000000
00000000
00000000
,
00100000
00000000
00000000
10010000
00000000
00000000
00000000
00000000
,
10000000
01000000
00100000
00000000
00010000
00100000
00000000
00001000
,
00010000
00000000
00000010
00001000
00000010
00000100
00000001
00001000
,
00002200
00000000
00000000
00003300
00000000
00000000
00000000
00000000
;

//---------------dance-single - K. Ward----------------
#NOTES:
     dance-single:
     K. Ward:
     Beginner:
     1:
     0.064,0.000,0.101,0.000,0.000,38.000,11.000,0.000,0.000,0.000,0.000:

0000
0000
0000
0000
,
0000
0000
0000
0000
,
0000
0000
0000
0000
,
0001
0000
0000
0000
,
0000
0000
0000
0000
,
1000
0000
0000
0000
,
0000
0000
0000
0000
,
0100
0000
0000
0000
,
0000
0000
0000
0000
,
0010
0000
0000
0000
,
0000
0000
0000
0000
,
0001
0000
0000
0000
,
1000
0000
0000
0000
,
0001
0000
0000
0000
,
1000
0000
0000
0000
,
0010
0000
0000
0000
,
0100
0000
0000
0000
,
0010
0000
0000
1001
,
0000
0000
0000
0000
,
0001
0000
0000
0000
,
0001
0000
0000
0000
,
0001
0000
0000
0000
,
1000
0000
0000
0000
,
0010
0000
0000
0000
,
0010
0000
0000
0000
,
0100
0000
0000
0000
,
0010
0000
0000
0000
,
1001
0000
0000
0000
,
0010
0000
0000
0000
,
1001
0000
0000
0000
,
0100
0000
0000
0000
,
1001
0000
0000
0000
,
0010
0000
0000
0000
,
1001
0000
0000
0000
,
0000
0000
0000
0000
,
1001
0000
0000
0000
,
0001
0000
0000
0000
,
1001
0000
0000
0000
,
1000
0000
0001
0000
,
1001
0000
0000
0000
,
0001
0000
1000
0000
,
1001
0000
0000
0000
,
0110
0000
0000
0000
,
1001
0000
0000
0000
;
