#TITLE:Which MC Was That;
#SUBTITLE:;
#ARTIST:MC Frontalot;
#TITLETRANSLIT:;
#SUBTITLETRANSLIT:;
#ARTISTTRANSLIT:;
#GENRE:;
#CREDIT:;
#BANNER:Which MC Was That-banner.png;
#BACKGROUND:Which MC Was That-bg.png;
#LYRICSPATH:;
#CDTITLE:;
#MUSIC:MC Frontalot - Which MC Was That.ogg;
#OFFSET:-0.830;
#SAMPLESTART:31.109;
#SAMPLELENGTH:13.960;
#SELECTABLE:YES;
#BPMS:0.000=110.715;
#STOPS:;
#BGCHANGES:;
#KEYSOUNDS:;
// cache tags:
#FIRSTBEAT:16.000;
#LASTBEAT:224.000;
#SONGFILENAME:/Songs/In The Groove/Which MC Was That/MC Frontalot - Which MC Was That.sm;
#HASMUSIC:1;
#HASBANNER:1;
#MUSICLENGTH:123.948;
// end cache tags

//---------------dance-single - R. McKanna----------------
#NOTES:
     dance-single:
     R. McKanna:
     Hard:
     7:
     0.441,0.000,0.153,0.016,0.238,362.000,19.000,2.000,0.000,0.000,0.000:


0000
0000
0000
0000
,
0000
0000
0000
0000
,
0000
0000
0000
0000
,
0000
0000
0000
0000
,
1000
0100
0001
0000
1000
0100
0010
0000
,
1000
0010
0100
0001
0010
0100
0010
0000
,
0001
0010
1000
0000
0001
0010
0100
0000
,
0001
0100
0010
1000
0100
0010
0100
0000
,
1001
1000
0001
1001
0000
0000
0100
0000
,
1001
0001
1000
1001
0000
0000
0010
0000
,
1001
0010
0100
1001
0000
0000
0100
0000
,
1001
0100
0010
1001
0000
0000
0100
0000
,
0001
0010
0001
0011
0000
0000
0100
0000
,
1000
0100
1000
0010
0100
0001
0011
0000
,
1000
0000
0001
1000
0000
0100
0000
1000
0000
0001
0000
1000
0100
0000
1000
0000
,
0010
0000
1000
0100
0000
0010
0000
0100
0000
1000
0000
0010
0100
0000
0001
0000
,
0010
0000
0100
1000
0000
0010
0000
0100
0000
0010
0000
1000
0100
0000
0010
0000
,
0001
0000
0010
0100
0000
1000
0000
0001
0000
0100
0000
0010
1000
0000
0100
0000
,
0010
0000
0000
0001
0000
0000
0100
0000
0000
0001
0000
0000
0010
0000
0100
0000
,
1000
0000
0010
0100
0000
0001
0000
0000
1000
0000
0100
0010
0000
0000
0000
0000
,
0001
0010
1000
0010
0001
0010
0100
0000
,
0001
0100
0010
1000
0100
0010
0100
0000
,
1000
0100
0001
0000
1000
0100
0010
0000
,
1000
0010
0100
0001
0010
0100
0010
0000
,
0001
0000
0010
0000
0100
1000
0100
0000
,
1000
0000
0001
0001
0010
0010
0100
0100
,
1000
0010
0100
0001
1000
0010
0100
0001
,
2000
0000
3001
0010
0001
0001
1000
0010
,
1000
1000
0001
0010
0100
0010
0001
0100
,
0010
1000
0100
0001
0100
1000
0010
0100
,
1001
0000
0000
0000
0010
0000
0001
0100
0001
0000
0100
0000
0010
0000
0000
0000
,
1001
0100
0010
0100
1000
0100
0010
0000
,
1001
0000
0000
0000
0100
0000
1000
0010
1000
0000
0010
0000
0100
0000
0000
0000
,
1001
0010
0100
0010
0001
0010
0100
1000
,
0001
1000
1000
1000
0001
0001
0001
0010
,
1000
0010
0001
0100
0010
0100
0010
1000
,
0001
0001
1000
1000
0010
0010
1000
1000
,
0100
0000
0001
0001
0100
0100
0010
0010
,
1001
0000
0001
0000
0010
0000
0100
0010
,
0002
0010
1000
0013
,
0001
0000
1000
0001
0000
0010
0000
0001
0000
1000
0000
0001
0010
0000
0001
0000
,
0100
0000
0001
0010
0000
0100
0000
0010
0000
0001
0000
0100
0010
0000
1000
0000
,
0100
0000
0010
0001
0000
0100
0000
0010
0000
0100
0000
0001
0010
0000
0100
0000
,
1000
0000
0100
0010
0000
0001
0000
1000
0000
0010
0000
0100
0001
0000
0010
0000
,
0100
0000
0000
1000
0000
0000
0010
0000
0000
1000
0000
0000
0100
0000
0010
0000
,
0001
0000
0100
0010
0000
1000
0000
0000
0001
0000
0010
0100
0000
0000
0000
0000
,
1000
1000
0100
0100
0010
0000
1001
0000
,
0001
0001
0010
0010
0100
0000
1001
0000
,
0001
0000
0010
0000
0100
0000
0010
0000
0001
0000
0100
0000
0000
0010
0000
0000
,
1000
0000
0100
0000
0010
0000
0100
0000
1000
0000
0010
0000
0000
0100
0000
0000
,
0001
0010
0100
1000
0001
0000
0001
0000
,
1000
0010
0100
0101
0001
0011
0001
0000
,
0001
0100
0010
0010
1000
0100
0010
0010
,
0000
1000
0100
1000
0001
0100
0001
1000
,
0001
0000
0000
0010
0000
0000
0100
0000
0000
0010
0000
0000
0001
0000
0100
0000
,
1000
0000
0100
0010
0000
1000
0000
0000
0100
0000
0010
0001
0000
0000
0000
0000
;

//---------------dance-single - R. McKanna----------------
#NOTES:
     dance-single:
     R. McKanna:
     Medium:
     5:
     0.328,0.000,0.169,0.016,0.016,262.000,21.000,2.000,0.000,0.000,0.000:


0000
0000
0000
0000
,
0000
0000
0000
0000
,
0000
0000
0000
0000
,
0000
0000
0000
0000
,
1000
1000
0001
0001
,
1000
0000
1000
0000
0010
1000
0100
0010
,
0001
0001
0010
0010
,
0001
0000
0001
0000
0010
0100
1000
0100
,
0010
0000
0000
1001
0000
0000
0000
0000
,
0100
0000
0000
1001
0000
0000
0000
0000
,
1001
0000
0000
1010
0000
0000
0100
0000
,
0101
0000
0000
1001
0000
0000
0000
0000
,
0001
1000
0010
0000
0010
1000
0001
0000
,
1000
0100
0010
0000
0100
0000
1001
0000
,
0001
0100
0010
1000
0001
0100
0010
0000
,
0010
1000
0100
1000
0010
0100
0001
0000
,
0001
0010
0001
0100
0010
1000
0100
0000
,
0100
1000
0001
0010
0001
0100
0010
0000
,
0010
0000
0000
1000
0000
0000
0100
0000
0000
0010
0000
0000
0001
0000
0100
0000
,
0010
1001
0100
1001
,
1000
1000
0100
0000
0010
0000
0010
0000
,
0001
0001
1000
0000
0100
0000
0100
0000
,
1000
0010
0100
0000
1000
0010
0100
0000
,
0001
0000
0010
0000
0100
1000
0010
0000
,
1000
0000
0010
0000
0100
0100
0100
0000
,
0001
0000
0010
0000
0100
0100
0100
0000
,
1000
0010
0100
0000
1000
0010
0100
0000
,
2000
3001
0010
0100
,
1000
0000
0010
0000
0100
0001
0010
0000
,
0100
0000
0100
1000
0010
0000
0100
0000
,
0100
0000
0000
0001
0001
0000
0000
0000
,
0001
1000
0010
1001
,
0010
0000
0000
1000
1000
0000
0000
0000
,
1000
0001
0100
1001
,
1000
0000
0000
0010
0010
0000
0000
0000
,
0100
0001
0100
1001
,
0001
0000
0000
0100
0100
0000
0000
0000
,
0010
0000
1000
0000
0010
0100
0001
0000
,
1001
0010
0100
1000
,
0002
0010
0100
1003
,
1000
0010
0100
0001
1000
0010
0100
0000
,
0100
0001
0010
0001
0100
0010
1000
0000
,
1000
0100
1000
0010
0100
0001
0010
0000
,
0010
0001
1000
0100
1000
0010
0100
0000
,
0100
0000
0000
0001
0000
0000
0010
0000
0000
0100
0000
0000
1000
0000
0010
0000
,
0100
1001
0100
1001
,
0001
1000
0100
1000
0001
0000
0010
0000
,
0100
1000
0001
1000
0100
0000
0010
0000
,
1001
0000
0001
0000
0001
0010
0100
1000
,
0010
0000
1000
0000
1000
0100
0010
0001
,
0100
0001
0110
1001
,
0001
0000
0010
1000
0100
1000
0010
0000
,
0001
1010
0100
1001
,
0100
0001
0010
0100
1000
0010
0100
0001
,
1000
0010
0100
0001
,
1000
0010
0100
0001
0100
0010
1000
0000
,
1001
0000
0000
0000
;

//---------------dance-single - R. McKanna----------------
#NOTES:
     dance-single:
     R. McKanna:
     Easy:
     3:
     0.228,0.000,0.226,0.040,0.000,165.000,28.000,5.000,0.000,0.000,0.000:


0000
0000
0000
0000
,
0000
0000
0000
0000
,
0000
0000
0000
0000
,
0000
0000
0000
0000
,
1001
0000
0000
0100
,
1001
0000
0000
0010
,
1001
0000
0000
0001
,
1001
0000
0000
1000
,
1001
0000
0100
0010
,
1001
0000
0100
0010
,
1001
0000
0010
0100
,
1001
0000
0010
0100
,
1000
1000
0000
0000
,
0001
0001
0100
0000
,
1000
1000
1000
1001
,
0001
0001
0001
1001
,
0010
0100
0010
1001
,
0100
0010
0100
1001
,
1000
0100
0010
0101
,
0001
0010
0100
1010
,
1000
0000
0100
0000
,
0001
0000
0100
0000
,
1000
0001
1000
0001
,
0010
0000
0010
0000
,
0001
0100
0010
1000
,
1000
0010
0100
0001
,
0001
1000
0100
0010
,
0002
0013
1000
1000
,
0001
0001
0110
0000
,
0100
0000
0010
0000
,
1001
0000
0100
0000
,
0001
0010
0001
0010
,
1001
0000
0100
0000
,
1000
0100
1000
0100
,
1001
0000
0100
0000
,
1000
0010
1000
0010
,
1001
0000
0100
0000
,
0001
0100
0001
0100
,
0002
0000
0013
0100
,
2000
0000
3010
0100
,
0001
0010
0001
0010
,
0101
0010
0001
0010
,
1000
0100
1000
0100
,
1010
0100
1000
0100
,
0001
0010
0100
1100
,
1000
0100
0010
0011
,
0001
0000
0100
0100
,
1000
0000
0100
0100
,
0002
0000
0103
0000
,
2000
0000
3100
0000
,
1001
0000
0010
0100
,
1001
0000
0010
0100
,
1001
0000
0100
0010
,
1001
0000
0100
0010
,
0001
1000
0100
0010
,
1000
0001
0010
0100
,
1001
0000
0000
0000
;

//---------------dance-double - M. Emirzian----------------
#NOTES:
     dance-double:
     M. Emirzian:
     Easy:
     2:
     0.109,0.000,0.000,0.008,0.000,94.000,0.000,1.000,0.000,0.000,0.000:


00000000
00000000
00000000
00000000
,
00000000
00000000
00000000
00000000
,
00000000
00000000
00000000
00000000
,
00000000
00000000
00000000
00000000
,
10000000
00000000
01000000
00000000
,
00100000
00000000
00001000
00000000
,
00000010
00000000
00000100
00000000
,
00000001
00000000
00000010
00000000
,
00001000
00000000
00000100
00000000
,
00010000
00000000
01000000
00000000
,
00100000
00000000
10000000
00000000
,
01000000
00000000
00001000
00000000
,
00010000
00000000
00000100
00000000
,
00010000
00000010
00002000
00000000
,
00003000
00000001
00000000
00001000
,
00000000
00000100
00000000
00010000
,
00000000
10000000
00000000
01000000
,
00000000
00010000
00000000
00001000
,
00000000
00000100
00000000
00000000
,
00000001
00000000
00001000
00000000
,
00000100
00000000
00000000
00000000
,
01000000
00000000
00000000
00000000
,
00010000
00000000
00000000
00000000
,
00000010
00000000
00000000
00000000
,
00001000
00000000
00000000
00000000
,
00000100
00000000
00000000
00000000
,
00010000
00000000
00000000
00000000
,
10000000
00000000
00000000
00000000
,
00100000
00001000
00010000
00000000
,
00000010
00000001
00001000
00000000
,
00000100
00000000
00010000
00000000
,
00001000
00000000
01000000
00100000
,
10000000
00000000
00010000
00000000
,
00100000
00000000
00001000
00010000
,
00000010
00000000
00000100
00000000
,
00000001
00000000
00000100
00000000
,
00001000
00000000
00010000
00000000
,
00001000
00000000
01000000
00000000
,
00000000
00000000
00000000
00000000
,
00100000
00000000
00000000
00000000
,
00000000
10000000
00000000
01000000
,
00000000
00100000
00000000
00001000
,
00000000
00010000
00000000
00000010
,
00000000
00001000
00000000
00000100
,
00000000
00000010
00000000
00000001
,
00000000
00001000
00000000
00000100
,
00000000
00000000
00000000
00000000
,
00010000
00000000
00000000
00000000
,
10000000
00000000
00000000
00000000
,
00010000
00000000
00000000
00000000
,
00001000
00000000
00000000
00000000
,
00000001
00000000
00001000
00000000
,
00000100
00000000
00010000
00000000
,
00001000
00000000
00100000
00000000
,
01000000
00000000
10000000
00000000
,
00010000
00001000
00000100
00000001
,
00001000
00000000
00000000
00000000
;

//---------------dance-double - M. Emirzian----------------
#NOTES:
     dance-double:
     M. Emirzian:
     Medium:
     3:
     0.175,0.000,0.000,0.008,0.000,151.000,0.000,1.000,0.000,0.000,0.000:


00000000
00000000
00000000
00000000
,
00000000
00000000
00000000
00000000
,
00000000
00000000
00000000
00000000
,
00000000
00000000
00000000
00000000
,
10000000
01000000
00100000
00001000
,
00000010
00000001
00001000
00000001
,
00000100
00000010
00010000
00001000
,
01000000
00001000
00010000
01000000
,
10000000
00000000
00010000
00000000
10000000
01000000
00100000
00000000
,
00010000
00000000
00100000
00000000
00001000
00010000
00000010
00000000
,
00001000
00000100
00000010
00000001
,
00001000
00000000
00000100
00000000
00010000
00000000
00001000
00100000
,
00010000
01000000
00100000
10000000
,
01000000
00200000
00000000
00301000
,
00000010
00000001
00001000
00000100
,
00000010
00000001
00001000
00000100
,
00010000
00001000
01000000
00100000
,
10000000
00010000
01000000
00000000
,
00100000
00000000
10000000
00000000
,
01000000
00000000
00010000
00000000
,
00001000
00010000
00000000
00000000
00000000
00000000
00000000
00000000
,
00000010
00000001
00000000
00000000
00000000
00000000
00000000
00000000
,
00010000
00001000
00000000
00000000
00000000
00000000
00000000
00000000
,
10000000
00010000
00000000
00000000
00000000
00000000
00000000
00000000
,
00100000
00000000
00001000
00000000
,
00010000
00000000
00000100
00000000
,
00000010
00000000
00000001
00000000
,
00001000
00000100
00010000
00000000
,
00001000
01000000
00100000
00000000
,
10000000
01000000
00100000
00000000
,
00001000
00000000
00010000
00000000
,
00001000
00000010
00000001
00000000
,
00000100
00000000
00001000
00000000
,
00010000
00001000
01000000
00000000
,
00100000
00000000
10000000
00000000
,
00100000
00001000
00010000
00000000
,
00000100
00000000
00000010
00000000
,
00000001
00001000
00000100
00000000
,
00000010
00000000
00000000
00000000
,
00000001
00000000
00000000
00000000
,
00010000
00001000
01000000
00100000
,
10000000
01000000
00100000
00001000
,
00010000
00000100
00000010
00000000
,
00000001
00000000
00001000
00000000
,
00000100
00010000
00001000
00000000
,
00100000
00010000
01000000
00000000
,
00100000
00000000
00000000
00000000
,
00001000
00000000
00000000
00000000
,
00010000
00000000
00000000
00000000
,
00000001
00000000
00000000
00000000
,
00001000
00000000
00000100
00000010
,
00000001
00000000
00000000
00000000
00001000
00000000
00000100
00010000
,
00001000
00000000
01000000
00000000
,
00100000
10000000
01000000
00000000
00100000
00000000
00001000
00000000
,
00000000
00010000
00000000
00001000
,
00000100
00000000
00000001
00000000
00000010
00000100
00001000
00000000
,
00000001
00000000
00000000
00000000
;

//---------------dance-double - M. Emirzian----------------
#NOTES:
     dance-double:
     M. Emirzian:
     Hard:
     5:
     0.287,0.000,0.016,0.024,0.048,244.000,2.000,3.000,0.000,0.000,0.000:


00000000
00000000
00000000
00000000
,
00000000
00000000
00000000
00000000
,
00000000
00000000
00000000
00000000
,
00000000
00000000
00000000
00000000
,
10000000
00000000
00100000
00000000
01000000
00001000
00010000
00000000
,
00001000
00010000
00000010
00000000
00001000
00000100
00000010
00000000
,
00000001
00000000
00001000
00000000
00000010
00010000
00001000
00000000
,
00010000
00000000
00001000
01000000
00010000
10000000
00100000
00000000
,
01000000
00000000
00010000
00000000
00100000
00000000
01000000
10000000
,
00010000
00000000
00100000
00000000
00001000
00010000
00000100
00000000
,
00001000
00000010
00000100
00000000
00000001
00000000
00000010
00000000
,
00000100
00001000
00000001
00000000
00000100
00000000
00001000
00010000
,
00001000
00000000
01000000
00000000
00010000
00000000
00100000
01000000
,
00000000
10000000
00000000
00000000
00010000
00000000
00000000
01000000
00000000
00000000
00100000
00000000
00000000
10000000
00000000
00000000
,
01000000
00000000
00010000
00000000
00001000
00010000
00000010
00000000
,
00001000
00000000
00000100
00000010
00000001
00000000
00001000
00000000
,
00000010
00000000
00000100
00000000
00000001
00000100
00000010
00000000
,
00010000
00000000
00001000
00000000
01000000
00010000
00100000
00000000
,
01000000
00000000
00000000
10000000
00000000
00000000
00100000
00000000
00000000
01000000
00000000
00000000
00010000
00000000
00100000
00000000
,
00001000
00000000
00011000
00000000
00010000
00000100
00001000
00000000
,
00000001
00000100
00000000
00000000
00000010
00000000
00001000
00000100
,
00010000
00001000
00000000
00000000
01000000
00000000
00010000
00100000
,
01000000
10000000
00000000
00000000
00010000
00000000
01000000
00100000
,
10000000
01000000
00000000
00000000
00100000
00000000
00010000
00000000
,
01000000
00001000
00000000
00000000
00010000
00000000
00000010
00000000
,
00001000
00000100
00000000
00000000
00000010
00000000
00000001
00000000
,
00000100
00000010
00000000
00000000
00010000
00000000
00001000
00000000
,
01000000
00010000
00000000
00000000
00100000
00000000
01000000
00000000
,
10000000
00010000
00000000
00000000
01000000
00000000
00001000
00000000
,
00010000
00000010
00000000
00000000
00001000
00000000
00000100
00000000
,
00000010
00000000
00000001
00000000
00000100
00000010
00001000
00000000
,
00000010
00000000
00010000
00000000
00001000
01000000
00010000
00000000
,
01000000
00000000
00100000
00000000
10000000
01000000
00100000
00000000
,
00010000
00000000
01000000
00000000
00001000
00010000
00000010
00000000
,
00001000
00000100
00000010
00000001
,
00001000
00000010
00000100
00000000
00000001
00001000
00000100
00000000
,
00010000
00000000
00001000
00000000
01000000
00010000
10000000
00000000
,
01000000
00100000
00010000
00000000
,
01000000
00001000
00010000
00000000
,
00000100
00000000
00000010
00000000
,
00000001
00000000
00001000
00000000
00000100
00000010
00000001
00000000
,
00000100
00000000
00000010
00000000
00010000
00001000
01000000
00000000
,
00001000
00000000
00010000
00100000
01000000
00000000
00010000
00000000
,
10000000
00000000
01000000
00000000
00100000
00001000
00010000
00000000
,
00000010
00000000
00000000
00001000
00000000
00000000
00000100
00000000
00000000
00000010
00000000
00000000
00000001
00000000
00001000
00000000
,
00000100
00000010
00000001
00002000
,
00003000
00000010
00010000
00002000
,
00003000
01000000
00100000
20000000
,
30000000
01000000
00100000
00001000
,
00010000
00000100
00000010
00000001
,
00001000
00000000
00000100
00000000
00000010
00000001
00000100
00000000
,
00000010
00000000
00010000
00000000
00001000
01000000
00010000
00000000
,
00100000
01000000
10000000
00010000
,
00000000
01000000
00000000
00000000
00001000
00000000
00000000
00010000
00000000
00000000
00000100
00000000
00000000
00001000
00000000
00000000
,
00000010
00000000
00000000
00000100
00000000
00000000
00000001
00000000
00000000
00000010
00000000
00000000
00000100
00000000
00001000
00000000
,
00000010
00000000
00010000
00000000
00001000
00000000
01000000
00100000
,
10010000
00000000
00000000
00000000
;

//---------------lights-cabinet - ----------------
#NOTES:
     lights-cabinet:
     :
     Easy:
     1:
     0.815,0.000,1.000,0.016,0.307,412.000,164.000,2.000,0.000,112.000,0.000:


00000000
00000000
00000000
00000000
,
00000000
00000000
00000000
00000000
,
00000000
00000000
00000000
00000000
,
00000000
00000000
00000000
00000000
,
10000011
00000000
01000000
00000000
00010000
00000000
00000000
00000000
10000000
00000000
01000011
00000000
00100000
00000011
00000000
00000000
,
10000011
00100000
01000000
00010000
00100000
01000011
00100000
00000000
,
00010011
00000000
00100000
00000000
10000000
00000000
00000000
00000000
00010000
00000000
00100011
00000000
01000000
00000011
00000000
00000000
,
00010011
01000000
00100000
10000000
01000000
00100011
01000000
00000000
,
10010011
00000000
10000000
00000000
00010000
00000000
10010000
00000000
00000000
00000000
00000011
00000000
01000000
00000011
00000000
00000000
,
10010011
00010000
10000000
10010011
00000000
00000000
00100011
00000000
,
10010011
00100000
01000000
10010011
00000000
00000000
01000000
00000000
,
10010011
01000000
00100000
10010011
00000000
00000000
01000000
00000011
,
00010011
00100000
00010000
00110011
00000000
00000000
01000000
00000000
,
10000011
01000000
10000000
00100011
01000000
00010000
00110011
00000000
,
10000011
00000000
00010000
10000000
00000000
01000000
00000011
10000000
00000000
00010000
00000000
10000000
01000011
00000000
10000000
00000000
,
00100011
00000000
10000000
01000000
00000000
00100000
00000011
01000000
00000000
10000000
00000000
00100000
01000011
00000000
00010000
00000000
,
00100011
00000000
01000000
10000000
00000000
00100000
00000011
01000000
00000000
00100000
00000011
10000000
01000000
00000000
00100011
00000000
,
00010011
00000000
00100000
01000000
00000000
10000000
00000011
00010000
00000000
01000000
00000011
00100000
10000000
00000000
01000000
00000000
,
00100011
00000000
00000000
00010000
00000011
00000000
01000000
00000000
00000011
00010000
00000000
00000000
00100011
00000000
01000011
00000000
,
10000011
00000000
00100000
01000000
00000011
00010000
00000000
00000000
10000011
00000000
01000000
00100000
00000011
00000000
00000000
00000000
,
00010011
00000000
00100000
00000000
10000000
00000000
00100000
00000000
00010000
00000000
00100011
00000000
01000000
00000011
00000000
00000000
,
00010011
00000000
01000000
00000000
00100000
00000000
10000000
00000000
01000000
00000000
00100011
00000000
01000000
00000011
00000000
00000000
,
10000011
00000000
01000000
00000000
00010000
00000000
00000000
00000000
10000000
00000000
01000011
00000000
00100000
00000011
00000000
00000000
,
10000011
00100000
01000000
00010000
00100000
01000011
00100000
00000000
,
00010011
00000000
00000000
00000000
00100000
00000000
00000000
00000000
01000000
00000000
10000011
00000000
01000000
00000011
00000000
00000000
,
10000011
00000000
00010000
00010000
00100000
00100011
01000000
01000000
,
10000011
00000000
00100000
00000000
01000000
00000000
00010000
00000000
10000000
00000000
00100011
00000000
01000000
00000011
00010000
00000000
,
20000011
00000000
30010000
00100000
00010000
00010011
10000000
00100011
,
10000011
00000000
10000000
00000000
00010000
00000000
00100000
00000000
01000000
00000000
00100011
00000000
00010000
00000011
01000000
00000000
,
00100011
00000000
10000000
00000000
01000000
00000000
00010000
00000000
01000000
00000000
10000011
00000000
00100000
00000011
01000000
00000000
,
10010011
00000000
00000000
00000000
00100000
00000000
00010000
01000000
00010011
00000000
01000000
00000000
00100000
00000000
00000000
00000000
,
10010011
01000000
00100011
01000000
10000011
01000000
00100011
00000011
,
10010011
00000000
00000000
00000000
01000000
00000000
10000000
00100000
10000011
00000000
00100000
00000000
01000000
00000000
00000000
00000000
,
10010011
00100000
01000011
00100000
00010011
00100000
01000011
10000011
,
00010011
10000000
10000000
10000000
00010011
00010000
00010000
00100000
,
10000011
00100000
00010011
01000000
00100011
01000000
00100011
10000011
,
00010011
00010000
10000000
10000000
00100011
00100000
10000000
10000000
,
01000011
00000000
00010011
00010000
01000011
01000000
00100011
00100011
,
10010011
00000000
00000000
00000000
00010000
00000000
00000000
00000000
00100000
00000000
00000011
00000000
01000000
00000011
00100000
00000000
,
00020011
00000000
00000000
00000000
00100000
00000000
00000000
00000000
10000000
00000000
00000011
00000000
00130000
00000011
00000000
00000000
,
00010011
00000000
10000000
00010000
00000011
00100000
00000000
00010000
00000000
10000000
00000011
00010000
00100000
00000000
00010011
00000000
,
01000011
00000000
00010000
00100000
00000011
01000000
00000000
00100000
00000000
00010000
00000011
01000000
00100000
00000000
10000000
00000000
,
01000011
00000000
00100000
00010000
00000011
01000000
00000000
00100000
00000000
01000000
00000011
00010000
00100000
00000000
01000011
00000000
,
10000011
00000000
01000000
00100000
00000011
00010000
00000000
10000000
00000000
00100000
00000011
01000000
00010000
00000000
00100000
00000000
,
01000011
00000000
00000000
10000000
00000000
00000000
00100000
00000000
00000011
10000000
00000000
00000000
01000000
00000000
00100000
00000000
,
00010011
00000000
01000000
00100000
00000011
10000000
00000000
00000000
00010011
00000000
00100000
01000000
00000011
00000000
00000000
00000000
,
10000011
00000000
10000000
00000000
01000000
00000000
01000000
00000000
00100000
00000000
00000011
00000000
10010000
00000011
00000000
00000000
,
00010011
00000000
00010000
00000000
00100000
00000000
00100000
00000000
01000000
00000000
00000011
00000000
10010000
00000011
00000000
00000000
,
00010011
00000000
00100000
00000000
01000000
00000000
00100000
00000000
00010000
00000000
01000011
00000000
00000000
00100011
00000000
00000000
,
10000011
00000000
01000000
00000000
00100000
00000000
01000000
00000000
10000000
00000000
00100011
00000000
00000000
01000000
00000000
00000000
,
00010011
00000000
00100000
00000000
01000000
00000000
10000000
00000000
00010000
00000000
00000011
00000000
00010000
00000011
00000000
00000000
,
10000011
00100000
01000000
01010000
00010000
00110011
00010000
00000000
,
00010011
00000000
01000000
00000000
00100000
00000000
00100000
00000000
10000000
00000000
01000011
00000000
00100000
00000011
00100000
00000000
,
00000011
00000000
10000000
00000000
01000000
00000000
10000000
00000000
00010000
00000000
01000011
00000000
00010000
00000011
10000000
00000000
,
00010011
00000000
00000000
00100000
00000000
00000000
01000011
00000000
00000000
00100000
00000000
00000000
00010011
00000000
01000000
00000000
,
10000011
00000000
01000000
00100000
00000011
10000000
00000000
00000000
01000011
00000000
00100000
00010000
00000011
00000000
00000000
00000000
,
11110011
00000000
00000000
00000000
;

//---------------dance-single - M. Puls----------------
#NOTES:
     dance-single:
     M. Puls:
     Beginner:
     1:
     0.066,0.000,0.016,0.000,0.000,55.000,2.000,0.000,0.000,0.000,0.000:


0000
0000
0000
0000
,
0000
0000
0000
0000
,
0000
0000
0000
0000
,
0000
0000
0000
0000
,
1000
0000
0000
0000
,
1000
0000
0000
0000
,
1000
0000
0000
0000
,
0001
0000
0000
0000
,
0001
0000
0000
0000
,
0001
0000
0000
0000
,
1000
0000
0000
0000
,
0100
0000
0000
0000
,
0010
0000
0000
0000
,
0001
0000
0000
0000
,
0010
0000
0000
0000
,
0100
0000
0000
0000
,
1000
0000
0000
0000
,
1000
0000
0000
0000
,
1000
0000
0000
0000
,
0100
0000
0000
0000
,
0010
0000
0000
0000
,
0001
0000
0000
0000
,
0001
0000
0000
0000
,
0001
0000
0000
0000
,
0010
0000
0000
0000
,
0100
0000
0000
0000
,
1000
0000
0000
0000
,
1000
0000
1000
0000
,
0001
0000
0001
0000
,
0000
0000
1000
0000
,
0001
0000
0000
0000
,
1000
0000
0000
0000
,
0010
0000
0000
0000
,
0100
0000
0000
0000
,
1000
0000
0000
0000
,
0001
0000
0000
0000
,
0010
0000
0000
0000
,
0100
0000
0000
0000
,
0001
0000
0000
0000
,
0000
0000
0000
0000
,
1001
0000
0000
0000
,
0010
0000
0000
0000
,
0100
0000
0000
0000
,
0010
0000
0000
0000
,
1000
0000
0000
0000
,
0001
0000
0000
0000
,
0100
0000
0000
0000
,
0010
0000
0000
0000
,
1000
0000
0000
0000
,
0001
0000
0000
0000
,
1001
0000
0000
0000
,
1000
0000
0000
0000
,
1000
0000
0000
0000
,
0001
0000
0000
0000
,
0001
0000
1000
0000
,
0001
0000
1000
0000
;
