#TITLE:VerTex;
#SUBTITLE:;
#ARTIST:ZiGZaG;
#TITLETRANSLIT:;
#SUBTITLETRANSLIT:;
#ARTISTTRANSLIT:;
#GENRE:;
#CREDIT:;
#BANNER:vertex-banner.png;
#BACKGROUND:VerTex-bg.png;
#LYRICSPATH:;
#CDTITLE:;
#MUSIC:ZiGZaG- Vertex.ogg;
#OFFSET:0.000;
#SAMPLESTART:40.370;
#SAMPLELENGTH:11.590;
#SELECTABLE:YES;
#BPMS:0.000=250.000,160.000=118.980,168.000=250.000,176.000=118.980,184.000=250.000,193.000=214.500,195.000=172.500,198.000=138.000,200.000=126.620,201.000=85.499,201.500=60.499,202.000=257.920,204.000=250.000,302.000=239.960,302.500=237.720,303.000=249.500,304.000=112.001,312.000=112.001,336.000=254.003,340.000=254.502,344.000=254.203,346.000=254.582,349.000=256.003,352.000=263.702,354.000=267.001,356.000=268.001,360.000=268.502,361.000=269.502,362.000=271.602,364.000=273.501,366.000=275.002,368.000=280.003,372.000=281.503,376.000=283.503,380.000=284.003,382.000=285.003,384.000=291.502,388.000=296.002,392.000=299.502,396.000=301.502,404.000=302.001,416.000=306.001,432.000=611.999;
#STOPS:202.000=0.378
;
#BGCHANGES:0.000=VerTex-bg.png=1.000=0=0=1=====,
16.000=688_JumpBack.mpg=1.000=0=0=1=====,
32.000=682_JumpBack.mpg=1.000=0=0=1=====,
48.000=679_JumpBack.mpg=1.000=0=0=1=====,
64.000=687_JumpBack.mpg=1.200=0=0=1=====,
80.000=EV01442N.mpg=1.000=0=0=1=====,
96.000=712_JumpBack.mpg=1.200=0=0=1=====,
128.000=EV01451N.mpg=1.000=0=0=1=====,
160.000=736_JumpBack.mpg=1.000=0=0=1=====,
168.000=EV01442N.mpg=1.000=0=0=1=====,
176.000=736_JumpBack.mpg=1.000=0=0=1=====,
184.000=EV01442N.mpg=1.000=0=0=1=====,
192.000=EV01442N.mpg=0.600=0=0=1=====,
196.000=EV01442N.mpg=0.400=0=0=1=====,
200.000=EV01442N.mpg=0.200=0=0=1=====,
202.000=EV01442N.mpg=0.000=0=0=1=====,
202.563=VerTex-bg.png=1.000=0=0=1=====,
204.000=728_JumpBack.mpg=1.000=0=0=1=====,
220.000=EV01446N.mpg=1.000=0=0=1=====,
236.000=712_JumpBack.mpg=1.000=0=0=1=====,
268.000=EV01452N.mpg=1.000=0=0=1=====,
296.000=EV01442N.mpg=1.000=0=0=1=====,
304.000=689_JumpBack.mpg=1.000=0=1=1=StretchRewind====,
320.000=676_JumpBack.mpg=1.000=0=0=1=====,
336.000=EV01446N.mpg=1.200=0=0=1=====,
368.000=696_JumpBack.mpg=1.000=0=0=1=====,
400.000=730_JumpBack.mpg=1.400=0=0=1=====,
432.000=682_JumpBack.mpg=1.600=0=0=1=====,
496.000=VerTex-bg.png=1.000=0=0=1=====,
510.000=VerTex-bg.png=1.000=0=0=1=====,
99999=-nosongbg-=1.000=0=0=0 // don't automatically add -songbackground-
;
#KEYSOUNDS:;
// cache tags:
#FIRSTBEAT:16.000;
#LASTBEAT:510.000;
#SONGFILENAME:/Songs/In The Groove/VerTex/VerTex.sm;
#HASMUSIC:1;
#HASBANNER:1;
#MUSICLENGTH:126.559;
// end cache tags

//---------------dance-single - K. Ward----------------
#NOTES:
     dance-single:
     K. Ward:
     Hard:
     10:
     0.746,0.000,0.166,0.292,0.427,603.000,21.000,37.000,139.000,0.000,0.000:

0000
0000
0000
0000
,
0000
0000
0000
0000
,
0000
0000
0000
0000
,
0000
0000
0000
0000
,
1000
0000
0001
0000
1000
0100
1000
0000
,
0001
0000
1000
0000
0001
0010
0001
0000
,
1000
0000
0001
0000
0100
0010
0100
0000
,
0001
1000
0010
0010
,
1000
0000
0010
0100
0010
0000
1000
0000
,
0001
1000
0100
1000
0010
0000
1000
0000
,
0010
0000
0100
0010
0100
0000
0010
0000
,
0010
1000
0000
0001
1000
0000
0100
0000
,
1000
0000
0010
0100
0010
0000
1000
0000
,
0001
1000
0100
1000
0010
0000
1000
0000
,
0010
0100
0000
0001
0100
0000
0010
0100
,
0000
0010
1000
0001
1000
0001
1000
0001
,
0000
0000
0010
0100
0010
0100
1000
000M
,
0000
0000
0001
1000
0001
0000
1000
0M00
,
1000
0001
0100
0001
0100
0000
0010
0000
,
1000
0001
0100
0010
,
000M
0000
0010
0100
0010
0000
0010
0000
,
0M00
0000
0100
0010
0100
0000
0100
0000
,
0001
1000
0000
0010
0100
0000
0001
1000
,
0000
0001
1000
0001
1000
0000
1001
0000
,
1000
0M00
0001
0000
1000
0000
0020
0000
0000
0000
0000
0000
0130
0000
00M0
0000
,
0100
0000
0010
0000
1000
0001
1000
0000
,
0010
M000
0100
0000
0010
0000
2000
0000
0000
0000
0000
0000
3100
0000
M000
0000
,
1000
0000
0010
0000
1000
0001
1000
0000
,
0001
0000
0100
0000
0001
0000
M020
0000
0000
0000
0000
0000
0031
0000
1000
00M0
,
0001
0000
0100
0000
0001
1000
0001
0000
,
0001
M000
0100
0000
0010
0000
2000
0000
0000
0000
0000
0000
3010
0000
0000
0000
,
0010
0000
0100
0000
0002
0000
0000
0003
,
1000
0000
0010
0M00
1000
0000
0000
0000
0001
0000
0010
0000
0001
0000
0000
0000
,
1000
0000
0010
000M
0100
0000
0000
0000
0001
0000
0100
0000
0010
0000
0000
0000
,
1000
0000
0100
000M
1000
0000
0000
0000
0010
0000
0100
0000
0010
0000
0000
0000
,
1000
0000
0010
0M00
1000
0000
0001
0000
0010
0000
0001
0000
1000
0000
0000
0000
,
0010
M000
0100
000M
0010
0000
0000
0000
1000
0000
0010
0000
1000
0000
0000
0000
,
1000
0000
0100
000M
1000
0000
0000
0000
0010
0000
0100
0000
0001
0000
0000
0000
,
2000
0000
0000
0000
3000
00M0
0000
M000
0020
0000
0000
0000
0030
0000
0000
00M0
,
1000
0000
M100
000M
0010
M000
0001
M0M0
,
1000
000M
0000
1000
0001
0000
0000
0001
1000
0000
0000
1000
0010
0100
0010
0000
,
1000
0000
0000
1000
0001
0000
0000
0001
1000
0000
0000
1000
0010
0M00
0010
0000
,
1000
0000
0010
0000
0100
0001
0010
0000
,
0001
0000
0100
0000
0010
1000
0100
0000
,
1000
0000
0000
1000
0001
0000
0000
0001
1000
0000
0000
1000
0010
0100
0010
0000
,
1000
0000
0000
1000
0001
0000
0000
0001
1000
0000
0000
M000
0010
0100
0010
0000
,
1000
00M0
0001
0000
1000
0M00
0001
0000
1000
0000
0000
0000
0001
00M0
0M00
0000
,
1000
0000
0010
0M0M
1000
0000
0010
0000
1000
0000
0M0M
0000
0010
0000
0M00
0000
,
2002
0000
0000
0000
,
0000
0000
0000
0000
,
0000
0000
0000
0000
3003
M00M
0000
0000
,
1000
0000
0010
0100
0010
0000
1000
0000
,
0001
1000
0100
1000
0010
0000
1000
0000
,
0010
0000
0100
0010
0100
0000
0010
0000
,
0010
1000
0000
0001
1000
0000
0100
0000
,
1000
0000
0010
0100
0010
0000
1000
0000
,
0001
1000
0100
1000
0010
0000
1000
0000
,
0010
0100
0000
0001
0100
0000
0010
0100
,
0000
0010
1000
0001
1000
0001
1000
0001
,
1000
0000
1000
0100
1000
00M0
0001
0100
,
0010
0000
000M
0000
1000
0000
0100
0000
1000
00M0
0000
0000
0001
00M0
0100
0000
,
0001
0000
0000
0000
0010
M000
0100
0000
0010
0000
0000
M000
0001
0000
0000
0000
,
0010
0100
0010
0100
0010
M00M
0001
0000
,
1000
000M
0000
0000
0010
0000
0100
M000
0001
0000
0000
0000
1000
0000
0100
000M
,
1000
0000
0000
0000
0010
0000
0100
M000
0001
0000
0000
0000
1000
000M
0100
0000
,
1000
0000
000M
0000
0010
0000
0100
0000
0001
0000
0000
0000
1000
000M
0000
0000
,
1000
0000
0100
0000
1000
000M
0100
0000
1000
0000
0000
0000
1000
0000
00M0
0000
,
0001
0000
0000
0000
0100
0000
0010
0000
1000
0M00
0000
0000
0001
0000
0010
0M00
,
0001
0000
0000
0000
0100
0000
0010
0000
1000
0M00
0000
0000
0001
0000
0010
0000
,
0001
0000
0100
0010
1000
0M00
0001
M000
,
0010
0000
0000
0000
0010
0000
0001
0M00
0010
0000
0001
M000
0010
0000
0M00
0000
,
0001
0000
0000
0000
0100
0000
0010
000M
1000
0000
0000
0000
0001
0000
0010
0M00
,
0001
0000
0000
0000
0010
0000
0001
0M00
1000
0000
0000
0000
0001
M000
0010
0000
,
0001
0000
0000
0000
0010
0000
0001
00M0
1000
0000
0000
0000
1000
0000
0100
00M0
,
1000
0000
0001
0M00
1000
0000
0001
0000
0100
000M
0000
0000
0010
0M00
0000
0000
,
1000
0001
1000
0001
0200
00M0
0300
00MM
,
1100
0000
1100
0000
1100
0000
1100
0000
1100
0000
0100
1000
0000
0000
0010
0000
,
0011
0000
0011
0000
0011
0000
0011
0000
0011
0000
0010
0001
0000
0000
0100
0000
,
0010
0000
0000
1000
0000
0000
0010
0000
0000
0100
0000
0000
0001
0000
0000
0001
,
1000
0000
0000
0001
0000
0000
0010
0000
0000
0000
0110
0000
0110
0000
0110
0000
,
1000
0001
0100
0001
1000
0001
0100
0001
0010
0001
0000
0000
,
0001
1000
0010
1000
0001
1000
0010
1000
0100
1000
0000
0000
,
M000
0001
0M00
0001
M000
0001
0M00
0001
0000
1000
0000
0000
,
000M
1000
0M00
1000
000M
1000
0020
0M00
000M
2030
0M00
0000
,
3001
0000
0010
0M00
0001
0000
1000
0000
0001
0000
0100
0000
0001
0000
1000
0000
,
0010
0100
0010
0100
0010
1000
0001
0000
,
1000
0001
0100
0001
0100
0000
0001
1000
,
0001
0000
0000
0000
0100
0000
0000
0000
0010
0000
0000
0000
00M0
0000
0000
000M
,
1000
0010
1000
0001
1000
0100
1000
0001
,
0100
0000
0010
0000
0100
0000
0001
0000
1000
0000
0010
0000
1000
000M
0000
0000
,
1000
0001
1000
0010
1000
0001
1000
0001
,
1000
0000
0000
0000
0MM0
M000
000M
0000
0110
0000
000M
M000
000M
0MM0
0000
0M0M
,
2000
0000
0010
0000
0020
0000
3000
0030
,
0020
0000
0001
0000
0002
0000
0000
0033
,
0002
0000
0100
0000
0200
0000
0000
0303
,
0200
0000
1000
0000
2000
0000
0000
3300
,
1000
0010
1000
0001
1000
000M
1000
0000
,
0001
0100
0001
1000
0001
M000
0001
0000
,
1000
0000
0100
0000
1000
0000
0001
0000
1000
0000
0001
0000
1000
0000
0001
0M00
,
1000
0000
00M0
0000
0000
000M
0000
0M00
0010
M000
000M
0000
0M00
0000
000M
0M00
,
2010
0010
0010
3010
,
0021
0001
0001
0031
,
0102
0100
0100
0103
,
1200
0000
1000
0000
2000
0000
3300
M000
,
1000
0010
0100
0001
0100
0010
1000
0001
,
0100
0000
0010
0000
0100
M000
0001
0000
1000
0000
00M0
0000
0010
0000
0100
0000
,
0001
0000
0000
0000
0000
0000
0100
0000
0000
0000
0000
0000
0001
0000
0000
0100
0000
0000
0001
0000
M000
0000
0000
0000
,
1000
0001
102M
0M00
,
2030
3000
0002
M003
,
0200
030M
0020
0M30
,
2000
30M0
0002
M003
,
0200
030M
0020
0M30
,
1000
0001
1000
0001
,
1000
00M0
0001
00M0
,
2000
0000
3010
0000
,
0200
0000
0000
0000
0301
0000
0000
M00M
,
1000
0000
0001
0000
,
0100
0000
0010
0000
,
1000
0000
0000
0M00
0001
0000
0000
0000
,
0100
0000
0010
000M
,
1000
0001
1000
0001
,
1000
0000
0000
0000
0001
M000
0000
0000
,
0100
0010
0100
0010
,
0100
0000
00M0
0000
0010
000M
0000
0000
,
2000
0000
0000
0000
00M0
0000
0000
0000
0000
0000
0000
0000
,
3000
0000
0000
0000
0000
0000
0000
0000
0000
0000
0000
0000
0000
0000
0000
0000
0000
M000
0000
0000
M000
0000
M000
0000
0000
0000
0000
0000
0000
0000
0000
0000
0000
0000
0000
0000
0000
0000
0000
0000
0000
0000
0000
0000
0000
0000
0000
0000
0000
0000
0000
0000
0000
0000
0000
0000
0000
0000
0000
0000
0000
0000
0000
0000
;

//---------------dance-single - K. Ward----------------
#NOTES:
     dance-single:
     K. Ward:
     Easy:
     6:
     0.362,0.000,0.340,0.277,0.000,243.000,43.000,35.000,3.000,0.000,0.000:
0000
0000
0000
0000
,
0000
0000
0000
0000
,
0000
0000
0000
0000
,
0000
0000
0000
0000
,
0010
0000
0000
0000
,
0100
0000
0000
0000
,
0001
0000
0000
0000
,
1000
0100
1000
0000
,
1000
0000
0010
0000
,
1000
0000
0010
0000
,
0010
0000
1000
0000
,
0010
0000
0000
1000
0000
0000
0001
0000
,
1000
0000
0010
0000
,
0100
0000
0001
0000
,
0100
0000
0010
0000
,
1000
0001
0001
1000
,
0001
0000
1000
0000
,
0001
0000
1000
0000
,
0010
0000
1000
0000
,
0001
0000
0000
0001
0000
0000
1000
0000
,
0010
0000
0010
0000
,
0100
0000
0001
0000
,
0010
0000
0100
0000
,
0001
0100
0001
0100
,
0001
1000
0001
0000
,
0110
0000
1001
0000
,
1000
0001
1000
0000
,
1001
0000
0110
0000
,
0001
1000
0001
0000
,
0110
0000
1001
0000
,
1000
0001
1000
0000
,
1001
0000
0110
0000
,
0011
0000
1100
0000
,
0011
0000
1100
0000
,
0011
0000
1100
0000
,
0110
0000
1001
0000
,
1100
0000
0011
0000
,
1100
0000
0011
0000
,
1100
0000
0011
0000
,
1001
0000
0110
0000
,
1000
0000
0010
0000
,
1000
0000
0000
0000
0001
0000
1000
0010
,
1000
0001
0100
0010
,
1000
0001
0100
0001
,
1000
0000
0010
0000
,
1000
0000
0000
0000
0001
0000
1000
0010
,
1000
0001
0100
0010
,
1000
0000
0000
0001
0000
0000
1000
0000
,
1001
0000
0000
0000
,
0000
0000
0000
0000
,
0000
0000
0000
0000
,
1000
1000
0001
0001
,
0100
0100
0010
0010
,
0100
0010
1000
0001
,
1000
0000
0000
0010
0000
0000
1000
0000
,
0001
0001
1000
1000
,
0010
0010
1000
1000
,
0010
0000
0000
0100
0000
0000
0001
0000
,
1000
0000
0010
0010
,
1000
0000
0001
0000
,
0100
0000
0010
0000
,
0010
0000
0000
0000
1000
0000
0000
0010
,
0000
0000
00M0
0000
,
1000
0000
1000
0000
,
0010
0000
0100
0000
,
0010
0000
0000
0000
1000
0000
0000
0010
,
0000
0000
00M0
0000
,
1000
0000
0001
0000
,
0100
0000
0010
0000
,
0100
0000
0000
0000
0001
0000
0000
0100
,
0000
0000
0M00
0000
,
0001
0000
1000
0000
,
0010
0000
0100
0000
,
0010
0000
1000
0000
,
0020
0000
0000
0000
,
0000
0000
0000
0030
,
1000
1000
0100
1000
,
1000
0000
0001
0000
0010
0000
0001
1000
,
0001
0001
0100
0010
,
1000
0000
0001
0000
1000
0000
0001
1000
,
0001
0100
0010
1000
,
0100
0000
1000
0000
0001
1000
0001
1000
,
0010
1000
0010
1000
,
0001
0000
1000
0000
0010
1000
0001
0000
,
2000
0000
0000
3000
,
0020
0000
0000
0030
,
2000
0000
0000
3000
,
0200
0000
0000
0300
,
2000
0000
0000
3000
,
0002
0000
0000
0003
,
2000
0000
0000
3000
,
1001
0000
1001
0000
,
2020
0000
0000
3030
,
0022
0000
0000
0033
,
0202
0000
0000
0303
,
2200
0000
0000
0000
0000
0000
0000
3300
,
0000
0000
0110
0000
,
0000
0000
1001
0000
,
0000
0000
0110
0000
,
1001
0000
1001
0000
,
2020
0000
0000
3030
,
2200
0000
0000
3300
,
0202
0000
0000
0303
,
0022
0000
0000
0033
,
2002
0000
0000
3003
,
0220
0000
0000
0330
,
1000
0000
0100
0000
,
1000
0000
0002
0000
,
2003
0000
0000
0000
,
0000
0000
3000
0000
,
0002
0000
0000
0000
,
0000
0000
0003
0000
,
0200
0000
0000
0000
,
0000
0000
0300
0000
,
0020
0000
0000
0000
,
0000
0000
0030
0000
,
1000
0000
0000
0000
,
1000
0000
0000
0000
,
0001
0000
0000
0000
,
0001
0000
0000
0000
,
0100
0000
0000
0000
,
0010
0000
0000
0000
,
0100
0000
0000
0000
,
0100
0000
0000
0000
,
2002
0000
0000
0000
,
0000
0000
0000
0000
,
3003
0000
0000
0000
;

//---------------dance-single - K. Ward----------------
#NOTES:
     dance-single:
     K. Ward:
     Medium:
     7:
     0.492,0.000,0.332,0.253,0.008,362.000,42.000,32.000,32.000,0.000,0.000:
0000
0000
0000
0000
,
0000
0000
0000
0000
,
0000
0000
0000
0000
,
0000
0000
0000
0000
,
0010
0100
0002
0003
,
0010
0001
2000
3000
,
0001
0000
0001
0000
,
0100
0010
2000
3000
,
1000
0010
0100
0010
,
1000
0001
0100
0010
,
1000
0001
0100
0001
,
1000
0000
0000
0010
0000
0000
0100
0000
,
0001
1000
0001
0100
,
0001
0100
0010
1000
,
0001
0100
0010
0100
,
0001
0100
0010
0100
0010
0000
0000
0001
,
1000
0010
0100
0010
,
1000
0001
0100
0001
,
1000
0010
0100
0100
,
0001
0000
0000
1000
0000
0000
0001
0000
,
1000
0010
0100
0010
,
1000
0010
1000
0001
,
0100
0010
1000
0100
,
1000
0001
0010
0000
0001
0000
0000
0000
,
0001
1000
0001
0000
0001
1000
0001
0000
,
0200
0000
0000
0300
0020
0000
0000
0030
,
1000
0001
1000
0000
1000
0001
1000
0000
,
2000
0000
0000
3000
0002
0000
0000
0003
,
0001
1000
0001
0000
0001
1000
0001
0000
,
1000
0001
0100
0010
,
1000
0001
1000
0000
1000
0001
1000
0000
,
1000
0010
0100
0001
,
0101
0000
1010
0000
,
0101
0000
1010
0001
,
0110
0000
1001
0000
,
0110
0000
1001
1000
,
1010
0000
0101
0000
,
1010
0000
0101
0001
,
0110
0000
1001
0000
,
0110
0000
1001
0000
,
1000
0000
0001
0100
0010
0100
0010
0000
,
1000
0000
0001
1000
0001
1000
0001
0000
,
0110
0000
0110
0000
,
1001
0000
1001
0000
,
0010
0000
1000
0010
1000
0010
1000
0000
,
0010
0000
0100
0001
0100
0001
0100
0000
,
1001
0000
1001
0000
,
0110
0000
1001
0000
,
2002
0000
0000
0000
,
0000
0000
0000
0000
,
0000
0000
3003
0000
,
1000
0010
0100
0010
,
1000
0100
0010
0001
,
1000
0010
0100
0010
,
1000
0000
0000
0010
M000
0000
1000
0000
,
0001
0100
0010
0100
,
0001
0010
0100
1000
,
0001
0000
0000
0100
0000
0000
0100
0000
,
0001
0000
0000
0000
0110
M00M
0000
0000
,
1000
0000
0000
0000
0001
0000
0000
0001
,
0100
0000
0000
0000
0010
0000
0000
1000
,
0010
0000
0000
0000
0010
M000
0000
0110
,
0000
00M0
0000
0000
,
0001
0000
0000
0000
1000
0000
0000
1000
,
0001
0000
0000
0000
0001
0000
0000
0001
,
1000
0000
0000
0000
0010
0000
0000
0110
,
0000
0000
0000
00M0
0M00
00M0
0M00
0000
,
1000
0000
0000
0000
0001
0000
0000
0001
,
0100
0000
0000
0000
0010
0000
0000
1000
,
0010
0000
0000
0000
0010
M000
0000
0110
,
0000
00M0
0000
0000
,
0001
0000
0000
0000
1000
0000
0000
1000
,
0001
0000
0000
0000
0001
0000
0000
0001
,
1000
0000
0000
0000
0010
0000
0000
0110
,
0000
0000
0000
00M0
0M00
00M0
0M00
0000
,
1000
0010
1000
0001
,
1000
0100
1000
0000
0010
0000
1000
0000
,
0001
0010
0001
0000
1000
0000
0010
0000
,
0100
0100
0001
0000
0100
0100
0001
0000
,
0100
0100
0010
0000
0000
1000
0001
0000
,
1000
0010
0100
0001
1000
0001
0010
0000
,
0001
0100
0010
1000
0001
1000
0100
0000
,
1000
0010
0100
0001
1001
0000
1001
0000
,
1000
0100
1000
0000
0110
0000
0110
0000
,
0200
0000
0301
0000
,
0002
0000
0103
0000
,
2000
0000
3001
0000
,
0020
0000
0130
0000
,
0200
0000
0301
0000
,
2000
0000
3010
0000
,
0220
0000
0000
0330
,
1100
00MM
0011
MM00
,
0200
0001
0000
0301
,
2000
0001
0000
3001
,
0020
0000
0001
0000
0000
0000
0001
0030
,
0100
0000
11MM
0000
,
1000
0001
0000
0100
,
0001
0010
0000
0001
,
001M
0001
0000
1000
,
11MM
0000
MM11
0000
,
1000
0010
M000
1000
,
0001
0010
0000
0001
,
1000
0001
0000
0001
,
1000
000M
0100
00M0
1000
0000
0000
0000
,
2200
0000
0000
3300
,
0022
0000
0000
0033
,
1000
0001
0100
0010
,
1000
0000
0001
0000
0200
0000
0000
0300
,
0002
0000
0000
0000
0000
0000
0000
0003
,
2000
0000
0000
0000
0000
0000
0000
3000
,
0020
0000
0000
0000
0000
0000
0000
0030
,
2000
0000
0000
0000
0000
0000
0000
3000
,
0002
0000
0000
0000
0000
0000
0000
0003
,
2000
0000
0000
0000
0000
0000
0000
3000
,
0010
0000
1000
0000
,
0010
0000
0000
0000
,
1000
0000
1000
0000
,
0001
0000
0001
0000
,
0100
0000
0100
0000
,
0010
0000
0010
0000
,
1000
0000
1000
0000
,
0001
0000
0001
0000
,
1000
0000
0001
0000
,
1000
0001
1000
0000
,
0020
0000
0000
0000
,
0000
0000
0000
0000
,
0030
0000
0000
0000
0000
0000
0000
0000
0000
0000
0000
0000
0000
0000
0000
0000
0000
0000
0000
0000
0000
0000
0000
0000
00M0
00M0
00M0
0000
0000
0000
0000
0000
0000
0000
0000
0000
0000
0000
0000
0000
0000
0000
0000
0000
0000
0000
0000
0000
0000
0000
0000
0000
0000
0000
0000
0000
0000
0000
0000
0000
0000
0000
0000
0000
;

//---------------dance-single - K. Ward----------------
#NOTES:
     dance-single:
     K. Ward:
     Challenge:
     12:
     0.970,0.000,0.221,0.356,0.759,786.000,28.000,45.000,247.000,0.000,0.000:
0000
0000
0000
0000
,
0000
0000
0000
0000
,
0000
0000
0000
0000
,
0000
0000
0000
0000
,
1000
0100
0010
0001
0100
0010
1000
0001
,
0010
0001
0100
0010
1000
0010
1000
0001
,
0100
0010
1000
0010
0100
0001
0100
0010
,
1000
0000
0001
0000
0100
0000
0000
0000
0001
0000
0000
M000
0110
0000
0000
000M
,
2000
0000
3010
1000
0100
0010
0001
0100
,
0002
0000
0103
0010
1000
0100
0010
0001
,
1000
0100
M000
1000
0100
1000
0M00
0001
,
0010
0000
0000
0000
0001
0000
0000
0000
1000
0000
0000
0000
0001
0000
0000
0000
0100
0000
0000
0000
0010
0000
0000
0000
1000
0000
0000
0000
0100
M000
0000
0000
,
2000
0000
0000
0000
0000
0000
0000
0000
3010
0000
0000
0000
1000
0000
0000
0000
0100
0000
0000
0000
1000
0000
0000
0000
0001
0000
0000
0000
0010
000M
0000
0000
,
0002
0000
0103
0010
1000
0010
0100
0001
,
1000
0000
0010
0000
0000
000M
0100
0000
0010
0000
0100
0000
00M0
0000
0001
0000
,
0100
0000
0010
0000
1000
0000
0010
0000
0100
0000
0001
0000
1000
0000
0001
1000
,
0002
0000
0000
0000
0103
0000
0010
0000
1000
0000
0010
0000
1000
0000
0001
1000
,
0002
0000
0000
0000
0103
0000
0010
0000
1000
0000
0010
0000
1000
0000
0001
1000
,
0002
0000
0013
0001
0100
0001
0100
0001
,
1000
0000
0000
0000
0000
0000
0010
0000
0000
0000
0000
0000
0100
0000
0000
0000
0000
0000
0010
0000
0000
0000
0000
0000
0100
0000
0000
0000
0000
0000
0001
0000
0000
0000
0000
0000
1000
0000
0000
000M
0000
0000
0000
0000
M000
0000
0000
0000
,
0001
0000
1000
00M0
0001
0000
0100
0000
0010
0000
1000
0000
0100
0000
1000
0001
,
1000
0000
0000
0000
0000
0000
001M
0000
M000
0000
0000
0000
0100
0000
0000
0000
0000
0000
0001
0000
0000
0000
0000
0000
0010
0000
0000
0000
0000
0000
0001
0000
0000
0000
0000
0000
1000
0000
0000
0000
0000
0000
0001
0000
0000
1000
0000
0000
,
0001
0000
0000
0000
0000
0000
0100
0000
0000
0000
0000
0000
0001
0000
0000
00M0
0000
0000
0100
0000
0000
0000
0000
0000
0001
0000
0000
0000
0000
0000
0010
0000
M000
0000
0000
0000
0100
0000
0000
0000
0000
0000
1000
0000
0000
0000
0000
0000
,
0001
0000
0000
0000
0000
0000
0100
0000
0000
0000
0000
0000
0010
0000
0000
0000
0M00
0000
1000
0000
0000
00M0
0000
0000
0001
0000
0000
0000
0000
0000
0000
0000
0000
0000
0000
0000
0001
0000
0M00
0000
0000
0000
0000
0000
000M
0000
0000
0000
,
1000
0100
0001
0100
1000
0100
0001
0100
,
1000
0100
0001
0100
1000
0001
1000
0000
,
0001
0100
1000
0100
0001
0100
1000
0100
,
0001
0100
1000
0100
0000
0100
0010
0000
,
1000
0001
0100
0001
1000
0001
0100
0001
,
1000
0001
0100
0001
1000
0100
1000
0000
,
1000
0001
1000
0001
0100
0001
1000
0001
,
0100
0001
1000
0000
0110
0000
0011
0000
,
1M0M
0000
0000
0000
0000
0000
0000
0000
0000
0000
0000
0000
0000
0000
0000
0000
0000
0000
0000
0000
0000
0000
0000
0000
0100
0000
0000
0000
0000
0000
0000
0000
0000
0000
0000
0000
00M0
0000
0000
0000
0000
0000
M000
0000
0000
0000
0000
0000
0000
0000
0000
0000
0000
0000
0000
0000
0000
0000
0000
0000
0000
0000
0000
0000
000M
0000
0M00
0000
0000
0000
0000
0000
0010
0000
0000
0000
0000
0000
0000
0000
0000
0000
0000
0000
M000
0000
0000
0000
0000
0000
0000
0000
0000
0000
0000
0000
0001
0000
0000
0000
0000
0000
0000
0000
0000
0000
0000
0000
0000
0000
0000
0000
0M00
0000
0000
0000
0000
0000
0000
0000
0000
0000
0000
0000
0000
0000
0000
0000
0000
0000
0000
0000
000M
0000
0000
0000
0000
0000
0000
0000
0000
0000
0000
0000
0100
0000
0000
0000
0000
0000
0000
0000
0000
0000
0000
0000
0000
0000
0000
0000
0000
0000
0000
0000
0000
0000
0000
0000
0010
0000
0000
0000
0000
0000
0000
0000
0000
0000
0000
0000
0000
0000
0000
0000
0000
0000
M000
0000
0000
0000
0000
0000
,
0000
0000
0000
0000
0000
0000
0000
0000
0000
0000
0000
0000
0000
0000
0000
0000
0000
0000
00M0
0000
0000
0000
0000
0000
1000
0000
0000
0000
0000
0000
0000
0000
0000
0000
0000
0000
0000
0000
0000
0000
0000
0000
0000
0000
0000
0000
0000
0000
010M
0000
0000
0000
0000
0000
0000
0000
0000
0000
0000
0000
0000
0000
0000
0000
0000
0000
0000
0000
0000
0000
0000
0000
1000
0000
0000
0000
0000
0000
0000
0000
0000
0000
0000
0000
0M00
0000
0000
0000
0000
0000
0000
0000
0000
0000
0000
0000
0010
0000
0000
0000
0000
0000
0000
0000
0000
0000
0000
0000
0000
0000
0000
0000
000M
0000
0000
0000
0000
0000
0000
0000
0100
0000
0000
0000
0000
0000
0000
0000
0000
0000
0000
0000
M000
0000
0000
0000
00M0
0000
0000
0000
0000
0000
0000
0000
0001
0000
0000
0000
0000
0000
0000
0000
0000
0000
0000
0000
0000
0000
0000
0000
0M00
0000
0000
0000
0000
0000
0000
0000
0000
0000
0000
0000
0000
0000
0000
0000
000M
0000
0000
0000
0000
0000
0000
0000
0000
0000
0000
0000
0000
0000
0000
0000
,
1000
0000
0000
0000
0000
0000
0000
0000
0000
0000
0000
0000
0000
0000
0000
0000
0000
0000
0000
0000
0000
0000
0000
0000
0010
0000
0000
0000
0000
0000
0000
0000
0000
0000
0000
0000
M000
0000
0000
0000
0M00
0000
0000
0000
0000
0000
0000
0000
0000
0000
0000
0000
0000
0000
0000
0000
000M
0000
0000
0000
00M0
0000
0000
0000
0000
0000
0000
0000
0000
0000
0000
0000
0100
0000
0000
0000
0000
0000
0000
0000
0000
0000
0000
0000
M000
0000
0000
0000
0000
0000
0000
0000
0000
0000
0000
0000
0010
0000
0000
0000
0000
0000
0000
0000
0000
0000
0000
0000
0000
0000
0000
0000
000M
0000
0000
0000
0000
0000
0000
0000
0M00
0000
0000
0000
0000
0000
0000
0000
0000
00M0
0000
0000
0000
0000
0000
0000
0000
0000
0000
0000
0000
0000
0000
0000
M100
0000
0000
0000
0000
0000
0000
0000
0000
0000
0000
0000
0000
0000
0000
0000
0000
0000
0000
0000
0000
0000
0000
0000
0001
0000
0000
0000
0000
0000
0000
0000
0000
0000
0000
0000
00M0
0000
0000
0000
0000
0000
0000
0000
0000
0000
0000
0000
,
0000
0000
0000
0000
0000
0000
0000
0000
0000
000M
0000
0000
0M00
0000
0000
0000
0000
0000
0000
0000
0000
0000
0000
0000
1000
0000
0000
0000
0000
0000
0000
0000
0000
0000
0000
0000
0000
0000
0000
0000
0000
0000
0000
0000
0000
0000
0000
0000
0M10
0000
0000
0000
0000
0000
0000
0000
0000
0000
0000
0000
0000
0000
0000
0000
000M
0000
0000
0000
0000
0000
0000
0000
1000
0000
0000
0000
0000
0000
0000
0000
0000
00M0
0000
0000
0000
0000
0000
0000
0000
0000
0000
0000
0000
0000
0000
0000
0002
0000
0000
0000
0000
0000
0000
0000
M000
0000
0000
0000
0M00
0000
0000
0000
0000
0000
0000
0000
0000
0000
0000
0000
0000
0000
0000
0000
0000
0000
0000
0000
0000
0000
0000
0000
M000
0000
0000
0000
0000
0000
0000
0000
0000
0000
0000
0000
0103
0000
0000
0000
0000
0000
0000
0000
00M0
0000
0000
0000
0000
0000
0000
0000
0000
0000
0000
0000
0000
0000
0000
0000
0000
0000
0000
0000
0000
0000
0000
0000
0M00
0000
0000
0000
0000
0000
0000
0000
0000
0000
0000
0000
0000
0000
0000
0000
,
1000
0000
000M
0000
0000
0000
0010
0000
M000
0000
0000
0000
0000
0000
00M0
0000
0000
0000
0100
0000
0000
M000
0000
0000
0010
0000
0000
0000
0M00
0000
000M
0000
0000
0000
00M0
0000
0100
0000
0000
0000
0000
0000
00M1
0000
0000
0000
M000
0000
,
0000
0000
0M00
0000
0000
0000
100M
0000
0000
0000
0000
0000
0010
0000
M000
0000
0000
0000
0000
0000
00M0
0000
0000
0000
0100
0000
0000
0000
0000
0000
M001
0000
0000
00M0
0M00
0000
1000
0000
000M
0000
0000
0000
0010
0000
M000
0000
0000
0000
,
0100
0000
0000
0000
0000
0000
0000
0000
00MM
0000
0000
0000
0000
0000
0000
0000
0000
0000
0000
0000
0000
0000
0000
0000
0000
0000
0000
0000
0000
0000
0000
0000
0000
0000
0000
0000
M000
0000
0000
0000
0000
0000
0000
0000
0000
0000
0000
0000
0010
0000
0000
0000
0000
0000
0000
0000
0000
0000
0000
0000
0000
0000
0000
0000
0M00
0000
0000
0000
0000
0000
0000
0000
0000
0000
0000
0000
0000
0000
000M
0000
0000
0000
0000
0000
0000
0000
0000
0000
0000
0000
0000
0000
0000
0000
0000
0000
1000
0000
0000
0000
0000
0000
0000
0000
0M00
0000
0000
0000
0000
0000
0000
0000
0000
0000
0000
0000
0000
0000
0000
0000
0010
0000
0000
0000
0000
0000
0000
0000
0000
0000
0000
0000
M000
0000
0000
0000
000M
0000
0000
0000
0000
0000
0000
0000
0100
0000
0000
0000
0000
0000
0000
0000
0000
0000
0000
0000
0000
0000
0000
0000
0000
0000
0000
0000
0000
0000
0000
0000
0001
0000
0000
0000
0000
0000
0000
0000
0000
0000
0000
0000
00M0
0000
0000
0000
0000
0000
0000
0000
0000
0000
0000
0000
,
2000
000M
0000
0000
0000
0000
3010
0000
0000
M000
0000
0000
020M
0000
0000
0000
00M0
M000
0301
0000
0M00
0000
0000
0000
,
11MM
0011
1100
0011
1100
1100
0101
0M0M
,
0101
0000
0100
0000
0011
0000
0100
0000
0010
0100
0010
0100
0010
0000
0100
0000
,
0001
0000
0000
0010
0000
000M
0100
0000
00M0
1000
0000
0M00
0001
0000
M000
0100
0000
000M
0010
0000
0M00
1000
0000
00M0
,
0001
0000
0000
0000
M000
0000
0010
0000
0000
0000
0000
0000
0100
0000
0000
0000
000M
0000
1000
0000
0M00
0000
0000
0000
00M1
0000
0000
0000
0000
0000
1000
0000
00M0
0000
0000
0000
0M01
0000
0000
0000
0000
0000
0000
0000
M000
0M00
0000
0000
,
0011
1100
0011
1100
0011
0011
1010
M0M0
,
1010
0000
0010
0000
1100
0000
0010
0000
0100
0010
0100
0010
0100
0000
0010
0000
,
2000
0000
0000
0000
0000
0000
000M
0000
0000
0000
0000
0000
0100
0000
0000
0000
0000
0000
00M0
0000
0000
0000
0000
0000
3100
0000
0000
0000
0000
0000
0000
0000
0000
00M0
0000
0000
0002
0000
0000
0M00
M000
0000
0000
0000
0000
0000
0000
0000
,
0010
0000
0000
0M00
0000
0000
0000
0000
0000
0000
0000
0000
0013
0000
0000
0000
0000
0000
0M00
0000
0000
0000
0000
0000
2000
0000
0000
0000
000M
0000
00M0
0000
0000
0000
0000
0000
0100
0000
0000
0000
0000
0000
000M
0000
0000
0000
0000
0000
,
3200
0000
00MM
0000
0000
0000
030M
0M00
0000
0200
00M0
0000
0000
0000
0000
00MM
,
0000
0300
0000
0M00
0000
0000
00M0
0200
0000
0000
0000
0000
0000
0000
000M
0000
0000
0000
0000
0000
0000
0000
00M0
0000
0000
0000
0300
0000
0M00
0000
000M
0000
,
0000
0200
0000
0000
0000
0000
00M0
0000
0000
0000
M000
0000
0000
0000
0000
0000
000M
0000
0300
0000
0M00
0000
0000
0000
M000
0000
0000
0000
00M0
0000
0000
0000
,
1000
0000
0010
0000
0100
0000
0000
M0M0
0001
0000
0010
0000
0001
0000
0MM0
0000
,
1000
0000
0100
0000
1000
0000
0MM0
0000
0010
0000
0100
0000
0001
0000
0000
M0M0
,
0100
0010
1000
0MM0
0001
0100
0001
MM00
,
1000
0000
0010
0000
0100
00M0
0001
0M00
1000
0000
0100
0000
0020
0000
000M
0000
,
0031
0100
0010
MM00
0100
0010
1000
00MM
,
0001
0100
0001
M0M0
1000
0010
1000
0MM0
,
0010
0100
0001
MM00
1000
0100
0010
0001
,
0010
0000
0000
0M00
0000
0000
0002
0000
0000
0000
0000
0000
0203
0000
0000
0000
0000
0000
001M
0000
0000
0000
0000
M000
,
0310
0100
0010
1000
0001
0100
0010
1000
,
0010
0100
0001
0100
0001
0010
0001
0100
,
0010
1000
0001
0100
0010
0100
0010
1000
,
0002
0000
0000
0000
0000
0000
0000
0000
1000
0000
0000
0000
0000
MMM0
0000
0000
1000
0000
0000
MMM0
0000
0000
0000
0000
1000
0000
0000
0000
0000
0000
0000
0000
,
0103
0010
0100
0001
1000
0010
0100
0001
,
0100
0010
1000
0010
1000
0100
1000
0010
,
0100
0001
1000
0010
0100
0010
2000
0000
,
30M1
0000
0000
0100
0000
0000
0001
M000
0000
0100
0000
0000
0002
0000
0000
0000
0000
0000
1003
0000
0000
0000
000M
0000
,
M010
0000
0100
0000
0010
0000
1000
0000
0001
0000
0100
0000
0010
0000
1000
0100
,
1000
0000
0010
0000
0100
0000
0001
0000
0100
0000
0010
0000
0100
0000
0001
0010
,
0001
0010
0001
0100
0010
0100
0010
1000
,
0002
0000
0000
0000
0103
0000
0000
0000
0010
000M
1000
0M00
0010
000M
0000
0000
,
010M
0000
0001
0000
0100
0000
0001
0000
0010
0000
0001
0000
0100
0000
0010
1000
,
0010
0000
0100
0000
0001
0000
0100
0000
0001
0000
1000
0000
0100
0000
1000
0100
,
1000
0001
0100
0010
1000
0001
1000
0001
,
2000
0000
0000
0000
0010
0000
000M
0000
3020
0000
0000
M000
0230
0000
0000
00M0
,
0301
0000
0000
0000
0000
0000
0000
0000
0000
0M00
0000
0000
1000
0000
0000
0000
0000
0000
000M
0000
0000
0000
0000
0000
0M20
0000
0000
0000
M000
0000
000M
0000
0000
0000
0000
0000
0130
0000
0000
0000
0000
0000
0000
0000
0000
0000
0000
0000
,
0001
0000
1000
0000
0001
0000
1000
0000
0000
0000
0000
0000
0010
0000
0000
0000
0000
0000
0100
0000
0000
0000
0000
0000
0001
0000
0000
0000
0000
0000
0100
0000
0000
0001
0000
0000
0000
0000
0000
0000
0000
0000
1000
0000
0000
0000
0000
0000
,
0001
0000
1000
0000
0001
0000
1000
0000
0000
0000
0000
0000
0010
0000
0000
0000
0000
0000
0100
0000
0000
0000
0000
0000
0010
0000
0000
0000
0000
0000
1000
0000
0000
0001
0000
0000
0000
0000
0000
0000
0000
0000
1000
0000
0000
0000
0000
0000
,
0002
0000
0000
0000
0000
0000
0203
0000
0000
000M
0000
0000
0320
0000
0000
0M00
0000
0000
2030
0000
0000
00M0
0000
0000
3002
0000
0000
0000
0000
0000
1003
0000
,
0200
0000
0000
0000
0000
0000
0000
0000
000M
0000
0000
0000
0000
0000
0000
0000
0000
0000
0000
0000
0000
0000
0000
0000
0000
0000
0000
0000
0000
0000
0000
0000
0000
0000
0000
0000
0320
0000
0000
0000
0000
0000
0000
0000
0000
0000
0000
0000
0000
0000
0000
0000
0000
0000
0M00
0000
0000
0000
0000
0000
0000
0000
0000
0000
0000
0000
0000
0000
0000
0000
0000
0000
0032
0000
0000
0000
0000
0000
0000
0000
0000
0000
0000
0000
0000
0000
0000
0000
0000
0000
00M0
0000
0000
0000
0000
0000
0000
0000
0000
0000
0000
0000
0000
0000
0000
0000
0000
0000
0003
0000
0000
0000
0000
0000
0000
0000
0000
0000
0000
0000
1000
0000
0000
0000
0000
0000
0000
0000
0000
0000
0000
0000
0M00
0000
0000
0000
0000
0000
0000
0000
0000
0000
0000
0000
0001
0000
0000
0000
0000
0000
0000
0000
0000
0000
0000
0000
00M0
0000
0000
0000
0000
0000
0000
0000
0000
0000
0000
0000
1000
0000
0000
0000
0000
0000
0000
0000
0000
0000
0000
0000
0000
0000
0000
0000
0000
0000
0000
0000
0000
0000
0000
0000
,
M001
0000
0000
0000
0100
0000
0000
0000
0010
000M
0000
0000
1000
0000
0000
0000
0001
0000
M000
0000
0100
000M
0000
0000
0010
0000
0000
000M
1000
0000
0000
0000
0010
0000
0000
0000
1100
0000
0000
00M0
0000
0000
0000
0000
0000
0M00
0000
0000
,
1000
0000
0000
0000
0100
0000
000M
0000
1000
0000
0000
0000
0010
0000
0000
0000
0100
0000
M000
0000
0001
0000
0000
0000
0100
0000
0000
0000
0010
0000
0M0M
0000
1000
0000
0000
0000
1100
0000
0000
0000
0000
0000
0MM0
0000
0000
M000
0000
0000
,
0001
0000
0000
0000
0100
0000
0000
0000
0001
0000
0000
0000
010M
0000
0000
0000
0010
0000
0000
0000
0100
0000
0000
0000
0011
0000
0000
M000
0100
0000
0000
0000
0010
0000
0000
0000
110M
0000
0000
0000
0000
0000
0000
0000
MM00
00M0
0000
0000
,
0001
0000
0000
0000
M100
0000
001M
0000
0100
0000
0000
0000
0010
0000
0000
0000
1000
0000
0010
0000
1000
0M00
0000
0000
0001
0000
0000
0000
0000
0000
0M0M
0000
1000
0000
0000
0000
1001
0000
0000
0000
0000
0000
0000
0000
0000
0000
0000
0000
,
0001
1000
0100
1000
0010
0100
0001
0100
,
0010
1000
0001
0010
0100
1000
0001
0010
,
0001
0010
0100
1000
0100
0010
0001
1000
,
0100
0010
0001
0000
0010
0001
1000
0000
,
0001
1000
0100
1000
0010
0100
0001
0100
,
0010
1000
0001
0010
0100
1000
0001
0010
,
0001
0010
0001
1000
0100
1000
0001
1000
,
0100
0010
0001
0000
100M
0001
0100
0000
,
0M10
0100
0001
1000
0100
1000
0010
1000
,
0010
0100
0010
1000
0001
0100
0010
1000
,
0100
1000
0001
0100
0001
1000
0010
0100
,
0001
0000
0000
1000
0000
0000
0001
0000
0000
0000
0000
0000
1000
000M
0000
0100
0000
0000
1000
0000
0000
0000
0000
0000
,
0010
M000
0000
0100
0000
0000
0001
0000
0000
1000
0000
0000
0100
0000
0000
1000
0000
0000
0010
0000
0000
1000
0000
0000
,
0010
0100
0010
1000
0001
0100
0010
1000
,
0100
1000
0001
0100
0001
1000
0010
0100
,
0001
1000
0200
0000
1300
0001
2000
0000
,
3001
0010
0001
1000
0010
1000
0001
0100
,
0010
0100
0001
1000
0001
0100
0001
1000
,
0010
0100
0010
1000
0001
0010
0100
1000
,
0001
0100
0020
0000
1030
0010
2000
0000
,
3001
0100
0001
1000
0100
1000
0001
0100
,
0010
1000
0001
0100
0010
1000
0100
0010
,
0001
0100
0010
1000
0100
1000
0001
0010
,
0100
1000
0001
0100
0020
0000
0000
0000
,
1030
0001
1000
0001
,
1000
0001
2000
000M
,
3010
0100
0010
0100
,
0020
0000
0130
M000
,
0001
1000
0010
1000
,
0001
1000
0010
1000
,
0001
0M00
1000
0000
,
0001
0000
1001
0000
,
0001
M100
0010
010M
,
0001
M100
0001
0000
,
1000
0010
0100
0010
,
0100
0000
0000
0000
0010
0000
0000
0000
0100
0000
0000
0000
0000
0000
0000
0M00
,
0001
1000
0001
1000
,
0010
0000
0000
0000
0100
000M
0000
0000
M010
0000
0000
0000
0100
0000
0000
0000
,
0001
0000
1M00
0000
,
0010
0000
0000
0000
0000
0000
0000
0000
0000
0000
0000
0000
0000
0000
0000
0000
0100
0000
0000
0000
0000
0000
0000
0000
0000
0000
0000
0000
0000
0000
0000
0000
0010
0000
0000
0000
0000
0000
0000
0000
0000
0000
0000
0000
0000
0000
0000
0000
0000
0000
0000
0000
M00M
0000
0000
M00M
0000
0000
0000
0000
0000
0000
0000
0000
,
2002
0000
0000
0000
,
3003
0000
0000
0000
0000
0000
0000
0000
0000
0000
0000
0000
0000
0000
0000
0000
0000
0000
0000
0000
0000
0000
0000
0000
0000
0000
0000
0000
0000
0000
0000
0000
0000
0000
0000
0000
0000
0000
0000
0000
0000
0000
0000
0000
0000
0000
0000
0000
0000
0000
0000
0000
0000
0000
0000
0000
0000
0000
0000
0000
M00M
0000
0000
0000
M00M
0000
0000
0000
0000
M00M
0000
0000
0000
0000
0000
0000
0000
0000
0000
0000
0000
0000
0000
0000
0000
0000
0000
0000
0000
0000
0000
0000
0000
0000
0000
0000
0000
0000
0000
0000
0000
0000
0000
0000
0000
0000
0000
0000
0000
0000
0000
0000
0000
0000
0000
0000
0000
0000
0000
0000
0000
0000
0000
0000
0000
0000
0000
0000
0000
0000
0000
0000
0000
0000
0000
0000
0000
0000
0000
0000
0000
0000
0000
0000
0000
0000
0000
0000
0000
0000
0000
0000
0000
0000
0000
0000
0000
0000
0000
0000
0000
0000
0000
0000
0000
0000
0000
0000
0000
0000
0000
0000
0000
0000
0000
0000
0000
0000
0000
0000
0000
0000
0000
0000
0000
0000
0000
0000
0000
0000
0000
0000
;

//---------------dance-double - M. Emirzian----------------
#NOTES:
     dance-double:
     M. Emirzian:
     Easy:
     6:
     0.378,0.000,0.055,0.119,0.000,313.000,7.000,15.000,3.000,0.000,0.000:
00000000
00000000
00000000
00000000
,
00000000
00000000
00000000
00000000
,
00000000
00000000
00000000
00000000
,
00000000
00000000
00000000
00000000
,
10000000
00000000
00010000
00000000
,
01000000
00000000
00001000
00000000
,
00010000
00000000
00000100
00000000
,
00000010
00000000
00000000
00000010
00000000
00000000
0000000M
00000000
,
00000001
00000000
00000100
00000000
,
00000010
00000000
00000100
00000010
,
00000100
00000000
00001000
00000000
,
00010000
00000000
00000000
00001000
00000000
00000000
00010000
00000000
,
00001000
00000000
01000000
00000000
,
00010000
00000000
01000000
00010000
,
01000000
00000000
00100000
00000000
,
10000000
00000000
01000000
00010000
,
01000000
00000000
00010000
00000000
,
00001000
00000000
00010000
00001000
,
00010000
00000000
00000010
00000000
,
00001000
00000000
00000000
00000010
00000000
00000000
00001000
00000000
,
00000010
00000000
00000100
00000000
,
00000001
00000000
00000100
00000000
,
00000010
00001000
00000100
00010000
,
00001000
01000000
00100000
M0000000
,
10000000
00000000
01000000
00000000
,
00200000
00001000
00010000
00300000
,
00010000
00000000
01000000
00000000
,
00002000
00100000
00010000
00003000
,
00000100
00000000
00000010
00000000
,
00000002
00001000
00000100
00000003
,
00000010
00000000
00010000
00000000
,
00000200
00010000
00001000
00000300
,
00000010
00000000
00010000
00000000
,
00002000
00100000
00010000
00003000
,
00001000
00000000
01000000
00000000
,
00200000
10000000
01000000
00300000
,
00010000
00100000
00010000
00000000
,
10000000
01000000
10000000
00000000
,
10000000
01000000
00010000
00001000
,
00000010
00000001
00000200
00000000
,
00000310
00000000
00000100
00000000
00000001
00000100
00001000
00000000
,
00010000
01000000
10000000
00100000
01000000
01000000
01000000
00000000
,
00010000
10000000
00010000
01000000
,
00001000
01000000
00001000
00010000
,
00001000
00000000
00000010
00000000
00000001
00000100
00000010
00000000
,
00000100
00001000
00010000
01000000
10000000
00100000
01000000
00000000
,
00010000
10000000
01000000
00100000
,
00001000
00000000
00000000
00010000
00000000
00000000
00000100
00000000
,
00002002
00000000
00000000
00000000
,
00000000
00000000
00000000
00000000
,
00000000
00000000
00003003
00000000
,
00000000
00000000
00000100
00000000
,
00000010
00000000
00001000
00000100
,
00001000
00000000
00000100
00000000
,
00010000
00000000
00000000
00001000
00000000
00000000
00010000
00000000
,
00001000
00000000
01000000
00000000
,
00100000
00000000
10000000
00010000
,
10000000
00000000
00000000
01000000
00000000
00000000
00100000
00000000
,
00010000
00000000
01000000
00001000
,
00010000
00000000
00001000
00000000
,
00010000
00000000
00000100
00000000
,
00001000
00000000
00000000
00000000
00000010
00000000
00000000
00000101
,
00000000
00000000
00000001
00000000
,
00001000
00000000
00000200
00001000
,
00000010
00000300
00000020
00000001
,
00000100
00000000
00000030
00000000
00020000
00000000
00000000
00001000
,
00000000
00031000
01000000
00000000
,
00010000
00000000
10000000
00000000
,
01000000
00000000
00100000
00000000
,
00001000
00000000
00000000
00000000
00010000
00000000
00000000
00011000
,
00000000
00000000
00001001
00000000
,
00000010
00000000
00000100
00000000
,
00001000
00000000
00000010
00000000
,
00000100
00000000
00000000
00000000
00001000
00000000
00000000
00011000
,
00000000
00000000
10010000
00000000
,
20000000
00000000
00000000
000M0000
,
30010000
00000000
00010000
01000000
00100000
01000000
00010000
00000000
,
10000000
01000000
00100000
01000000
00010000
01000000
00100000
00010000
,
01000000
00000000
00001000
00000000
00010000
00000100
00001000
00000100
,
00010000
00000100
00000010
00000100
00001000
00000010
00000100
00000001
,
00000100
00000100
00000100
00000000
00000010
00000010
00000010
00000000
,
00001000
00001000
00001000
00000000
00000100
00000100
00000100
00000000
,
00010000
00010000
00010000
00000000
00001000
00001000
00001000
00000000
,
01000000
01000000
01000000
00000000
01000000
00100000
10000000
01000000
,
00100000
00000000
01000000
00000000
,
10000000
00000000
01000000
00000000
,
00010000
00000000
00001000
00000000
,
00000010
00000001
00000010
00000000
,
00000100
00000000
00001000
00000000
,
00000010
00000000
00000100
00000000
,
00001000
00000000
00010000
00000000
,
01000000
00000000
00000000
10000000
00000000
00000000
01000000
00000000
,
00100000
00000000
00010000
00000000
,
01000000
00001000
01000000
00000000
,
00001000
00010000
00001000
00000000
,
00010000
00000100
00010000
00000000
,
00000010
00001000
00000010
00000000
,
00000100
00000001
00000100
00000000
,
00000010
00001000
00000100
00000010
,
00000100
00000000
00000000
00010000
00000000
00000000
00001000
00000000
,
01000000
00000000
00100000
00000000
,
10000000
00000000
01000000
00000000
,
00010000
00000000
00001000
00000000
,
00000010
00000000
00000001
00000000
,
00000100
00000000
00000010
00000000
,
00000100
00000000
00001000
00000000
,
00010000
00100000
10000000
01000000
,
00010000
00001000
00010000
00000100
,
00000010
00000000
00000000
00000000
,
00000001
00000000
00000000
00000000
,
00000000
00000000
00000000
00000000
,
00001000
00000000
00000000
00000000
,
00000000
00000000
00000000
00000000
,
00000100
00000000
00000000
00000000
,
00000000
00000000
00000000
00000000
,
00010000
00000000
00000000
00000000
,
00000000
00000000
00000000
00000000
,
00001000
00000000
00000000
00000000
,
00000000
00000000
00000000
00000000
,
01000000
00000000
00000000
00000000
,
00000000
00000000
00000000
00000000
,
00010000
00000000
00000000
00000000
,
00000000
00000000
00000000
00000000
,
10000000
00000000
00000000
00000000
,
20020000
00000000
00000000
00000000
,
00000000
00000000
00000000
00000000
,
00000000
00000000
00000000
00000000
,
30030000
00000000
00000000
00000000
;

//---------------dance-double - M. Emirzian----------------
#NOTES:
     dance-double:
     M. Emirzian:
     Medium:
     9:
     0.580,0.000,0.182,0.055,0.040,484.000,23.000,7.000,8.000,0.000,0.000:
00000000
00000000
00000000
00000000
,
00000000
00000000
00000000
00000000
,
00000000
00000000
00000000
00000000
,
00000000
00000000
00000000
00000000
,
10000000
10000000
00020000
0M000000
,
01000000
01030000
00002000
000M0000
,
00010000
00000000
00013000
00000000
00000010
00000000
00000000
0000M0M0
,
00001010
00000000
00000000
00010010
00000000
00000000
0000M000
00000000
,
00001000
00000100
00010000
00000100
,
00001000
00000010
00001000
00000100
,
00000001
00000100
00001000
00000010
,
00010000
00001000
01000000
00000000
01010000
00000000
00000000
00000000
,
00010000
00100000
00001000
00100000
,
00010000
01000000
00010000
00100000
,
10000000
00100000
00010000
01000000
,
00001000
00010000
00000010
00000000
00001010
00000000
00000000
00000000
,
00001000
00000100
00000010
00000001
,
00000100
00000010
00010000
00000100
,
00001000
00000100
00010000
00001000
,
01000000
00010000
10000000
00000000
00110000
00000000
00000000
00000000
,
00010000
00100000
01000000
10000000
,
00100000
01000000
00001000
00100000
,
00010000
00100000
00001000
00010000
,
00000010
00001000
00000001
00000000
00001100
00000000
000000M0
00000000
,
00000010
00000001
00001000
00000100
,
00010000
00000010
00010000
00001000
,
00010000
00001000
01000000
00000000
01000000
00100000
10000000
00000000
,
01000000
00100000
10010000
0M000000
,
01000000
00100000
01000000
00001000
,
00010000
00001000
00100000
00001000
,
00010000
00000010
00000100
00000000
00000100
00000001
00001000
00000000
,
00000100
00000100
00001001
00000000
,
00000010
00000100
00010000
00000100
,
00001000
00000010
00010000
00001000
,
00010000
00100000
01000000
00000000
01000000
00010000
10000000
00000000
,
00100000
00100000
00110000
00000000
,
00010000
00100000
01000000
00001000
,
00100000
00001000
00010000
00000010
,
00001000
00000100
00000010
00000000
00000010
00000001
00001000
00000000
,
00000100
00000100
00001001
00000110
,
00000100
00000000
00001001
00000000
00000100
00001000
00010000
00000000
,
00001000
00100000
00001000
00010000
01000000
00100000
00010000
00000000
,
10000000
01000000
00010000
01000000
,
00010000
00001000
00000010
00000001
,
00000100
00000000
00001001
00000000
00000010
00000100
00010000
00000000
,
00000100
00010000
00001000
01000000
00100000
00010000
00001000
00000000
,
00100000
01000000
10000000
00100000
,
00010000
00100000
00010000
00001000
,
00002002
00000000
00000000
00000000
,
00000000
00000000
00000000
00000000
,
00000000
00000000
00003003
00000000
,
00000M00
00000100
00000010
00000001
,
00000100
00000010
00000100
00000001
,
00000100
00000010
00010000
00000010
,
00001000
00000010
00000100
00000010
,
00010000
00000100
00001000
00000100
,
00010000
00001000
01000000
00100000
,
01000000
00001000
01000000
00010000
,
01000000
00100000
10010000
00000000
,
10000000
00000000
01000000
00100000
01000000
00000000
00100000
00000000
,
00001000
00010000
00001000
00000000
00000100
00000000
00000100
00000000
,
00000001
00000000
00001000
00000001
00001000
00000000
00000010
00000000
,
00000100
00000001
00001000
00000000
00001100
00000000
00000000
00000000
,
00000010
00000000
00000100
00000001
00000100
00000000
00001000
00000000
,
00010000
00000100
00010000
00000000
00001000
00000000
00001000
00000000
,
00100000
00000000
00010000
01000000
00010000
00000000
10000000
00000000
,
01000000
00100000
00010000
00000000
01010000
00000000
00000000
00000000
,
00100000
00000000
10000000
00010000
10000000
00000000
01000000
00000000
,
00100000
00001000
00100000
00000000
00010000
00000000
00010000
00000000
,
01000000
00000000
00001000
00010000
00001000
00000000
00000010
00000000
,
00000001
00000100
00000010
00000000
00001100
00000000
00000000
00000000
,
00000010
00000000
00000001
00000000
00001000
00000001
00001000
00000000
,
00000010
00000000
00000010
00000000
00000100
00001000
00000100
00000000
,
00001000
00000000
00010000
00000000
00001000
01000000
00010000
00000000
,
00010000
01000000
00100000
00000000
00100000
10000000
01000000
00100000
,
00020000
00000000
00000000
00000000
,
01030000
00001000
00010000
00001000
00100000
00001000
00010000
00000010
,
00000100
00000010
00010000
00000010
00001000
00000100
00000010
00000001
,
00001000
00000010
00010000
00001000
01000000
00010000
01000000
00001000
,
01000000
00100000
10000000
01000000
00100000
00100000
00100000
00000000
,
00010000
01000000
00010000
01000000
00000000
00000000
00001000
00010000
00001000
00010000
00000000
00000000
,
00000010
00001000
00000010
00001000
00000001
00001000
00000001
00000100
00000010
00001000
00000000
00000000
,
00000100
00000010
00000001
00000100
00000010
00010000
00000010
00001000
,
00000100
00010000
00001000
00010000
00001000
00001000
00001000
00000000
,
00010000
01000000
10000000
00100000
,
01000000
00001000
01000000
00010000
,
10000000
01000000
00010000
00001000
,
00010000
00000010
00001000
00000000
00000101
00000000
00000000
00000000
,
00000100
00000010
00000100
00001000
,
00010000
00000100
00010000
00001000
,
00100000
01000000
00010000
00001000
,
01000000
00100000
10000000
00000000
11000000
00000000
00000000
00000000
,
00100000
01000000
00010000
01000000
,
00001000
00010000
00000010
00010000
,
00000100
00001000
00000010
00000100
,
00000001
00001000
00000100
00000000
00001001
00000000
00000000
00000000
,
00000010
00000001
00000100
00000010
,
00001000
00000100
00000010
00001000
,
00010000
00100000
01000000
00001000
,
01000000
00010000
10000000
00000000
00100000
10000000
00010000
00000000
,
10010000
01000000
00010000
00001000
,
00000010
00000000
00000001
00000000
00000100
00000010
00000100
00000000
,
00000001
00000000
00000010
00000000
00000100
00001000
00000100
00000000
,
00010000
00000000
00001000
00000000
00010000
00001000
01000000
00000000
,
00100000
00000000
10000000
00000000
00100000
01000000
00001000
00000000
,
00010000
00000000
00001000
00000000
00100000
00001000
00010000
00000000
,
00000100
00001000
00000001
00000000
00000010
00000100
00001000
00000000
,
00000010
00000000
00000100
00000000
00000001
00000100
00000010
00001000
,
00000001
00000000
00000000
00000000
,
00000100
00000000
00000000
00000000
,
00000100
00000000
00000000
00000000
,
00000001
00000000
00000000
00000000
,
00001000
00000000
00000000
00000000
,
00000100
00000000
00000000
00000000
,
00010000
00000000
00000000
00000000
,
00001000
00000000
00000000
00000000
,
01000000
00000000
00000000
00000000
,
00100000
00000000
00000000
00000000
,
10000000
00000000
00000000
00000000
,
00010000
00000000
00000000
00000000
,
00100000
00000000
00000000
00000000
,
00001000
00000000
00000000
00000000
,
00000100
00000000
00000000
00000000
,
00000001
00000000
00001000
00000000
,
00002002
00000000
00000000
00000000
,
00000000
00000000
00000000
00000000
,
00000000
00000000
00000000
00000000
,
00003003
00000000
00000000
00000000
;

//---------------dance-double - M. Emirzian----------------
#NOTES:
     dance-double:
     M. Emirzian:
     Hard:
     10:
     0.764,0.000,0.506,0.040,0.134,608.000,64.000,5.000,46.000,0.000,0.000:
00000000
00000000
00000000
00000000
,
00000000
00000000
00000000
00000000
,
00000000
00000000
00000000
00000000
,
00000000
00000000
00000000
00000000
,
10000000
00010000
10000000
000M0000
00010000
01000000
00010000
00000000
,
00100000
00001000
00100000
0000M000
00001000
00000000
00010000
00000000
,
000M0010
00010000
00000010
00000000
00001000
00000100
00001000
00000000
,
0000M001
00000100
00000010
00001000
00000100
00000010
00000001
00000000
,
00000100
00000000
00000010
00001000
00000100
00000000
00000010
00000100
,
00010000
00000000
00000100
00010000
00001000
00000000
01000000
00010000
,
00100000
01100000
00101000
01100000
,
00010000
00000000
MM000000
11000000
00000000
00000000
10010000
00000000
,
01000000
00000000
00010000
00100000
01000000
00000000
10000000
00010000
,
00100000
00000000
01000000
00010000
00001000
00000000
00010000
00000010
,
00001000
00000110
00010010
00000110
,
00000100
00000001
00000010
00000100
00001000
00000000
00000000
00000001
,
00000100
00000000
00000010
00010000
00001000
00000000
00010000
00000100
,
00001000
00000000
00000010
00000100
00001000
00000000
00010000
00001000
,
00100000
01001000
01100000
01001000
,
00100000
00000000
M00M0000
10010000
00000000
00000000
01100000
00000000
,
01000000
00000000
10000000
00010000
00100000
00000000
01000000
00010000
,
00001000
00000000
00010000
00000100
00001000
00000000
00000010
00010000
,
00001000
00010100
00000110
00010100
,
00000100
00000010
00000001
00000010
00000100
00001000
00000001
00000000
,
00000100
00000010
00010000
00000000
00000100
00000000
00001010
00000000
,
00010010
00010000
00001000
00000100
,
00001000
00010000
00000100
00000000
00010000
00000000
00011000
00000000
,
01001000
00000000
0MM00000
01100000
00000000
00000000
01001000
00000000
,
01000000
00010000
00100000
00000000
01000000
00000000
11000000
00000000
,
10010000
01000000
00100000
10000000
,
00010000
00100000
01000000
00000000
00100000
00000000
00101000
00000000
,
00011000
00000000
00000MM0
00000110
00000000
00000000
00001001
00000000
,
00000010
00001000
00000100
00000000
00000010
00000000
00000110
00000000
,
00010010
00010000
00001000
00000100
,
00001000
00010000
00000010
00000000
00010000
00000000
00011000
00000000
,
00101000
00000000
0MM00000
01100000
00000000
00000000
00101000
00000000
,
00100000
01000000
10000000
00000000
00100000
00000000
01010000
00000000
,
10010000
00100000
00001000
00010000
,
00000010
00001000
00000100
00000000
00000010
00000000
00001001
00000000
,
00000010
00000000
00001000
00000000
00000100
00000000
00000010
00000000
00000001
00000000
00000000
00000000
00001001
00000000
00000000
0000M00M
,
00000010
00000000
00000100
00001000
00000001
00001000
00000010
00000000
00000100
00000000
00000001
00000000
00001001
00000000
00000000
00000000
,
00000010
00000000
00000100
00001000
00000010
00010000
00001000
00000000
01000000
00000000
00010000
00000000
00100000
00000000
10010000
00000000
,
01000000
00000000
00100000
00010000
01000000
00000000
00100000
10000000
,
00010000
00000000
00100000
00001000
00010000
00000010
00000100
00000000
,
00001001
00000000
00000001
00000100
00000001
00000010
00000100
00000000
00001000
00000000
00000010
00000000
00011000
00000000
00000000
00000000
,
00000100
00000000
00010000
00001000
01000000
00001000
00010000
00000000
00100000
00000000
10000000
00000000
01000000
00000000
00110000
00000000
,
01000000
00000000
00100000
10000000
00010000
00000000
00100000
00001000
,
00010000
00000000
0MM00000
01100000
00000000
000MM000
00011000
00000000
,
00002002
00000000
00000000
00000000
,
00000000
00000000
00000000
00000000
,
00000000
00000000
00003003
0000M00M
,
00000100
00000000
00000001
00000010
00000100
00000000
00010000
00000010
,
00001000
00000000
00000100
00010000
00001000
00000000
01000000
00100000
,
10000000
00000000
00010000
01000000
00100000
00000000
10000000
00000000
,
01100000
00000000
0M00M000
01001000
00000000
00000000
01100000
00000000
,
10000000
00000000
01000000
00100000
00001000
00000000
00010000
00000010
,
00001000
00000000
00000100
00000010
00000001
00000000
00000100
00000010
,
00010000
00000000
00001000
00010000
00000100
00000000
00001000
00000000
,
00000110
00000000
00000000
00000000
00000000
00000MM0
00000000
00000000
00000000
00000000
00000000
00000000
00000000
00000000
00000000
00000000
00001001
00000000
00000000
00000000
00000000
00000000
00000000
00000000
00001100
00000000
00000000
00000000
00000000
00000000
00000000
00000000
,
00010000
00000000
00001000
01000000
00010000
00000000
00100000
00010000
,
01000000
00000000
00100000
10000000
00010000
00000000
00100000
01000000
,
10000000
00000000
00010000
01000000
00001000
00000000
00010000
00000010
,
00001000
00000100
00001001
0000M00M
,
00000010
00000000
00000100
00001000
00000010
00000000
00010000
00000100
,
00001000
00000000
00000001
00000100
00000010
00000000
00010000
00001000
,
01000000
00000000
00010000
00100000
01000000
00000000
10000000
00100000
,
01000000
00010000
01100000
0MM00000
,
10000000
00000000
00100000
01000000
00001000
00000000
01000000
00010000
,
10000000
00000000
01000000
00100000
00010000
00000000
01000000
00001000
,
00010000
00000000
00000100
00001000
00000010
00000000
00000100
00000001
,
00001000
00000100
00000011
000000MM
,
00000100
00000000
00000010
00001000
00000100
00000000
00000010
00000100
,
00001000
00000000
00000001
00000100
00001000
00000000
00010000
00000010
,
00001000
00000000
00000100
00010000
00001000
00000000
0MM00000
01100000
,
00000000
00000000
M00M0000
10010000
00000000
00000000
00M10000
00000000
,
002M0000
00000000
00000000
00000000
,
00310000
00000000
01000000
00000000
00100000
00000000
01000000
00000000
00010000
00000000
10000000
00010000
10000000
00000000
01000000
00000000
,
00100000
00000000
00010000
00000000
00100000
00000000
00001000
00000000
00010000
00000000
00000100
00001000
00000100
00000000
00000000
00000000
,
00000010
00000010
00000001
00000001
00000100
00000100
00000010
00000010
,
00010000
00010000
00001000
00001000
01000000
01000000
00100000
0M000000
,
10000000
00000000
01000000
00000000
00100000
00000000
00010000
00000000
10000000
00000000
01000000
00000000
00010000
00000000
00001000
00000000
00100000
00000000
00001000
00000000
00000000
00M00000
00000000
00000000
,
00010000
00000000
00000010
00000000
00001000
00000000
00000100
00000000
00000010
00000000
00000001
00000000
00000100
00000000
00001000
00000000
00010000
00000000
00000010
00000000
00000000
000M0000
00000000
00000000
,
00010000
00000000
00001000
00000000
01000000
00000000
00010000
00000000
00100000
00000000
01000000
00000000
10000000
00000000
00010000
00000000
00100000
00000000
00001000
00000000
00000000
00M00000
00000000
00000000
,
00010000
00000000
00000100
00000000
00001000
00000000
00000010
00000000
00000100
00000000
00000001
00000000
00000010
00000000
00000000
00000100
00000000
00000000
00000100
00000000
00000000
00001000
00000000
00000000
,
00001000
00000010
00010000
00001000
,
01000000
00000000
00100000
10000000
01000000
00000000
00100000
00000000
,
00010000
10000000
01000000
00010000
,
00001000
00010000
00100000
01000000
00001000
00000000
00000000
00010000
,
01000000
10000000
00100000
01000000
,
00001000
00000000
00010000
00001000
00000100
00000000
00000001
00000000
,
00000010
00000100
00001000
00000010
,
00000110
00000000
000M00M0
00010010
00000000
00000000
00000110
00000000
,
00000100
00000000
00001000
00000000
00010000
00000000
00001000
00010000
,
00000010
00000100
00001000
00000000
00010000
00001000
01000000
00000000
,
00010000
00100000
01000000
10000000
01000000
00000000
10000000
00000000
,
00100000
01000000
00010000
00100000
01000000
00000000
10010000
00000000
,
00010000
01000000
00001000
00101000
,
00001000
00010000
00000100
00000000
00001000
00000000
00000010
00000100
,
00000001
00000000
00000100
00000010
00001000
00000000
00000100
00000010
,
00000001
00000100
00000010
00001000
00001001
00000000
00000010
00000000
,
00010000
00000100
00010000
00001000
00100000
00000000
00010000
01000000
,
00001000
01000000
00100000
00000000
10000000
00010000
01000000
00100000
,
10000000
00000000
01000000
00100000
00010000
00000000
10000000
01000000
,
00100000
00001000
00010000
00001000
01000000
00000000
00010000
01000000
,
00001000
00000000
00010000
00000100
00001000
00000000
00000010
00000100
,
00000001
00000000
00000010
00000100
00001000
00000010
00001000
00000100
,
00010000
00000000
00000100
00001000
00000010
00000000
00010000
00001000
,
00100000
01000000
10000000
00100000
01000000
00010000
00100000
00000000
,
01000000
00000000
10000000
00000000
,
00010000
00000000
00100000
00000000
,
01000000
00000000
10000000
00000000
,
00010000
00100000
00010000
00000000
,
00100000
00001000
00010000
00000000
,
00000010
00000000
00001000
00000000
,
00000100
00001000
00000001
00000010
,
00000001
00000000
00000000
00000100
,
00000010
00000000
00000100
00000000
,
00000001
00000000
00001000
00000000
,
00000100
00000000
00010000
00000000
,
00001000
01000000
00001000
00000000
,
00100000
00000000
00010000
00000000
,
01000000
00100000
10000000
00000000
,
00010000
01000000
00001000
00010000
,
00001000
00000000
00100000
00001000
,
00022000
00000000
00000000
00000000
,
00000000
00000000
00000000
00000000
,
00000000
00000000
00000000
00000000
,
00033000
00000000
000MM000
00000000
;

//---------------dance-double - M. Emirzian----------------
#NOTES:
     dance-double:
     M. Emirzian:
     Challenge:
     12:
     0.945,0.000,0.537,0.040,0.182,764.000,68.000,5.000,58.000,0.000,0.000:
00000000
00000000
00000000
00000000
,
00000000
00000000
00000000
00000000
,
00000000
00000000
00000000
00000000
,
00000000
00000000
00000000
00000000
,
00100000
00000000
10000000
00000000
01000000
00000000
10000000
00000000
00100000
00000000
00000000
00M00000
01000000
00000000
00001000
00000000
,
00010000
00000000
00001000
00000000
01000000
00000000
00000000
0M000000
00001000
00000000
00010000
00000000
00000100
00000000
00000000
00000M00
,
00010000
00000000
00000010
00000000
00001000
00000000
00000010
00000000
00010000
00000000
00000000
000M0000
00000100
00000000
00001000
00000000
,
00000100
00000000
00000000
00000M00
00000010
00000000
00000001
00000000
00000100
00000000
00000010
00000000
00001000
00000000
00000000
00000000
,
00000100
00000010
00000001
00000100
00000010
00001000
00000100
00000010
,
00000001
00000010
00000100
00001000
00000010
00010000
00001000
01000000
,
00100000
00010000
00001000
01000000
00010000
00000000
00110000
00000000
,
01001000
00000000
0MM00000
01100000
00000000
0M00M000
01001000
00000000
,
00010000
00100000
01000000
10000000
00100000
01000000
00010000
00100000
,
00001000
00010000
00000010
00000100
00000001
00000010
00000100
00001000
,
00000001
00000010
00000100
00001000
00000010
00000100
00000001
00001000
,
00000100
00000010
00000100
00010000
00000010
00000000
00000000
00001100
,
00000100
00010000
00001000
01000000
00100000
10000000
00010000
00100000
,
00001000
00010000
00100000
01000000
00010000
00100000
01000000
10000000
,
00010000
00100000
00001000
01000000
00100000
00000000
01010000
00000000
,
00101000
00000000
0MM00000
01100000
00000000
00M0M000
00101000
00000000
,
00010000
00000010
00001000
00000100
00000010
00000001
00000100
00000010
,
00010000
00000100
00000010
00000100
00001000
00000010
00000100
00000001
,
00000010
00000100
00010000
00001000
01000000
00100000
10000000
00010000
,
00100000
00000000
01000000
00000000
10000000
00000000
00100000
00000000
01000000
00000000
M00M0000
00000000
10010000
00000000
00000000
M00M0000
,
00100000
10000000
01000000
00100000
00001000
00010000
00100000
10000000
,
01000000
00100000
00010000
10000000
01000000
00100000
00001000
00010000
,
00000100
00010000
00000010
00001000
00000100
00000010
00000001
00000000
,
00001100
00000000
000M00M0
00010010
00000000
0000MM00
00001100
00000000
,
00000010
00000001
00000100
00000010
00001000
00000100
00000010
00000001
,
00000010
00000100
00010000
00001000
00100000
00001000
00010000
00100000
,
10000000
00010000
00100000
01000000
10000000
00010000
00100000
00000000
,
00101000
00000000
0MM00000
01100000
00000000
00M0M000
00101000
00000000
,
00100000
00010000
01000000
00001000
00010000
00100000
10000000
01000000
,
00010000
01000000
00100000
00010000
00100000
00001000
00010000
00000100
,
00010000
00000010
00001000
00000001
00000100
00000010
00001000
00000000
,
00000110
00000000
000M00M0
00010010
00000000
00000MM0
00000110
00000000
,
00000100
00000001
00000010
00000100
00010000
00001000
01000000
00010000
,
00100000
00001000
00010000
01000000
00100000
00010000
00100000
01000000
,
10000000
00010000
01000000
10000000
01000000
00010000
00100000
01000000
,
00010000
00000000
00001000
00000000
01000000
00000000
00010000
00000000
00100000
00000000
00000000
00000000
10010000
00000000
00000000
M00M0000
,
00100000
00000000
10000000
01000000
00010000
01000000
10000000
00000000
00010000
00000000
01000000
00100000
10000000
00000000
01000000
00000000
,
00100000
00000000
00001000
00010000
00000010
00001000
00000100
00000000
00000010
00000000
00000001
00000100
00000010
00000000
00001001
00000000
,
00000110
00000000
00000000
00000MM0
00001000
00000000
00000001
00000000
00000010
00000000
00000100
00000000
00010000
00000000
00001000
00000000
,
00010000
00000100
00010000
00001000
00100000
00010000
10010000
00000000
,
00010000
00000000
01000000
10000000
01000000
00010000
00100000
00000000
01000000
00000000
10000000
00010000
00100000
00000000
01000000
00000000
,
00010000
00000000
00001000
00010000
00000010
00010000
00001000
00000000
00000100
00000000
00000001
00000010
00000100
00000000
00001001
00000000
,
00000110
00000000
00000000
00000MM0
00001000
00000000
00000010
00000000
00010000
00000000
00001000
00000000
01000000
00000000
00000000
00000000
,
10010000
00000000
0MM00000
01100000
00000000
000MM000
00011000
00000000
,
00002002
00000000
00000000
00000000
,
00000000
00000000
00000000
00000000
,
00000000
00000000
00003003
0000M00M
,
00001010
00000000
00001001
00000000
00000100
00000010
00000001
00000100
,
00000010
00010000
00000010
00001000
00000100
00000010
00000001
00000010
,
00000100
00010000
00001000
01000000
00001000
00100000
00010000
00000000
,
01100000
00000000
0M00M000
01001000
00000000
0MM00000
01100000
00000000
,
00010000
00001000
00100000
00010000
00100000
01000000
00100000
00001000
,
01000000
00100000
10000000
00010000
00100000
00010000
01000000
00001000
,
00010000
00001000
00000100
00000001
00001000
00000010
00000100
00000001
,
00000101
00001001
00001100
00010100
,
00001010
00000000
00000100
00000001
00000100
00000010
00001000
00000000
,
00010100
00000000
00010000
00001000
01000000
00010000
00100000
00000000
,
11000000
00000000
00100000
10000000
00010000
00100000
00001000
00000000
,
01010000
00000000
00100000
00001000
00010000
00000000
00101000
00000000
,
01100000
00000000
01000000
10000000
00100000
01000000
00010000
10000000
,
00010000
00100000
00001000
00010000
00000010
00001000
00000100
00000010
,
00000001
00000100
00000010
00010000
00001000
00010000
00000010
00000000
,
00001001
00000000
00000100
00010000
00001000
00000000
00010100
00000000
,
00001010
00000000
00000100
00010000
00001000
01000000
00100000
00000000
,
10010000
00000000
00100000
01000000
00100000
00001000
00010000
00000000
,
00001001
00000000
00000010
00000100
00000001
00000010
00000100
00000000
,
00010100
00000000
00001000
00000010
00001000
00000100
00010000
00000000
,
00011000
00000000
01000000
00010000
00100000
01000000
10000000
00010000
,
01000000
00001000
00100000
01000000
00100000
00010000
01000000
00001000
,
00010000
00000010
00010000
00001000
00010000
00000100
00001000
00000010
,
00000100
00000001
00000100
00001000
00000100
00000001
00001000
00000000
,
00001002
00000000
0000M000
00000000
0000M000
00000000
0000M000
000000M0
,
00000013
00000000
00000100
00000000
00001000
00000000
00000010
00000000
00010000
00000000
00000100
00001000
00000010
00000000
00010000
00000000
,
00001000
01000000
00100000
00000000
01000000
00000000
00010000
00000000
10000000
00000000
00010000
01000000
00100000
00000000
10000000
00000000
,
01000000
01000000
00100000
00100000
00010000
00010000
01000000
01000000
,
00001000
00001000
00000010
00000010
00000001
00000001
00001001
00000110
,
00001000
00000000
00000100
00000000
00000010
00000000
00000001
00000000
00001000
00000000
00000010
00000000
00010000
00000000
00001000
00000000
01001000
00000000
01100000
00000000
00000000
0MM00000
00000000
00000000
,
10000000
00000000
01000000
00000000
00100000
00000000
00001000
00000000
00010000
00000000
01000000
00000000
00010000
00000000
00000010
00000000
00001010
00000000
00001100
00000000
00000000
0000MM00
00000000
00000000
,
00000010
00000000
00000001
00000000
00000100
00000000
00000010
00000000
00010000
00000000
00001000
00000000
00000100
00000000
00000010
00000000
00010010
00000000
00011000
00000000
00000000
000MM000
00000000
00000000
,
00010000
00000000
00100000
00000000
10000000
00000000
01000000
00000000
00100000
00000000
00001000
00000000
00000010
00000000
00000000
00000001
00000000
00000000
00001100
00000000
00000000
00001001
00000000
00000000
,
00000101
00000000
00001001
00000000
00000110
00000000
00000100
00001000
,
00000010
00000100
00000001
00000010
00000100
00001000
00000010
00010000
,
00000100
00010000
00001000
01000000
00001000
00010000
00001000
00100000
,
00010000
01000000
00100000
10000000
00010000
00100000
01000000
10000000
,
00010000
00000000
01000000
00100000
10000000
01000000
00100000
00010000
,
01000000
00001000
00010000
00000100
00010000
00001000
00100000
00010000
,
01000000
00001000
00010000
00001000
00000100
00000000
00000001
00000010
,
00000100
00001000
00000010
00000100
00000001
00000100
00000010
00000000
,
00001000
00000100
00000010
00000001
00000100
00000000
00000010
00010000
,
00001000
00100000
00001000
00010000
01000000
00000000
10000000
00010000
,
01000000
00100000
10000000
01000000
00100000
00010000
01000000
00001000
,
00100000
00010000
01000000
00100000
10000000
00000000
00100000
10000000
,
01000000
00100000
00001000
00000000
00100000
00001000
00010000
00000010
,
00001000
00000000
00000010
00001000
00000100
00000010
00000001
00000000
,
00000100
00000010
00010000
00000000
00000010
00001000
00000100
00000000
,
00010000
00001000
00010000
01000000
10000000
00010000
10000000
00100000
,
10000000
01000000
00100000
00010000
01000000
00000000
00001000
00100000
,
00001000
00010000
00001000
00000000
01000000
00010000
00100000
00000000
,
00001000
00010000
00000010
00000000
00000100
00000010
00001000
00000000
,
00000100
00001000
00000100
00000010
00000001
00000100
00000010
00010000
,
00001000
00000010
00000100
00001000
00000001
00000100
00000001
00000100
,
00000010
00001000
00000100
00000000
00010000
00000010
00010000
00001000
,
00010000
01000000
10000000
00100000
01000000
00010000
01000000
00100000
,
10000000
00010000
00100000
01000000
00100000
00001000
00010000
00000000
,
00000100
00000010
00000001
00000000
,
00000100
00000010
00010000
00000000
,
00001000
00010000
00100000
00000000
,
10000000
00100000
01000000
00000000
,
00001000
00010000
00000010
00000000
,
00000100
00000001
00000010
00000000
,
00000100
00001000
00000001
00000100
,
00001000
00000000
00000M00
00010000
,
00001000
01000000
00100000
00000000
,
10000000
00010000
00100000
00000000
,
01000000
10000000
00100000
00000000
,
01010000
00000000
01001000
00000000
,
00010000
00000100
00001000
00000000
,
00000001
00000010
00000100
00000000
,
00001000
00000001
00000100
00000010
,
00010000
00000000
00001000
01000000
,
00022000
00000000
00000000
00000000
,
00000000
00000000
00000000
00000000
,
00000000
00000000
00000000
00000000
,
00033000
00000000
000MM000
00000000
;

//---------------lights-cabinet - ----------------
#NOTES:
     lights-cabinet:
     :
     Easy:
     1:
     1.000,0.000,1.000,0.190,0.095,540.000,443.000,24.000,0.000,337.000,0.000:
00000000
00000000
00000000
00000000
,
00000000
00000000
00000000
00000000
,
00000000
00000000
00000000
00000000
,
00000000
00000000
00000000
00000000
,
00100011
01000000
10010000
00000000
,
00100011
00010000
10010000
00000000
,
01100011
00000000
10010000
00000000
,
01000011
00000000
00100000
00000011
10000000
00000000
00000000
00000000
,
10000011
00100011
01000011
00100011
,
10000011
00010011
01000011
00100011
,
10000011
00010011
01000011
00010011
,
10000011
00010000
10000000
00010011
10000000
00000000
00000011
00000000
,
00010011
10000011
00010011
01000011
,
00010011
01000011
00100011
10000011
,
00010011
01000011
00100011
01000011
,
00010010
01000001
00100010
01000001
00100010
00000000
00000000
00010001
,
10000010
00100011
01000011
00100011
,
10000011
00010011
01000011
00010011
,
10000011
00100011
01000011
01000011
,
00010011
10000000
00010000
10000011
00010000
00000000
00000011
00000000
,
10000011
00100011
01000011
00100011
,
10000011
00100011
10000011
00010011
,
01000011
00100011
10000011
01000011
,
10000001
00010010
00100001
00000000
00010010
00000001
00000010
00000000
,
00010011
10000000
00010011
00000000
00010011
10000000
00010000
00000000
,
01100011
10010000
01100011
00000000
,
10000011
00010000
10000011
00000000
10000011
00010000
10000000
00000000
,
10010011
00000000
01100000
00000011
10010000
00000000
00000011
00000000
,
00010011
10000000
00010011
00000000
00010011
10000000
00010000
00000000
,
10000011
00010000
01000011
00100000
,
10000011
00010000
10000011
00000000
10000011
00010000
10000000
00000000
,
10000011
01100000
10010011
00000000
,
01010011
10100011
10100011
01010000
,
01010011
10100011
10100011
10010000
,
01100011
10010011
01100011
10010011
,
01100011
00000000
00000000
10010011
00000000
00000000
11000011
00000000
,
01010011
10100011
01010011
10100000
,
01010011
10100011
01010011
10000000
,
01100011
10010011
01100011
10010011
,
10010010
01100001
10010010
01100001
10010010
00000000
00000000
01100001
,
10011011
01001000
00100100
00010000
10001011
01001000
00100100
10010000
,
00101011
01001000
00100100
00010000
01101111
00010000
10001111
01100011
,
01100011
10010011
01100011
11000011
,
10010011
01100011
10010011
01010011
,
00100111
10000100
00011000
01000000
00100111
01000100
00011000
01000000
,
00010111
10000100
00101000
01000000
00101111
10010000
01101111
10010011
,
01100011
10000011
10010011
00100011
,
01100011
00000000
10000000
00000011
10010000
00000000
01100011
00000000
,
20020022
00000000
00000000
00000000
,
30030033
00000000
00001000
00000100
,
00001000
00000000
00000000
00000000
00000000
00000000
00000000
00000000
00000100
00000000
00000000
00000000
00000000
00000000
00000000
00002200
00000000
00000000
22220000
00000000
00000000
00000000
00000000
00000000
33330000
00000000
00000000
00000000
00000000
00000000
00000000
00000000
,
11113311
00100011
01000011
00100011
,
10000011
01000011
00100011
10010011
,
10000011
01100011
01000011
10100011
,
10010011
00000000
00000000
01100011
00000000
00000000
10010011
00000000
,
01010011
01100011
10100011
01100011
,
10010011
01100011
01100011
10010011
,
10010011
00000000
00000000
01100011
00000000
00000000
01100011
00000000
,
10010011
00000000
01100011
01100011
,
10000011
00010000
10000011
00010000
,
10000011
00010000
10010011
01100000
,
10010011
00000000
00000000
00000000
01100011
00000000
00000000
01100011
,
00000000
00000000
00000000
00000000
,
00010011
00000000
10000000
00000000
00010011
00000000
10000000
00000011
,
00010011
00000000
10000000
00000000
00010011
00000000
10000000
00000011
,
00010011
00000000
00000000
00000000
01100011
00000000
00000000
10010011
,
00000000
00000000
00000000
00000000
,
10000011
00000000
00100000
00000000
01000011
00000000
00010000
00000011
,
00100011
00000000
00010000
00000000
01000011
00000000
00100000
00000011
,
10000011
00000000
01000000
00000000
10000011
00000000
10010000
01100011
,
00000000
00000000
00000000
00000000
,
00010011
00000000
01000000
00000000
00100011
00000000
01000000
00000011
,
00100011
00000000
10000000
00000000
00010011
00000000
01000000
00000011
,
10010011
00000000
00000000
00000000
01100011
00000000
00000000
10010011
,
00000000
00000000
00000000
00000011
10010000
00000011
00000000
00000000
,
01100011
00000000
00010000
00000011
01000000
00000011
20020000
00000000
,
30131011
00000100
01001011
00000100
00101011
00000100
10001011
00000000
,
00010111
00101000
00010111
00001000
10000111
00001000
00100111
00000011
,
01001011
01000100
00011011
00000100
10001011
10000100
00011011
00000000
,
01000111
01001000
00100111
01101000
00000111
10011000
10010111
00000011
,
10001011
01000100
00101000
00010111
10001000
00100100
01001011
00010100
10001000
00100111
00000000
00000000
,
10001011
00000000
00010100
00000000
01001000
00000000
00100111
00000000
10001000
00000000
00010100
00000000
01001011
00000000
00100100
00000011
10001000
00000000
00010111
00000000
00000000
00000000
00000000
00000000
,
10001011
00100100
01001000
00010111
10001000
00100100
01001011
00010100
10001000
00100111
00000000
00000000
,
10001011
00010100
01001000
00100100
10000000
00010000
01101111
00000000
00000000
01101111
00000000
00000000
,
00010011
00100011
10000011
01000011
,
00010011
00100011
01000011
01000011
,
10000011
00100011
00010011
10000011
,
00100011
00010011
10000011
01100011
10010011
00000000
00000000
00000011
,
01000011
10000011
00010011
00100011
,
10000011
01000011
00010011
00100011
,
00010011
01000011
00100011
10000011
,
11000011
00000000
00000000
00000011
00110000
00000000
00000011
00000000
,
01000011
00010011
01000011
00010011
,
10000011
01010011
00100011
00010011
,
10000011
00100011
01000011
00010011
,
11000011
00000011
00000011
00110011
00000011
00000000
11110000
00000011
,
10000011
00010011
01000011
00010011
,
10000011
00010011
10000011
00010011
,
01000011
00100011
10000011
00010011
,
11000011
00000000
00000000
00000011
00110000
00000000
00000011
00000000
,
10000011
00100011
01000011
00010011
,
00100011
00010011
01000011
00100011
,
10000011
00010011
01000011
00010011
,
10000001
00000010
01000001
00000010
10000001
00000000
00000000
00000001
,
11000010
11000011
00110011
00110011
,
10010011
01100011
10010011
01100011
,
11000011
00110011
11001011
01100111
,
10011011
00000000
01100111
00000000
02201022
00000100
00001033
00000100
,
13311011
00100000
01000011
00010000
,
10000011
00100000
01000011
01000000
,
00100011
10000000
00010011
00100000
,
10000011
00010000
01000011
00100000
,
00010011
10000000
00100011
01000000
,
10000011
00010000
01000011
00010000
,
00100010
01000001
10000010
00010001
,
00100010
10000000
00100000
01000001
,
10000010
00010000
10000011
00100000
,
00010011
10000000
00010011
00100000
,
01000011
10000000
01000011
00010000
,
00100011
01000000
00100011
00010000
,
10000011
01000000
10000011
00100000
,
00010011
10000000
00010011
01000000
,
10000011
00100000
00000011
10010000
,
01100011
10010000
01100011
00000000
,
22222222
00000000
00000000
00000000
,
00000000
00000000
00000000
00000000
,
33333333
00000000
00000000
00000000
;

//---------------dance-single - M. Puls----------------
#NOTES:
     dance-single:
     M. Puls:
     Beginner:
     1:
     0.072,0.000,0.032,0.000,0.000,60.000,4.000,0.000,0.000,0.000,0.000:
0000
0000
0000
0000
,
0000
0000
0000
0000
,
0000
0000
0000
0000
,
0000
0000
0000
0000
,
1000
0000
0000
0000
,
0000
0000
0000
0000
,
0000
0000
0000
0000
,
1000
0000
0000
0000
,
0001
0000
0000
0000
,
0000
0000
0000
0000
,
0000
0000
0000
0000
,
0000
0000
0000
0000
,
0001
0000
0000
0000
,
0000
0000
0000
0000
,
1000
0000
0000
0000
,
0000
0000
0000
0000
,
1000
0000
0000
0000
,
0000
0000
0000
0000
,
1000
0000
0000
0000
,
0000
0000
0000
0000
,
0001
0000
0000
0000
,
0000
0000
0000
0000
,
0001
0000
0000
0000
,
0000
0000
0000
0000
,
0001
0000
0000
0000
,
0000
0000
0000
0000
,
0010
0000
0000
0000
,
0000
0000
0000
0000
,
0100
0000
0000
0000
,
0000
0000
0000
0000
,
0010
0000
0000
0000
,
0100
0000
0000
0000
,
0001
0000
0000
0000
,
0000
0000
0000
0000
,
1000
0000
0000
0000
,
0000
0000
0000
0000
,
0001
0000
0000
0000
,
0000
0000
0000
0000
,
1000
0000
0000
0000
,
0001
0000
0000
0000
,
0100
0000
0000
0000
,
0100
0000
0000
0000
,
0010
0000
0000
0000
,
0000
0000
0000
0000
,
0100
0000
0000
0000
,
0010
0000
0000
0000
,
0100
0000
0000
0000
,
0000
0000
0000
0000
,
1001
0000
0000
0000
,
0000
0000
0000
0000
,
0000
0000
0000
0000
,
0000
0000
0000
0000
,
1000
0000
0000
0000
,
0100
0000
0000
0000
,
1000
0000
0000
0000
,
0001
0000
0000
0000
,
0010
0000
0000
0000
,
0001
0000
0000
0000
,
0000
0000
0000
0000
,
1000
0000
0000
0000
,
0000
0000
0000
0000
,
0100
0000
0000
0000
,
0000
0000
0000
0000
,
1000
0000
0000
0000
,
0100
0000
0000
0000
,
1000
0000
0000
0000
,
0000
0000
0000
0000
,
0001
0000
0000
0000
,
0000
0000
0000
0000
,
0010
0000
0000
0000
,
0000
0000
0000
0000
,
0001
0000
0000
0000
,
0010
0000
0000
0000
,
0001
0000
0000
0000
,
0000
0000
0000
0000
,
0000
0000
0000
0000
,
1000
0000
0000
0000
,
1000
0000
0000
0000
,
1000
0000
0000
0000
,
0001
0000
0000
0000
,
0001
0000
0000
0000
,
0001
0000
0000
0000
,
0100
0000
0000
0000
,
0010
0000
0000
0000
,
0100
0000
0000
0000
,
0000
0000
0000
0000
,
0000
0000
0000
0000
,
0000
0000
0000
0000
,
1000
0000
0000
0000
,
0000
0000
0000
0000
,
0000
0000
0000
0000
,
0000
0000
0000
0000
,
0001
0000
0000
0000
,
0000
0000
0000
0000
,
0000
0000
0000
0000
,
0000
0000
0000
0000
,
0100
0000
0000
0000
,
0000
0000
0000
0000
,
0000
0000
0000
0000
,
0010
0000
0000
0000
,
0000
0000
0000
0000
,
0000
0000
0000
0000
,
0000
0000
0000
0000
,
1000
0000
0000
0000
,
0000
0000
0000
0000
,
0001
0000
0000
0000
,
0000
0000
0000
0000
,
0000
0000
0000
0000
,
1001
0000
0000
0000
,
0000
0000
0000
0000
,
0000
0000
0000
0000
,
0000
0000
0000
0000
,
0000
0000
0000
0000
,
0000
0000
0000
0000
,
0000
0000
0000
0000
,
0000
0000
0000
0000
,
1001
0000
0000
0000
,
0000
0000
0000
0000
,
0000
0000
0000
0000
,
0000
0000
0000
0000
,
0000
0000
0000
0000
,
0000
0000
0000
0000
,
0000
0000
0000
0000
,
0000
0000
0000
0000
,
1001
0000
0000
0000
;
