#TITLE:Changes;
#SUBTITLE:;
#ARTIST:Rivera & Haze;
#TITLETRANSLIT:;
#SUBTITLETRANSLIT:;
#ARTISTTRANSLIT:;
#GENRE:;
#CREDIT:;
#BANNER:changes-banner.png;
#BACKGROUND:Changes-bg.png;
#LYRICSPATH:;
#CDTITLE:;
#MUSIC:Changes.ogg;
#OFFSET:-0.947;
#SAMPLESTART:54.690;
#SAMPLELENGTH:15.300;
#SELECTABLE:YES;
#BPMS:0.000=125.000;
#STOPS:;
#BGCHANGES:0.000=Changes-bg.png=1.000=0=0=1=====,
16.000=VOL1-20-NTSC.mpg=1.000=1=0=1===CrossFade==,
32.000=686_JumpBack.mpg=0.900=0=0=1=====,
48.000=vol4-01-ntsc.mpg=0.900=0=0=1=====,
64.000=jb_044.mpg=1.000=0=0=1=====,
80.000=686_JumpBack.mpg=1.000=0=0=1=====,
96.000=EV01455N.mpg=1.000=0=0=1=====,
112.000=VOL1-12-NTSC.mpg=1.000=0=0=1=====,
120.000=jb_052.mpg=1.000=0=0=1=====,
128.000=jb_105.mpg=1.000=0=0=1=====,
136.000=VOL1-24-NTSC.mpg=1.000=0=0=1=====,
144.000=VOL1-20-NTSC.mpg=1.000=0=0=1=====,
152.000=VOL1-02-NTSC.mpg=1.400=0=0=1=====,
168.000=VOL1-21-NTSC.mpg=1.000=0=0=1=====,
176.000=VOL1-33-NTSC.mpg=1.000=0=0=1=====,
184.000=VOL1-20-NTSC.mpg=1.000=0=0=1=====,
192.000=vis_VOL1-21-NTSC.mpg=1.000=1=0=1===CrossFade==,
208.000=686_JumpBack.mpg=0.900=0=0=1=====,
224.000=vol4-01-ntsc.mpg=1.000=0=0=1=====,
240.000=Changes-bg.png=1.000=0=0=1=====,
244.000=Changes-bg.png=1.000=0=0=1=====,
99999=-nosongbg-=1.000=0=0=0 // don't automatically add -songbackground-
;
#KEYSOUNDS:;
// cache tags:
#FIRSTBEAT:16.000;
#LASTBEAT:244.000;
#SONGFILENAME:/Songs/In The Groove/Changes/Changes.sm;
#HASMUSIC:1;
#HASBANNER:1;
#MUSICLENGTH:122.876;
// end cache tags

//---------------dance-single - K. Ward----------------
#NOTES:
     dance-single:
     K. Ward:
     Hard:
     7:
     0.455,0.000,0.366,0.073,0.179,337.000,45.000,9.000,0.000,0.000,0.000:




0000
0000
0000
0000
,
0000
0000
0000
0000
,
0000
0000
0000
0000
,
0000
0000
0000
0000
,
1000
0000
0000
0010
0000
0000
0100
0000
0000
0000
0011
0000
0000
0000
0000
0000
,
0100
0000
0000
0010
0000
0000
1100
0000
0000
0000
0000
0000
0000
0000
0000
0000
,
0010
0000
0000
1000
0000
0000
0010
0000
0000
0000
1100
0000
0000
0000
0000
0000
,
0001
0000
0000
0010
0000
0000
0001
0000
0011
0000
0000
0000
0000
0000
0000
0000
,
0100
0000
0000
0010
0000
0000
1100
0000
0000
0000
0000
0000
0000
0000
0001
0010
,
0001
0000
0000
0100
0000
0000
0110
0000
0000
0000
0000
0000
1000
0000
0010
0000
,
0100
0000
0000
0001
0000
0000
0011
0000
0000
0000
0000
0000
0000
0000
0001
0000
,
0100
0000
0000
0010
0000
0000
1000
0000
0010
0000
0000
0100
0000
0000
0001
0000
,
0022
0000
0000
0033
0000
0000
0000
0000
,
0000
0000
1000
0000
0010
0000
0100
0000
0001
0000
0000
0100
0000
0000
0020
0000
,
0000
0000
0130
0000
,
0001
0000
0000
0100
0000
0000
0010
0000
1000
0000
0000
0000
1000
0000
0000
0000
,
0011
0000
0000
0110
0000
0000
2200
0000
0000
0000
0000
0000
3300
0000
0000
0000
,
1000
0000
0000
0010
0000
0000
0100
0000
0001
0000
0100
0000
0010
0000
1000
0000
,
0001
0000
0000
0010
0000
0000
0100
0000
1000
0000
0010
0000
0100
0000
0001
0000
,
0010
0000
0000
0001
0000
0000
1000
0000
1001
0000
0000
0000
1010
0000
0000
0000
,
0010
0100
0010
1000
0010
0100
0010
1000
,
0010
0100
0010
1000
0010
0100
0010
0100
,
0010
0001
0010
0001
0010
0100
0010
0100
,
0010
1000
0010
0100
0001
0010
0011
0000
,
0010
0001
0010
0100
0010
0001
0010
0100
,
0010
0001
0010
0100
0010
0100
0010
1000
,
0010
1000
0010
0100
0010
0100
0010
0001
,
0010
0100
0010
0001
0100
0000
0011
0000
,
1000
0100
0000
1000
0000
0000
0010
0000
0100
0000
0001
0000
0010
0000
0000
0000
,
0001
0010
0000
0001
0000
0000
0100
0000
0010
0000
1000
0000
0100
0000
0000
0000
,
1000
0100
0000
1000
0000
0000
0010
0000
0100
0000
0001
0000
0010
0000
0000
0000
,
0001
0010
0000
0001
0000
0000
0100
0000
0010
0000
1000
0000
1100
0000
0000
0000
,
1000
0100
0000
1000
0000
0000
0010
0000
0100
0000
0001
0000
0010
0000
0000
0000
,
0001
0010
0000
0001
0000
0000
0100
0000
0010
0000
1000
0000
0100
0000
0000
0000
,
1000
0100
0000
1000
0000
0000
0010
0000
0100
0000
0001
0000
0010
0000
0001
0000
,
1000
0100
0000
1000
0000
0000
0010
0000
0100
0000
0001
0000
0011
0000
0000
0000
,
1000
0001
0001
0000
0100
0010
0010
0000
,
1000
0000
0010
0000
0100
0000
0000
0001
0000
0000
0010
0000
0011
0000
0000
0000
,
0001
1000
1000
0000
0010
0100
0100
0000
,
0001
0000
0100
0000
0010
0000
0000
1000
0000
0000
0100
0000
1100
0000
0000
0000
,
0011
0000
0000
0110
0000
0000
1100
0000
0000
0000
1100
0000
0000
0000
0000
0000
,
1100
0000
0000
0110
0000
0000
0011
0000
0000
0000
0011
0000
0000
0000
0000
0000
,
1000
0010
0010
0000
0100
0001
0001
0000
,
0010
0000
0000
0001
0000
0000
0100
0000
0000
0010
0000
0000
1000
0000
0100
0000
1000
0000
0100
0000
0000
0000
0000
0000
,
1000
0001
0100
0001
1000
0001
0100
0001
,
0010
0001
0100
0010
0100
0001
0100
0001
,
1000
0001
0100
0001
1000
0001
0100
0001
,
0010
0001
0100
0010
1000
0100
1100
0000
,
0001
0100
0010
1000
0010
0100
0001
0010
,
0001
0100
0010
0100
0010
1000
0010
0100
,
0001
0010
0001
0100
0010
1000
0010
0100
,
0001
0010
0001
0100
0110
0000
1001
0000
,
1100
0000
0000
0000
1010
0000
0000
0000
0101
0000
0000
0000
0011
0000
0000
0001
,
0010
0000
0000
0100
1000
0000
0000
0000
1100
0000
0000
0000
1010
0000
0000
0100
,
0001
0000
0000
0000
0010
0000
0000
0000
0001
0000
0000
0000
0100
0000
0000
0010
,
1000
0000
0010
0000
0100
0001
0010
0001
,
0002
0000
0000
0000
0103
0000
0000
0000
0020
0000
0000
0000
1030
0000
0000
0010
,
0100
0000
0000
0001
0010
0000
0000
0000
0001
0000
1000
0000
0001
0000
0000
0000
,
1100
0101
1100
0110
,
0101
1100
0110
1100
,
2002
0000
0000
0000
,
3003
0000
0000
0000
;

//---------------dance-single - K. Ward----------------
#NOTES:
     dance-single:
     K. Ward:
     Medium:
     4:
     0.285,0.000,0.090,0.114,0.000,220.000,11.000,14.000,0.000,0.000,0.000:




0000
0000
0000
0000
,
0000
0000
0000
0000
,
0000
0000
0000
0000
,
0000
0000
0000
0000
,
0001
0100
0010
1000
,
0010
0100
0001
0010
,
0001
0100
0010
1000
,
0001
1000
2000
0000
,
3001
0000
0010
0000
,
0001
0000
1000
0000
,
0100
0000
1000
0000
,
0001
0010
0001
0010
,
0022
0000
0033
0000
,
1000
0010
0100
0001
,
0002
0000
0000
0003
,
1000
0000
0001
0000
0100
0010
1000
0000
,
2200
0000
3300
0000
,
0002
0000
0103
0010
,
1000
0000
0010
0000
,
0100
0001
0002
0000
,
1003
0010
0100
0110
,
0001
0010
0001
0011
,
1000
0100
1000
0010
,
0100
0001
0010
0001
,
0001
0100
0010
0110
,
1000
0100
1000
1100
,
0001
0010
0001
0100
,
0010
1000
2000
0000
,
3010
0100
0010
0000
0001
0010
0001
0000
,
0100
0010
0100
0000
0010
1000
0010
0000
,
1000
0100
1000
0000
0001
1000
0001
0000
,
1000
0100
0010
0011
,
0100
0010
0100
0000
0010
1000
0010
0000
,
1000
0100
1000
0000
0001
0100
0001
0000
,
1000
0001
1000
0000
0010
0100
0010
0000
,
1000
0010
0100
0110
,
0001
0010
0001
0100
,
0001
1000
0001
1000
,
0010
0000
0100
0000
0001
0010
0001
0000
,
1000
0000
0010
0000
0100
0010
0100
0000
,
0001
0010
0001
1000
,
0010
0100
0001
0010
,
0002
0000
0203
0000
,
0310
0110
1001
0000
,
1000
0100
1000
0010
,
0100
0000
0001
0000
0010
0001
0010
0000
,
0001
0010
0001
0100
,
0010
0000
1000
0000
0100
1000
0100
0000
,
1000
0100
1000
0010
,
0100
0000
0001
0000
0010
0001
0001
0000
,
0010
0001
0100
0010
,
1000
1000
0020
0100
,
0130
0001
0010
0001
,
0100
0000
0010
0000
1000
0100
1000
0000
,
0010
0100
0001
0010
,
0001
0000
1000
0000
0010
0100
0010
0000
,
1000
0010
0100
0001
,
0010
0000
0001
0000
0100
0010
0100
0000
,
0001
0000
0010
0000
,
0001
0100
0100
0001
,
0022
0000
0000
0000
,
0033
0000
0000
0000
;

//---------------dance-single - K. Ward----------------
#NOTES:
     dance-single:
     K. Ward:
     Easy:
     2:
     0.160,0.000,0.260,0.000,0.000,106.000,32.000,0.000,0.000,0.000,0.000:




0000
0000
0000
0000
,
0000
0000
0000
0000
,
0000
0000
0000
0000
,
0000
0000
0000
0000
,
0000
1000
0000
0000
,
0000
0010
0000
0000
,
0000
0100
0000
0000
,
0000
0001
0000
1000
,
1001
0000
0000
0000
,
1000
0000
0000
0000
,
0001
0000
0000
0000
,
0100
0000
0010
0000
,
1001
0000
0000
0000
,
0001
0000
0100
0000
,
0010
0000
0000
0000
,
0010
0000
0100
0000
,
0011
0000
0000
0000
,
1000
0000
0100
0100
,
1000
0000
0010
0000
,
0100
0000
0001
0001
,
0000
0011
0000
0011
,
0000
1100
0000
1100
,
0000
0010
0000
0100
,
0000
0001
0001
0001
,
0000
1100
0000
1100
,
0000
0011
0000
0011
,
0000
0001
0000
0100
,
0000
0010
0010
0010
,
0000
1000
0000
0001
,
0000
0010
0000
0001
,
0000
0100
0000
0010
,
0000
1000
0100
1000
,
0000
0001
0000
0010
,
0000
0001
0000
1000
,
0000
0010
0000
0100
,
0000
0001
0001
0000
,
0000
1100
0000
0000
,
0000
1010
0000
0000
,
0000
0101
0000
0000
,
0000
0011
0000
0000
,
0001
0001
0000
0000
,
0010
0010
0000
0000
,
0001
0000
1000
0000
,
0010
0010
0010
0000
,
0000
1100
0000
1100
,
0000
0011
0000
0011
,
0000
1010
0000
1010
,
0000
0101
0000
0101
,
0000
1001
0000
1001
,
0000
0110
0000
0110
,
0000
1001
0000
1001
,
0000
0011
0000
0011
,
0000
0001
0000
0100
,
0000
0010
0000
1000
,
0000
0100
0000
1000
,
0000
0010
0000
0100
,
0000
0001
0000
0010
,
0000
0001
0000
0100
,
0000
0010
0000
1000
,
0000
0001
0000
1000
,
1001
0000
0000
0000
;

//---------------dance-double - M. Emirzian----------------
#NOTES:
     dance-double:
     M. Emirzian:
     Easy:
     1:
     0.074,0.000,0.008,0.016,0.000,61.000,1.000,2.000,0.000,0.000,0.000:




00000000
00000000
00000000
00000000
,
00000000
00000000
00000000
00000000
,
00000000
00000000
00000000
00000000
,
00000000
00000000
00000000
00000000
,
10000000
00000000
00000000
00000000
,
00010000
00000000
00000000
00000000
,
01000000
00000000
00000000
00000000
,
00001000
00000000
00000000
00000000
,
00000001
00000000
00000000
00000000
,
00000000
00000000
00000000
00000000
,
00001000
00000000
00000000
00000000
,
00000000
00000000
00000000
00000000
,
00100000
00000000
00000000
00000000
,
00000000
00000000
00000000
00000000
,
10000000
00000000
00000000
00000000
,
00000000
00000000
00000000
00000000
,
00001000
00000000
00000000
00000000
,
00000000
00000000
00000000
00000000
,
00000001
00000000
00000000
00000000
,
00001000
00000000
00010000
00000000
,
01000000
00000000
00000000
00000000
,
00100000
00000000
00000000
00000000
,
10000000
00000000
00000000
00000000
,
00001000
00000000
00000000
00000000
,
00000001
00000000
00000000
00000000
,
00000100
00000000
00000000
00000000
,
01000000
00000000
00000000
00000000
,
00001000
00000000
00000000
00000000
,
10000000
00000000
00010000
00000000
,
01000000
00000000
00000000
00000000
,
00001000
00000000
00010000
00000000
,
00000000
00000000
00000000
00000000
,
00000001
00000000
00000100
00000000
,
00000010
00000000
00000000
00000000
,
00010000
00000000
00001000
00000000
,
00000000
00000000
00000000
00000000
,
01000000
00000000
00000000
00000000
,
00000100
00000000
00000000
00000000
,
00000001
00000000
00000000
00000000
,
00000100
00000000
00000000
00000000
,
00010000
00000000
00000000
00000000
,
10000000
00000000
00000000
00000000
,
00010000
00000000
00000000
00000000
,
00000100
00000000
00000010
00000010
,
00000001
00000000
00000100
00000000
,
00000010
00000000
00000000
00010000
,
00001000
00000000
01000000
00000000
,
00100000
00000000
00000000
10000000
,
00010000
00000000
01000000
00000000
,
00001000
00000000
00000000
00010000
,
00000100
00000000
00000010
00000000
,
00000001
00000000
00000000
00000100
,
00000000
00000000
00000000
00000000
,
00010000
00000000
00000000
00000000
,
00000000
00000000
00000000
00000000
,
00001000
00000000
00000000
00000000
,
00000000
00000000
00000000
00000000
,
01000000
00000000
00000000
00000000
,
00000000
00000000
00000000
00000000
,
00000100
00000000
00000000
00000000
,
00002002
00000000
00000000
00000000
,
00003003
00000000
00000000
00000000
;

//---------------dance-double - M. Emirzian----------------
#NOTES:
     dance-double:
     M. Emirzian:
     Medium:
     5:
     0.210,0.000,0.024,0.024,0.000,175.000,3.000,3.000,0.000,0.000,0.000:




00000000
00000000
00000000
00000000
,
00000000
00000000
00000000
00000000
,
00000000
00000000
00000000
00000000
,
00000000
00000000
00000000
00000000
,
10000000
00000000
01000000
00000000
,
00100000
00000000
00001000
00010000
,
00000100
00000000
00000010
00000000
,
00000100
00000000
00001000
00000010
,
00000200
00000000
00000000
00000000
,
00000300
00000000
00000000
00000000
,
00000001
00000000
00000000
00000000
,
00000000
00000000
00000000
00000000
,
00000100
00000000
00000000
00000000
,
00000000
00000000
00000000
00000000
,
00001000
00000000
00000000
00000000
,
00000000
00000000
00000000
00000000
,
00010000
00000000
00000000
00000000
,
00000000
00000000
00000000
00000000
,
01000000
00000000
00000000
00000000
,
10000000
01000000
00010000
00001000
,
00010000
00000100
00000010
00000100
,
00001000
00000000
00000001
00000000
00000100
00000000
00000010
00010000
,
00001000
00010000
01000000
00100000
,
01000000
00000000
10000000
00000000
00010000
00000000
01000000
00100000
,
10000000
00100000
01000000
00001000
,
00010000
00000000
01000000
00000000
00010000
00000000
00001000
00010000
,
00000010
00000100
00000010
00010000
,
00001000
00000000
00000010
00000000
00000001
00001000
00000001
00000000
,
00000100
00000010
00010000
00001000
,
00000010
00000100
00000010
00001000
,
00010000
00000000
00100000
00000000
10000000
00010000
01000000
00000000
,
10000000
01000000
00010000
00100000
,
01000000
00100000
00001000
00010000
,
01000000
00000000
10000000
00000000
01000000
00000000
00100000
00010000
,
01000000
00100000
00010000
00001000
,
00000010
00000000
00001000
00000000
00010000
00000000
00000100
00000010
,
00000100
00001000
00000001
00000100
,
00001000
00000100
00000010
00001000
,
00000100
00000010
00000100
00010000
,
00100000
01000000
00001000
00010000
,
01000000
00100000
01000000
10000000
,
00100000
00010000
00100000
10000000
,
01000000
00010000
00001000
00000100
,
00001000
00010000
00010010
00000110
,
00000001
00000100
00000010
00001000
,
00000100
00000000
00000010
00000000
00000100
00000000
00001000
00000001
,
00000100
00001000
00000100
00000010
,
00010000
00000000
00001000
00000000
01000000
00000000
00100000
01000000
,
00001000
00010000
01000000
10000000
,
00010000
00000000
01000000
00000000
00100000
00000000
01000000
00001000
,
00010000
01000000
00010000
00001000
,
00000100
00000001
00000010
00000100
,
00000001
00000000
00000100
00000000
,
00001000
00000000
00010000
00000000
,
00001000
00000000
01000000
00000000
,
00100000
00000000
10000000
00000000
,
01000000
00000000
00010000
00000000
,
00001000
00000000
00010000
00000000
,
00000100
00000000
00000010
00000000
,
00000001
00000000
00001000
00000000
,
00000220
00000000
00000000
00000000
,
00000330
00000000
00000000
00000000
;

//---------------dance-double - M. Emirzian----------------
#NOTES:
     dance-double:
     M. Emirzian:
     Hard:
     8:
     0.462,0.000,0.122,0.024,0.236,379.000,15.000,3.000,0.000,0.000,0.000:




00000000
00000000
00000000
00000000
,
00000000
00000000
00000000
00000000
,
00000000
00000000
00000000
00000000
,
00000000
00000000
00000000
00000000
,
10000000
00000000
01000000
00000000
10000000
00000000
00000000
01000000
00000000
00000000
00010000
00000000
00000000
00000000
00010000
00000000
,
00001000
00000000
00000010
00000000
00001000
00000000
00000000
00000010
00000000
00000000
00000001
00000000
00000010
00000000
00000100
00000000
,
00001000
00000000
00000000
00000001
00000000
00000000
00000100
00000000
00000000
00000000
00000100
00000000
00000010
00000000
00001000
00000000
,
00000100
00000000
00000000
00010000
00000000
00000000
00001000
00000000
00000000
00000000
00010000
00000000
01000000
00000000
00000000
00000000
,
00110000
00000000
00000000
01000000
00000000
00000000
00100000
00000000
00000000
00000000
10000000
00000000
00000000
00000000
00000000
00000000
,
01000000
00000000
00000000
00100000
00000000
00000000
00001000
00000000
00000000
00000000
00000000
00000000
00000000
00000000
00000000
00000000
,
00010000
00000000
00000000
00100000
00000000
00000000
00010000
00000000
00000000
00000000
00001000
00000000
00000000
00000000
00000000
00000000
,
00000010
00000000
00000000
00000100
00000000
00000000
00001000
00000000
00000000
00000000
00000000
00000000
00000000
00000000
00000000
00000000
,
00001001
00000000
00000000
00000100
00000000
00000000
00000010
00000000
00000000
00000000
00010000
00000000
00000000
00000000
00000000
00000000
,
00001000
00000000
00000000
01000000
00000000
00000000
00100000
00000000
00000000
00000000
00000000
00000000
00000000
00000000
00000000
00000000
,
01000000
00000000
00000000
00010000
00000000
00000000
00100000
00000000
00000000
00000000
01000000
00000000
00000000
00000000
00000000
00000000
,
10000000
00000000
00000000
01000000
00000000
00000000
00010000
00000000
00000000
00000000
00000000
00000000
00000000
00000000
00000000
00000000
,
00011000
00000000
00000000
00001000
00000000
00000000
00000010
00000000
00000000
00000000
00000001
00000000
00000000
00000000
00000000
00000000
,
00000100
00000000
00000000
00000010
00000000
00000000
00001000
00000000
00000000
00000000
00000000
00000000
00000000
00000000
00000000
00000000
,
00000001
00000000
00000000
00000010
00000000
00000000
00000100
00000000
00001000
00000000
00000010
00000000
00000100
00000000
00000010
00000000
,
00010000
00001000
00100000
01000000
00102000
00000000
01000000
00000000
,
00013000
00000000
00100000
00000000
10000000
00000000
00100000
00000000
01000000
00000000
00010000
00100000
00000000
01000000
10000000
00000000
,
01000000
00010000
00001000
00000100
00000010
00000100
00001000
00010000
,
00001000
00000000
00000010
00000000
00000100
00000000
00001000
00000000
00000001
00000000
00000100
00000010
00000000
00000100
00001000
00000000
,
00010000
01000000
00100000
01000000
00010000
00001000
01000000
00100000
,
01000000
00000000
00001000
00000000
00100000
00000000
01000000
00000000
10000000
00000000
01000000
00100000
00000000
01000000
00010000
00000000
,
00001000
00000100
00000001
00000010
00000100
00010000
00001000
00000010
,
00000100
00000000
00010000
00000000
00100000
00000000
01000000
00000000
00001000
00000000
00010000
00001000
00000000
01000000
00100000
00000000
,
10000000
00000000
01000000
00000000
00010000
00000000
01000000
00000000
10000000
00010000
00100000
00000000
11000000
00000000
00000000
00000000
,
00010000
01000000
10000000
01000000
00100000
01000000
00001000
00010000
,
01000000
00010000
00001000
00000100
00000010
00010000
00001000
00000010
,
00000100
00001000
00000001
00000100
00000010
00000100
00000001
00000010
,
00000100
00001000
00000010
00000100
00001000
00010000
00100000
01000000
,
00100000
00010000
10000000
01000000
00010000
01000000
00100000
10000000
,
01000000
00010000
01000000
10000000
00100000
00010000
00000010
00001000
,
00000100
00000001
00000100
00010000
00100000
00010000
00001000
00000100
,
00001000
00000001
00000010
00001000
00000100
00000010
00000100
00000000
,
00001000
00000000
00000010
00000000
00000001
00000000
00000010
00000000
00001000
00000000
00000100
00000010
00000000
00000001
00001000
00000000
,
00000001
00000000
00000100
00000000
00001000
00000000
00010000
00000000
01000000
00000000
00100000
00010000
00000000
10000000
00100000
00000000
,
01000000
00000000
00010000
00000000
00100000
00000000
10000000
00000000
00100000
00000000
00010000
10000000
00000000
00100000
00010000
00000000
,
00001000
00000000
00000010
00000000
00000100
00000000
00001000
00000000
00000010
00000100
00000001
00000000
00001010
00000000
00000000
00000000
,
00000100
00000000
00000001
00000000
00000010
00000000
00000100
00000000
00000010
00000000
00000001
00000100
00000000
00000010
00001000
00000000
,
00000100
00000000
00000010
00000000
00001000
00000000
00010000
00000000
00100000
00000000
01000000
00010000
00000000
10000000
01000000
00000000
,
00100000
00000000
00001000
00000000
00010000
00000000
00100000
00000000
10000000
00000000
01000000
00100000
00000000
00010000
10000000
00000000
,
00100000
00000000
00000000
00010000
00000000
00000000
00001000
00000000
00000000
00000100
00000000
00000000
00000010
00000000
00001000
00000000
00000100
00000000
00000010
00000000
00000000
00000000
00000000
00000000
,
00000001
00000000
00000100
00000000
00000010
00000000
00000000
00001000
00000100
00001000
00000000
00000001
00000000
00000000
00000100
00000000
,
00001000
00000000
00010000
00000000
00001000
00000000
00000000
00010000
00000000
01000000
10000000
00000000
00100000
00000000
10000000
00000000
,
01000000
00000000
00010000
00000000
00001000
00000000
00000000
01000000
00010000
01000000
00000000
00001000
00000000
00000000
00010000
00000000
,
00100000
00000000
00010000
00000000
00001000
00000000
00000000
00000010
00000000
00000100
00001000
00000000
00000001
00000000
00000100
00000000
,
00000010
00000000
00010000
00000000
00001000
00000000
00000000
00000010
00000100
00000010
00000000
00000001
00000000
00000000
00000100
00000000
,
00001000
00000000
00010000
00000000
00001000
00000000
00000000
00000100
00000000
00001000
00010000
00000000
00100000
00000000
10000000
00000000
,
00100000
00000000
00000000
00000000
00000000
00000000
00000000
00000000
00000000
00000000
00000000
00000000
00000000
00000000
00000000
00000000
01010000
00000000
00000000
00000000
00000000
00000000
00000000
00000000
00000000
00000000
00000000
00000000
00000000
00100000
00000000
00000000
01000000
00000000
00000000
00000000
00000000
00000000
00000000
00000000
00000000
00000000
00000000
00000000
00000000
00000000
00000000
00000000
11000000
00000000
00000000
00000000
00000000
00000000
00000000
00000000
00000000
00000000
00000000
00000000
00000000
00100000
00000000
00000000
,
01000000
00000000
00000000
00000000
00000000
00000000
00000000
00000000
00000000
00000000
00000000
00000000
00000000
00000000
00000000
00000000
01001000
00000000
00000000
00000000
00000000
00000000
00000000
00000000
00000000
00000000
00000000
00000000
00000000
00100000
00000000
00000000
00010000
00000000
00000000
00000000
00000000
00000000
00000000
00000000
00000000
00000000
00000000
00000000
00000000
00000000
00000000
00000000
00011000
00000000
00000000
00000000
00000000
00000000
00000000
00000000
00000000
00000000
00000000
00000000
00000000
00000010
00000000
00000000
,
00000001
00000000
00001010
00000000
00000100
00000000
00000001
00000010
,
00001000
00000000
00010000
00001000
01000000
00100000
10000000
00000000
,
00010000
00000000
01100000
00000000
10000000
00000000
01000000
00100000
,
00001000
00000000
00010000
00001000
00000100
00000010
00001000
00000000
,
00000100
00000000
00000011
00000000
00000100
00000000
00000010
00001000
,
00000100
00000000
00000010
00000100
00010000
00001000
01000000
00000000
,
00100000
00000000
01010000
00000000
00100000
00000000
01000000
10000000
,
00100000
00000000
10000000
01000000
00010000
00001000
00000100
00000001
,
00002002
00000000
00000000
00000000
,
00003003
00000000
00000000
00000000
;

//---------------lights-cabinet - ----------------
#NOTES:
     lights-cabinet:
     :
     Easy:
     1:
     0.972,0.000,1.000,0.090,0.179,383.000,230.000,11.000,0.000,184.000,0.000:


00000000
00000000
00000000
00000000
,
00000000
00000000
00000000
00000000
,
10100011
00000000
10000011
00000000
01000011
00000011
00100011
00000000
,
00010011
00010011
01000011
10000000
,
10000011
00000000
00000000
00100000
00000011
00000000
01000000
00000000
00000011
00000000
00110011
00000000
00000011
00000000
00000000
00000000
,
01000011
00000000
00000000
00100000
00000011
00000000
11000000
00000000
00000011
00000000
00000000
00000000
00000000
00000000
00000000
00000000
,
00100011
00000000
00000000
10000000
00000011
00000000
00100000
00000000
00000011
00000000
11000011
00000000
00000011
00000000
00000000
00000000
,
00010011
00000000
00000000
00100000
00000011
00000000
00010000
00000000
00110011
00000000
00000000
00000000
00000011
00000000
00000000
00000000
,
01000011
00000000
00000000
00100000
00000000
00000000
11000000
00000000
00000000
00000000
00000000
00000000
00000000
00000000
00010000
00100000
,
00010000
00000000
00000000
01000000
00000000
00000000
01100000
00000000
00000000
00000000
00000000
00000000
10000000
00000000
00100000
00000000
,
01000011
00000000
00000000
00010000
00000000
00000000
00110000
00000000
00000000
00000000
00000000
00000000
00000000
00000000
00010000
00000000
,
01000011
00000000
00000000
00100000
00000000
00000000
10000000
00000000
00100011
00000000
00000000
01000000
00000000
00000000
00010000
00000000
,
00220011
00000011
00000011
00330011
00000011
00000000
00000000
00000000
,
00000000
00000000
10000000
00000000
00100000
00000000
01000000
00000000
00010000
00000000
00000000
01000000
00000000
00000000
00200000
00000000
,
00000011
00000000
01300011
00000000
,
00010011
00000000
00000000
01000000
00000000
00000000
00100000
00000000
10000011
00000000
00000000
00000000
10000011
00000000
00000000
00000000
,
00110011
00000000
00000011
01100000
00000011
00000000
22000011
00000000
00000011
00000000
00000000
00000000
33000000
00000000
00000000
00000000
,
10000000
00000000
00000000
00100000
00000000
00000000
01000000
00000000
00010011
00000000
01000000
00000000
00100011
00000000
10000000
00000000
,
00010011
00000000
00000000
00100000
00000000
00000000
01000000
00000000
10000011
00000000
00100000
00000000
01000000
00000000
00010000
00000000
,
00100011
00000000
00000011
00010000
00000011
00000000
10000011
00000000
10010011
00000000
00000000
00000000
10100011
00000000
00000000
00000000
,
00100011
01000000
00100011
10000000
00100011
01000000
00100011
10000000
,
00100011
01000000
00100011
10000000
00100011
01000000
00100011
01000000
,
00100011
00010000
00100011
00010000
00100011
01000000
00100011
01000000
,
00100011
10000000
00100011
01000000
00010011
00100000
00110011
00000000
,
00100011
00010000
00100011
01000000
00100011
00010000
00100011
01000000
,
00100011
00010000
00100011
01000000
00100011
01000000
00100011
10000000
,
00100011
10000000
00100011
01000000
00100011
01000000
00100011
00010000
,
00100011
01000000
00100011
00010000
01000011
00000000
00110000
00000000
,
10000011
01000000
00000000
10000000
00000011
00000000
00100000
00000000
01000011
00000000
00010000
00000000
00100011
00000000
00000000
00000000
,
00010011
00100000
00000000
00010000
00000011
00000000
01000000
00000000
00100011
00000000
10000000
00000000
01000011
00000000
00000000
00000000
,
10000011
01000000
00000000
10000000
00000011
00000000
00100000
00000000
01000011
00000000
00010000
00000000
00100011
00000000
00000000
00000000
,
00010011
00100000
00000000
00010000
00000011
00000000
01000000
00000000
00100011
00000000
10000000
00000000
11000011
00000000
00000000
00000000
,
10000011
01000000
00000000
10000000
00000011
00000000
00100000
00000000
01000011
00000000
00010000
00000000
00100011
00000000
00000000
00000000
,
00010011
00100000
00000000
00010000
00000011
00000000
01000000
00000000
00100011
00000000
10000000
00000000
01000011
00000000
00000000
00000000
,
10000011
01000000
00000000
10000000
00000011
00000000
00100000
00000000
01000011
00000000
00010000
00000000
00100011
00000000
00010000
00000000
,
10000011
01000000
00000000
10000000
00000011
00000000
00100000
00000000
01000011
00000000
00010000
00000000
00110000
00000000
00000000
00000000
,
10000011
00010000
00010011
00000000
01000011
00100000
00100011
00000000
,
10000011
00000000
00100000
00000000
01000011
00000000
00000000
00010000
00000011
00000000
00100000
00000000
00110011
00000000
00000000
00000000
,
00010011
10000000
10000011
00000000
00100011
01000000
01000011
00000000
,
00010011
00000000
01000000
00000000
00100011
00000000
00000000
10000000
00000011
00000000
01000000
00000000
11000011
00000000
00000000
00000000
,
00110011
00000000
00000000
01100000
00000011
00000000
11000000
00000000
00000011
00000000
11000000
00000000
00000011
00000000
00000000
00000000
,
11000011
00000000
00000000
01100000
00000011
00000000
00110000
00000000
00000011
00000000
00110000
00000000
00000011
00000000
00000000
00000000
,
10000011
00100000
00100011
00000000
01000011
00010000
00010011
00000000
,
00100011
00000000
00000000
00010011
00000000
00000000
01000011
00000000
00000000
00100000
00000000
00000000
10000011
00000000
01000011
00000000
10000011
00000000
01000011
00000000
00000000
00000000
00000000
00000000
,
10000011
00010000
01000011
00010000
10000011
00010000
01000011
00010000
,
00100011
00010000
01000011
00100000
01000011
00010000
01000011
00010000
,
10000011
00010000
01000011
00010000
10000011
00010000
01000011
00010000
,
00100011
00010000
01000011
00100000
10000011
01000000
11000011
00000000
,
00010011
01000000
00100011
10000000
00100011
01000000
00010011
00100000
,
00010011
01000000
00100011
01000000
00100011
10000000
00100011
01000000
,
00010011
00100000
00010011
01000000
00100011
10000000
00100011
01000000
,
00010011
00100000
00010011
01000000
01100011
00000000
10010011
00000000
,
11000011
00000000
00000000
00000000
10100011
00000000
00000000
00000000
01010011
00000000
00000000
00000000
00110011
00000000
00000000
00010000
,
00100011
00000000
00000000
01000000
10000011
00000000
00000000
00000000
11000011
00000000
00000000
00000000
10100011
00000000
00000000
01000000
,
00010011
00000000
00000000
00000000
00100011
00000000
00000000
00000000
00010011
00000000
00000000
00000000
01000011
00000000
00000000
00100000
,
10000011
00000000
00100011
00000000
01000011
00010000
00100011
00010000
,
00020011
00000000
00000000
00000000
01030011
00000000
00000000
00000000
00200011
00000000
00000000
00000000
10300011
00000000
00000000
00100000
,
01000011
00000000
00000000
00010000
00100011
00000000
00000000
00000000
00010011
00000000
10000000
00000000
00010011
00000000
00000000
00000000
,
11000011
01010011
11000011
01100011
,
01010011
00000000
11000011
00000000
01100011
00000000
11000011
00000011
,
20020022
00000000
30030033
00000000
;

//---------------dance-single - M. Puls----------------
#NOTES:
     dance-single:
     M. Puls:
     Beginner:
     1:
     0.092,0.000,0.024,0.000,0.000,76.000,3.000,0.000,0.000,0.000,0.000:




0000
0000
0000
0000
,
0000
0000
0000
0000
,
0000
0000
0000
0000
,
0000
0000
0000
0000
,
0000
0000
0000
0000
,
0000
0000
0000
0000
,
0001
0000
0000
0000
,
1000
0000
0000
0000
,
0001
0000
0000
0000
,
1000
0000
0000
0000
,
0001
0000
0000
0000
,
1000
0000
0000
0000
,
0100
0000
0000
0000
,
0100
0000
0000
0000
,
0010
0000
0000
0000
,
0010
0000
0000
0000
,
0100
0000
0000
0000
,
0100
0000
0000
0000
,
0001
0000
0000
0000
,
1000
0000
0000
0000
,
0001
0000
0001
0000
,
0001
0000
0000
0000
,
1000
0000
1000
0000
,
1000
0000
0000
0000
,
0010
0000
0010
0000
,
0010
0000
0000
0000
,
0100
0000
0100
0000
,
0100
0000
0000
0000
,
0100
0000
0000
0000
,
1000
0000
0000
0000
,
0001
0000
0000
0000
,
1000
0000
0000
0000
,
0100
0000
0000
0000
,
0010
0000
0000
0000
,
0001
0000
0000
0000
,
1000
0001
1000
0001
,
1000
0000
0000
0000
,
1001
0000
0000
0000
,
1000
0000
1000
0000
,
0001
0001
0001
0001
,
0000
1000
0000
0000
,
0001
0001
0000
0000
,
0001
1000
1000
1000
,
1000
0000
0000
0000
,
0001
0000
0000
0000
,
0100
0000
0000
0000
,
0010
0000
0000
0000
,
1000
0000
0000
0000
,
1001
0000
0000
0000
,
0010
0000
0000
0000
,
0010
0000
0000
0000
,
0100
0000
0000
0000
,
0100
0000
0000
0000
,
0001
0000
0001
1000
,
0001
0000
0000
0000
,
1000
0000
1000
0001
,
1000
0000
0000
0000
,
0001
0000
0001
1000
,
0001
0000
0000
0000
,
0100
0000
0000
0000
,
1001
0000
0000
0000
;
