#TITLE:No Princess;
#SUBTITLE:;
#ARTIST:Lynn;
#TITLETRANSLIT:;
#SUBTITLETRANSLIT:;
#ARTISTTRANSLIT:;
#GENRE:Bubblegum Dance;
#CREDIT:;
#BANNER:No Princess-banner.png;
#BACKGROUND:No Princess-bg.png;
#LYRICSPATH:;
#CDTITLE:;
#MUSIC:No Princess.ogg;
#OFFSET:0.004;
#SAMPLESTART:35.660;
#SAMPLELENGTH:11.840;
#SELECTABLE:YES;
#BPMS:0.000=141.000;
#STOPS:;
#BGCHANGES:0.000=No Princess-bg.png=1.000=0=0=1=====,
16.000=In The Groove 2/632_JumpBack.mpg=1.000=0=0=1=====,
32.000=In The Groove 2/643_JumpBack.mpg=1.000=0=0=1=SongBgWithMovieViz====0.5^0.5^0.5^1,
36.000=In The Groove 2/984_JumpBack.mpg=1.000=0=0=1=====,
52.000=In The Groove 2/770_JumpBack.mpg=1.000=0=0=1===SlideLeft==,
68.000=In The Groove 2/948_JumpBack.mpg=1.000=0=0=1===SlideRight==,
80.000=In The Groove 2/973_JumpBack.mpg=1.000=0=0=1=SongBgWithMovieViz====,
84.000=In The Groove 2/446_JumpBack_1.mpg=1.000=0=0=1=====,
100.000=-random-=1.000=0=0=1===SlideLeft==,
116.000=In The Groove 2/966_JumpBack.mpg=0.300=0=0=1=Kaleidoscope2x2====,
132.000=In The Groove 2/465_JumpBack.mpg=0.300=0=0=1=Kaleidoscope2x2====,
148.000=In The Groove 2/973_JumpBack.mpg=1.000=0=0=1=SongBgWithMovieViz====,
152.000=In The Groove 2/926_JumpBack.mpg=1.000=0=0=1=====,
168.000=-random-=1.000=0=0=1===SlideLeft==,
184.000=-random-=1.000=0=0=1===SlideRight==,
200.000=-random-=1.000=0=0=1===SlideUp==,
216.000=In The Groove 2/446_JumpBack.mpg=0.300=0=0=1=Kaleidoscope2x2====,
232.000=In The Groove 2/462_JumpBack.mpg=0.300=0=0=1=Kaleidoscope2x2====,
248.000=No Princess-bg.png=1.000=0=0=1=====,
99999=-nosongbg-=1.000=0=0=0 // don't automatically add -songbackground-
;
#BGCHANGES2:16.000=flash=1.000=0=0=1=====,
32.000=flash=1.000=0=0=1====1^1^0^1=,
36.000=flash=1.000=0=0=1=====,
80.000=flash=1.000=0=0=1====1^1^0^1=,
84.000=flash=1.000=0=0=1=====,
116.000=flash=1.000=0=0=1=====,
148.000=flash=1.000=0=0=1====1^1^0^1=,
152.000=flash=1.000=0=0=1=====,
216.000=flash=1.000=0=0=1=====,
248.000=flash=1.000=0=0=1=====,
;
#KEYSOUNDS:;
// cache tags:
#FIRSTBEAT:16.000;
#LASTBEAT:250.000;
#SONGFILENAME:/Songs/In The Groove 2/No Princess/No Princess.sm;
#HASMUSIC:1;
#HASBANNER:1;
#MUSICLENGTH:107.659;
// end cache tags

//---------------dance-single - K.W----------------
#NOTES:
     dance-single:
     K.W:
     Hard:
     7:
     0.441,0.000,0.195,0.186,0.074,291.000,21.000,20.000,3.000,0.000,0.000:
0000
0000
0000
0000
,
0000
0000
0000
0000
,
0000
0000
0000
0000
,
0000
0000
0000
0000
,
1000
0000
0000
0001
0000
0000
1000
0000
1000
0000
0000
0010
0000
0000
0100
0000
,
0100
0000
0000
0001
0000
0000
0010
0000
0010
0000
0000
0000
0001
0000
0000
0000
,
0100
1000
0100
0010
,
2002
0000
3003
0000
,
1001
0000
0000
0000
,
1000
0100
0010
0001
0100
1000
0100
0010
,
0100
0000
0000
0001
0000
0000
1000
0000
0000
0000
0100
0000
0100
0000
0000
0000
,
0010
0001
0100
1000
0100
0001
1000
0010
,
0100
0000
0000
0001
0000
0000
0010
0000
0000
0000
0001
0000
0001
0000
0000
0000
,
1000
0010
0100
0001
0010
0100
0010
0000
,
0001
0000
0000
1000
0000
0000
1100
0000
0000
0000
0000
0000
0000
0000
0000
0000
,
0010
0100
0001
0010
0100
0000
0010
0000
,
0001
0000
0000
0100
0000
0000
1001
0000
0000
0000
0110
0000
0011
0000
0000
0000
,
1000
0000
0000
1000
0010
0000
0000
0010
0100
0000
0000
0100
0001
0000
0000
0001
,
0010
0000
0000
0100
0000
0000
0110
0000
0000
0000
0000
0000
0000
0000
0000
0000
,
0001
0000
0000
0001
0100
0000
0000
0100
1000
0000
0000
1000
0100
0000
0000
0100
,
0010
0000
0000
1100
0000
0000
0000
0000
,
1000
0100
0010
0100
0010
0001
0100
0010
,
0100
1000
0100
0010
0100
0001
0010
0000
,
0001
0100
1000
0100
,
0001
0010
0100
0000
0010
0001
1000
0000
,
0010
0100
1000
0100
0001
0010
0001
1000
,
0100
0010
0001
1000
0000
0010
0110
0000
,
1000
0000
1100
0000
0001
0010
0001
0000
,
0020
0100
0001
0130
,
1000
1000
0000
0000
0001
0001
0000
0000
,
0100
0100
0000
0000
0100
0000
0001
0000
,
0010
0010
0000
0000
0001
0001
0000
0000
,
2000
3100
0002
0013
,
0100
0010
1000
0000
0010
0100
0001
0000
,
0010
0001
1000
0000
0100
0010
0100
0000
,
0020
0000
0031
0000
0100
1000
0100
0000
,
0001
1000
0001
0000
0010
0000
0110
0000
,
1001
0000
0000
0000
,
2000
0010
0100
3010
,
0002
0010
0100
0013
,
0002
0000
0200
0003
2000
0300
0200
3000
,
0002
0300
0000
0020
0000
0000
0033
0000
,
1000
0010
0001
0000
1000
0010
0001
0000
,
0010
0100
0001
0000
0001
0010
0100
0000
,
1000
1000
0001
0001
,
0110
1100
0011
1001
,
1000
0100
0010
0100
1000
0100
0010
0001
,
0100
0010
0100
0001
0010
0001
1000
0000
,
0010
0101
0010
1100
,
0002
0000
0000
0013
0000
0000
M00M
0000
,
1000
0100
0001
0000
0001
0100
1000
0000
,
0010
0100
0001
1000
0001
0000
1000
0000
,
0010
0000
0100
0000
0001
0010
0010
0000
,
0100
0011
1000
1100
,
0010
0100
0002
0000
0203
1000
0300
0000
,
0100
0010
0M00
0000
0100
0001
0010
0001
,
2000
3100
0000
0000
,
0020
0000
0000
0000
0130
0001
1000
0001
,
1000
0100
0010
0000
0010
0100
1000
0000
,
0010
0100
0002
0000
0100
0000
0013
0000
,
0100
1000
0100
0000
0001
0010
0001
0000
,
1000
0010
0100
0001
0010
0001
1000
0000
,
1001
0000
0000
0000
;

//---------------dance-single - K.W----------------
#NOTES:
     dance-single:
     K.W:
     Easy:
     3:
     0.219,0.000,0.065,0.000,0.000,158.000,7.000,0.000,0.000,0.000,0.000:
0000
0000
0000
0000
,
0000
0000
0000
0000
,
0000
0000
0000
0000
,
0000
0000
0000
0000
,
0001
0001
0001
0000
,
0100
0100
0100
0000
,
0010
1000
0001
0000
,
0110
0000
0000
0000
,
1001
0000
0000
0000
,
1000
0100
0100
1000
,
0001
0000
0001
0000
,
1000
1000
0010
0100
,
0001
0000
0001
0000
,
0100
1000
0100
0001
,
0001
0000
0010
0000
,
0001
0100
0010
1000
,
1000
0000
1000
0000
,
0010
0001
0100
1000
,
0001
0000
1000
0000
,
0100
1000
0010
0001
,
1000
0000
1001
0000
,
0001
1000
1000
0001
,
0100
0010
0100
0000
,
1000
1000
1000
0000
,
0001
0001
0001
0000
,
1000
1000
0001
0000
,
0100
0100
0001
0000
,
1000
0010
0100
0001
,
0001
0000
0000
0000
,
1000
0000
1000
0000
,
0001
0000
0001
0000
,
1000
0000
1000
0000
,
0001
0000
0001
0000
,
0100
0100
0010
0000
,
1000
1000
0010
0000
,
0100
0100
0010
0000
,
1000
1000
0001
1000
,
1001
0000
0000
0000
,
1000
0001
0010
0000
,
0001
0100
0001
0000
,
1000
1000
1000
0000
,
1000
0000
0001
0000
,
0001
0001
0100
0000
,
0010
0010
1000
0000
,
0001
0001
0001
0000
,
0001
0000
1000
0000
,
0010
0001
1000
0000
,
0100
0010
0100
0000
,
1000
0100
1000
0000
,
1000
0000
0001
0000
,
0100
0100
0001
0000
,
1000
1000
0100
0000
,
1000
0001
0100
0010
,
1001
0000
0110
0000
,
1000
0000
1000
0000
,
1000
0000
0001
0000
,
0010
0000
0010
0000
,
0010
0000
0001
1000
,
0001
0000
0100
0000
,
1000
0000
0100
0000
,
0001
0000
0100
0000
,
0010
0010
0010
0100
,
1001
0000
0000
0000
;

//---------------dance-single - K. Ward----------------
#NOTES:
     dance-single:
     K. Ward:
     Medium:
     5:
     0.364,0.000,0.353,0.065,0.009,229.000,38.000,7.000,2.000,0.000,0.000:
0000
0000
0000
0000
,
0000
0000
0000
0000
,
0000
0000
0000
0000
,
0000
0000
0000
0000
,
1100
0000
0010
0000
,
0110
0000
0001
0000
,
1000
0010
0100
0001
,
1001
0000
0110
0110
,
2002
0000
3003
0000
,
1000
0000
0001
0000
0100
0010
1000
0000
,
0100
0000
0010
0000
0000
0100
0100
0000
,
1000
0000
0010
0000
0100
0001
0010
0000
,
0100
0000
0010
0000
0000
0001
0001
0000
,
1000
0100
1000
0000
0001
0010
0001
0000
,
0100
0000
0000
0100
0000
0000
0100
0000
0000
0000
0000
0000
0000
0000
0000
0000
,
0010
0000
0100
0000
0001
1000
0001
0000
,
0010
0000
0000
0010
0000
0000
0010
0000
0000
0000
0000
0000
0000
0000
0000
0000
,
0100
1000
0010
0001
,
0100
0001
0010
0000
0002
0000
0000
0000
,
1003
0100
1000
0000
0010
0000
0100
0000
,
0001
0000
0000
0002
0000
0000
0003
0000
,
1000
0001
0100
0000
0010
0000
0010
0100
,
0000
0001
0010
0001
0000
0000
1000
0000
,
1100
0110
1001
0000
,
0110
0000
0000
1100
0000
0000
0000
0000
,
1001
0000
0010
0100
0000
0000
0010
0000
,
0100
0010
0100
0001
0000
0000
1000
0000
,
0001
0001
1000
0100
,
2000
0000
3010
0100
,
1001
0000
0110
0000
,
1000
0100
1000
0000
0001
0010
0001
0000
,
1001
0000
0110
0000
,
1000
0100
1000
0000
0001
0010
0001
0000
,
1100
0000
0011
0000
0100
0010
0100
0000
,
0001
0010
0001
0000
1000
0000
1000
0000
,
0010
0000
0110
0000
0001
1000
0001
0000
,
0010
0100
0010
0100
,
1001
0000
M00M
0000
,
0010
0100
0010
0000
1000
0001
1000
0000
,
0010
0000
0100
0001
0000
0000
0000
0000
,
0010
0010
0100
0100
,
1000
0100
0010
0002
0000
1000
0003
0000
,
0100
1000
0010
0100
,
0001
0000
0010
0001
0000
0000
0000
0000
,
1000
1100
0001
0011
,
1000
0100
1000
0000
0010
0100
0001
0000
,
0010
0010
0100
0100
,
1000
0010
0100
0001
0000
0000
0000
0000
,
1001
0110
0011
1100
,
0110
0000
0000
1001
0000
0000
0000
0000
,
0011
0000
0100
0010
0000
0000
0100
0000
,
0010
0100
0010
1000
0000
0000
0000
0000
,
0001
1000
0100
0010
,
0002
0000
0013
0100
,
1001
0000
0110
0000
,
0001
0010
0001
0000
1000
0100
1000
0000
,
1001
0000
0110
0000
,
0001
0010
0001
0000
1000
0100
1000
0000
,
0011
0000
1100
0000
0010
0100
0010
0000
,
1000
0000
0001
0000
0100
0010
1000
0000
,
1100
0000
0011
0000
0100
0010
0100
0000
,
0001
1000
0010
0100
,
1001
0000
0000
0000
;

//---------------dance-single - K. Ward----------------
#NOTES:
     dance-single:
     K. Ward:
     Challenge:
     9:
     0.537,0.000,0.260,0.242,0.269,351.000,28.000,26.000,8.000,1.000,0.000:
0000
0000
0000
0000
,
0000
0000
0000
0000
,
0000
0000
0000
0000
,
0000
0000
0000
0000
,
0001
0010
0001
0100
0010
0100
2000
0000
,
3100
0010
0100
0100
0001
0010
0002
0000
,
0013
0000
1100
0000
0010
0100
0110
0000
,
1001
0000
0000
0000
1100
0000
0000
0000
0001
0000
0000
1000
0000
0000
0010
0000
,
0200
0000
0310
0000
,
1000
0000
0000
0010
0000
0000
0100
0000
0000
0000
0001
0000
0001
0000
0000
0000
,
0100
0000
0000
0010
0000
0000
1000
0000
0000
0000
0100
0000
0100
0000
0000
0000
,
0010
0001
0100
1000
0100
0000
0010
0000
,
1000
0000
0000
0002
0000
0000
0020
0000
0000
0000
0033
0000
0000
0000
0000
0000
,
1000
1000
0100
0010
0100
0100
0010
0001
,
1000
0000
0000
0020
0000
0000
0100
0000
0000
0000
0100
0000
0130
0000
0000
0000
,
1000
0000
0000
0100
0000
0000
2002
0000
0000
0000
0000
0000
0010
0000
3003
0000
,
0010
M00M
0000
0100
0000
0000
2002
0000
0000
0000
0000
0000
3003
0000
M00M
0000
,
0010
0000
0100
0001
0010
0000
0001
1000
0100
0000
1000
0010
0200
0000
0000
0000
,
0301
0000
0000
0010
0000
0000
0101
0000
0000
0000
0000
0000
0000
0000
0000
0000
,
1000
0000
0010
0100
0001
0000
0010
0001
1000
0000
0010
0100
0010
0000
0000
0000
,
2000
0000
0100
3100
0000
0000
M00M
0000
,
0010
0001
0100
1000
0100
0001
1000
0001
,
0000
0100
1000
0200
0000
0001
0301
0000
,
0010
0000
0000
0010
0001
0000
0000
0001
1000
0000
0000
1000
0100
0000
0000
0000
,
0010
0100
0010
0000
0001
1000
0001
0000
,
0100
0000
0000
1000
0000
0000
0100
0000
0001
0000
0000
0010
0000
0000
0001
0000
,
1000
0000
0000
0100
0000
0000
0010
0000
0200
0000
0000
0000
1300
0000
0000
0000
,
0010
0110
0001
1001
,
0010
0100
0010
0000
1001
0000
0000
0000
0010
0000
1000
0000
1100
0000
0000
0000
,
0001
0000
0000
0001
0100
0000
1000
0000
0100
0000
0000
0100
0010
0000
0100
0000
,
0001
0000
0000
0001
0010
0000
0001
0000
1000
0000
1000
0000
1000
0000
0000
0000
,
0100
0000
0000
0100
1000
0000
0010
0000
0100
0000
0000
0100
0001
0000
0010
0000
,
0001
0000
0000
0001
1000
0000
0100
0000
0010
0000
0100
0000
1000
0000
0000
0000
,
0010
0000
0000
0010
0100
0000
0001
0000
0010
0000
0000
0010
0001
0000
1000
0000
,
0100
0000
0000
0100
0010
0000
0100
0000
1000
0000
0000
0000
0011
0000
0000
0000
,
0100
0000
0000
0010
0100
0000
0001
0000
0010
0000
0000
0010
0001
0000
1000
0000
,
0001
0000
0001
0000
1000
0000
1000
0000
0010
0100
0000
0100
0010
0000
0100
0000
,
2002
0000
0000
0000
3003
M00M
0000
0000
,
0001
0000
0100
0000
1000
0000
0100
0000
0010
0000
1000
0000
0001
0010
0001
0000
,
0100
0000
1000
0000
0100
0000
0001
0000
0010
0000
0100
0000
0010
0001
0010
0000
,
0200
0320
0031
1000
,
0010
0100
0002
0000
0013
0100
0020
0000
,
0031
0000
0000
0001
0010
0000
0100
0000
0010
0000
0000
0010
0001
0000
1000
0000
,
0100
0000
0000
0100
1000
0000
0010
0000
0100
0000
0001
0000
0100
0000
1000
0000
,
0100
0110
0001
0011
,
0100
0010
0100
1000
0100
0001
1000
0000
,
0002
0010
0013
0000
0200
0010
0310
0000
,
0002
1000
1003
0000
0020
0100
0130
0000
,
0010
0000
0000
0100
0001
0000
0000
0001
1000
0000
0000
1000
0100
0000
0000
0000
,
0010
0100
1000
0000
0001
0100
1000
0000
,
0100
0000
0000
1001
0000
0000
0010
0000
0100
0000
0000
1010
0000
0000
0001
0000
,
0010
0000
0000
0011
0000
0000
0100
0000
0010
0000
0001
0000
0100
0000
1000
0000
,
0100
1000
0010
0001
,
2000
0100
0100
3000
0200
0010
0010
0300
,
0010
0000
0101
0000
0000
0000
0001
0010
0000
0000
0011
0000
0000
0000
0000
0100
,
0000
0000
0110
0000
0000
0000
0000
0001
0000
0000
0100
0000
0010
0000
1000
0000
,
0001
0000
1001
0000
0000
0000
0000
0100
0000
0000
0011
0000
0000
0000
0000
0100
,
0000
0000
1000
0000
0100
0000
0000
0001
0000
0000
0010
0000
0100
0000
0010
0000
,
1100
0000
0000
0000
1001
0000
0000
0001
0000
0000
0100
0000
1000
0000
0000
0100
,
0000
0000
0010
0000
1000
0000
0000
0001
0000
0000
0010
0000
0100
0000
0010
0000
,
0011
0000
0000
0000
1001
0000
0000
0100
0000
0000
0010
0000
0100
0000
0000
1000
,
0000
0000
0100
0000
0001
0000
0000
1000
0000
0000
0001
0000
0010
0000
0100
0000
,
1001
0000
0000
0000
;

//---------------dance-single - K. Ward----------------
#NOTES:
     dance-single:
     K. Ward:
     Beginner:
     1:
     0.125,0.000,0.037,0.000,0.000,90.000,4.000,0.000,0.000,0.000,0.000:

0000
0000
0000
0000
,
0000
0000
0000
0000
,
0000
0000
0000
0000
,
0000
0000
0000
0000
,
0001
0000
1000
0000
,
0001
0000
0100
0000
,
0010
0000
1000
0000
,
0001
0000
0000
0000
,
1000
0000
0000
0000
,
0010
0000
0010
0000
,
0100
0000
0100
0000
,
0001
0000
0001
0000
,
1000
0000
1000
0000
,
0010
0000
0010
0000
,
0100
0000
0100
0000
,
0001
0000
0000
0000
,
1000
0000
0000
0000
,
1001
0000
0000
0000
,
0110
0000
0000
0000
,
1000
0000
0000
0000
,
1001
0000
0000
0000
,
0001
0000
0001
0000
,
0100
0000
0100
0000
,
0001
0000
0000
0000
,
1000
0000
0001
0000
,
1000
0000
1000
0000
,
0001
0000
0001
0000
,
0100
0000
0010
0000
,
1000
0000
0000
0000
,
0001
0000
0001
0000
,
1000
0000
1000
0000
,
0001
0000
0001
0000
,
1000
0000
1000
0000
,
0010
0000
0010
0000
,
0100
0000
0100
0000
,
0010
0000
0010
0000
,
1000
0000
0001
0000
,
1001
0000
0000
0000
,
1000
0000
0000
0000
,
0100
0000
0000
0000
,
1000
0000
1000
0000
,
0001
0000
0001
0000
,
0100
0000
0000
0000
,
0010
0000
0000
0000
,
1000
0000
0001
0000
,
1000
0000
0000
0000
,
0001
0000
0000
0000
,
1000
0000
0000
0000
,
0010
0000
0100
0000
,
0001
0000
0000
0000
,
1000
0000
0000
0000
,
0100
0000
0000
0000
,
1000
0000
0001
0000
,
0010
0000
0001
0000
,
1000
0000
0000
0000
,
0001
0000
0000
0000
,
1000
0000
0000
0000
,
0010
0000
0010
0000
,
0100
0000
0000
0000
,
0001
0000
0000
0000
,
0010
0000
0000
0000
,
0001
0000
1000
0000
,
0001
0000
0000
0000
;

//---------------dance-double - J.Casarino----------------
#NOTES:
     dance-double:
     J.Casarino:
     Hard:
     8:
     0.504,0.000,0.139,0.269,0.065,336.000,15.000,29.000,35.000,0.000,0.000:
00000000
00000000
00000000
00000000
,
00000000
00000000
00000000
00000000
,
00000000
00000000
00000000
00000000
,
00000000
00000000
00000000
00000000
,
00000100
00010000
00001000
00000100
00000000
00001000
00010000
00000010
,
00000000
00000100
00000001
00000010
00000000
00000000
00000001
00000100
,
00000010
00000000
00011000
00000000
01001000
00000000
00100000
02020000
,
00000000
00000000
03030000
00000000
00000000
00000000
10000000
00100000
10000000
00000000
00000000
00000000
00000000
00000000
00000000
00000000
,
02200000
00000000
00000000
03300000
,
10000000
01000000
00100000
00010000
01000000
00100000
00010000
00001000
,
00100000
00000000
00000000
01000000
00000000
00000000
02200000
00000000
00000000
00000000
00000000
00000000
03300000
00000000
00000000
00000000
,
00010000
00001000
00000010
00000100
00010000
00001000
00000100
00000010
,
00001000
00000000
00000000
00000001
00000000
00000000
00001001
00000000
00000000
00000000
00000000
00000000
00000000
00000000
00000000
00000000
,
00000001
00000100
00000010
00001000
00000100
00000010
00000001
00001000
,
00000010
00000000
00000000
00010000
00000000
00000000
00022000
00000000
00000000
00000000
00000000
00000000
00033000
00000000
00000000
00000000
,
00001000
01000000
00010000
00100000
01000000
00010000
01000000
10000000
,
00100000
00000000
00000000
01000000
00000000
00000000
20020000
00000000
00000000
00000000
00000000
00000000
30030000
00000000
00000000
00000000
,
10000000
00000000
00000000
10000000
01000000
00000000
00000000
01000000
00100000
00000000
00000000
00100000
00010000
00000000
00000000
00010000
,
01000000
00000000
00000000
00100000
00000000
00000000
20200000
00000000
00000000
00000000
00000000
00000000
30300000
00000000
00000000
00000000
,
00100000
00000000
00000000
00100000
01000000
00000000
00000000
01000000
00001000
00000000
00000000
00001000
00010000
00000000
00000000
00010000
,
00000100
00010000
00000010
00001010
00000000
00000000
00000000
00000000
,
00000001
00000010
00000001
00000010
00000100
00001000
00000100
00001000
,
00000010
00010000
00001000
00010000
01000000
0M000000
01000000
10000000
,
00100000
00100000
01000000
01000000
00001000
00000000
00010000
00100000
,
00010000
00001000
01000000
00100000
00000000
MMM00000
00000000
10000000
,
00010000
00100000
00010000
10000000
01000000
00100000
01000000
00010000
,
00001000
00010000
00000010
00001000
00000000
00000000
00000001
00000100
,
00000020
00000000
00020030
00000000
00032000
00000000
00013000
02000000
,
00000000
00000000
03100000
0MM00000
,
10000000
00100000
00100000
00M00000
00100000
01000000
01000000
0M000000
,
01000000
00001000
00010000
00001000
00100000
00010000
01000000
0M000000
,
01000000
01000000
00001000
0000M000
00001000
00001000
00010000
000M0000
,
00010000
00001000
00000010
00000100
00000010
00001000
00010000
00000000
,
00001000
01000000
00001000
0000M000
00001000
00010000
00001000
0000M000
,
00001000
00100000
00001000
01000000
00010000
10000000
00100000
00000000
,
00010000
00001000
00010000
000M0000
00010000
00000010
00010000
000M0000
,
00010000
00000100
00010000
00000010
00000100
00000010
00001000
00000000
,
00002002
00000000
00000000
00003003
,
00000001
00000100
00001000
00000100
00000001
00000100
00000010
00000100
,
00001000
00010000
00001000
00000100
00000010
000000M0
00000010
00010000
,
00001000
00001000
00100000
00100000
01000000
00000000
10000000
00100000
,
10000000
00010000
00100000
00010000
00000000
0MMM0000
00000000
01000000
,
00010000
00100000
01000000
00010000
00001000
00000100
00000010
00001000
,
00000100
00000010
00000001
00001000
00000000
00000000
00000001
00000010
,
00000200
00000000
00020300
00000000
00032000
00000000
00013000
00210000
,
00000000
00000000
01300000
0MM00000
,
10000000
01000000
00010000
01000000
10000000
00100000
01000000
00010000
,
00100000
00001000
00010000
00000100
00001000
0000M000
00001000
00000001
,
00000010
00000010
00001000
00001000
00010000
00000000
00100000
00010000
,
00001000
00010000
00000010
00001000
00000000
0000MMM0
00000000
00000100
,
00000010
00000001
00000100
00001000
00000100
00000001
00000010
00000100
,
00010000
00001000
00010000
00100000
01000000
00000000
00100000
10000000
,
02000000
00000000
03020000
00000000
00032000
00000000
00003100
00002020
,
00000000
00003030
00010100
000M0M00
,
00010000
00000100
00001000
0000M000
00001000
00000010
00000100
00000M00
,
00000100
00000001
00000010
00000100
00001000
00000001
00000010
00000000
,
00000100
00010000
00001000
0000M000
00001000
01000000
00100000
00M00000
,
00100000
10000000
00010000
01000000
00100000
10000000
01000000
00000000
,
10000000
00100000
00010000
000M0000
00010000
00100000
10000000
M0000000
,
10000000
01000000
00100000
00010000
00100000
00001000
00010000
00000000
,
00001000
00000100
00000001
0000000M
00000001
00000100
00001000
0000M000
,
00001000
00010000
01000000
10000000
00100000
00010000
00001000
00000000
,
00020020
00030030
00000000
00000000
;

//---------------dance-double - J.Casarino----------------
#NOTES:
     dance-double:
     J.Casarino:
     Easy:
     3:
     0.244,0.000,0.074,0.102,0.000,165.000,8.000,11.000,0.000,0.000,0.000:
00000000
00000000
00000000
00000000
,
00000000
00000000
00000000
00000000
,
00000000
00000000
00000000
00000000
,
00000000
00000000
00000000
00000000
,
10000000
01000000
00010000
00000000
,
00010000
01000000
10000000
00000000
,
00010000
00100000
00010000
00100000
,
00001000
00000000
00010000
00000000
,
00022000
00000000
00000000
00033000
,
00010000
00000100
00010000
00000100
,
00001000
00001000
00001000
00000000
,
00000001
00000100
00000001
00000100
,
00000010
00000010
00000010
00000000
,
00010000
00001000
00010000
00001000
,
00100000
00100000
00100000
00000000
,
00010000
10000000
00010000
10000000
,
01000000
01000000
01000000
00000000
,
10000000
00000000
00100000
00000000
,
10000000
00100000
01000000
00000000
,
00001000
00000000
00010000
00000000
,
00001000
00010000
00000200
00000300
,
00001000
00001000
00000010
00000010
,
00010000
00001000
00010000
00000000
,
00100000
00100000
00100000
00100000
,
01000000
00100000
10010000
00000000
,
10000000
10000000
01000000
01000000
,
00010000
00001000
00010000
00000000
,
00000100
00000000
00000010
00000000
,
00002002
00000000
00000000
00003003
,
00000001
00000000
00000100
00000000
,
00000001
00000100
00001000
00000000
,
00000100
00000000
00001000
00000000
,
00000100
00001000
00010000
00000000
,
00001000
00000000
00010000
00000000
,
00001000
00010000
01000000
00000000
,
00010000
00000000
01000000
00000000
,
00010000
01000000
10000000
00000000
,
20020000
00000000
00000000
30030000
,
10000000
10000000
01000000
01000000
,
10000000
00100000
01000000
00000000
,
00100000
00100000
00010000
00010000
,
00001000
00010000
00000100
00000000
,
00000010
00000001
00000010
00000001
,
00000100
00000010
00000100
00000000
,
00001000
00000000
00010000
00000000
,
00022000
00000000
00033000
00000000
,
00010000
00010000
00100000
00100000
,
00001000
00010000
00001000
00000000
,
00000010
00000010
00000010
00000010
,
00000100
00000010
00001001
00000000
,
00000001
00000001
00000100
00000100
,
00001000
00010000
00001000
00000000
,
01000000
00000000
00100000
00000000
,
20020000
00000000
00000000
30030000
,
10000000
00000000
01000000
00000000
,
10000000
01000000
00010000
00000000
,
01000000
00000000
00010000
00000000
,
01000000
00010000
00001000
00000000
,
00010000
00000000
00001000
00000000
,
00010000
00001000
00000100
00000000
,
00001000
00000000
00000100
00000000
,
00001000
00000100
00000001
00000000
,
00001001
00000000
00000000
00000000
;

//---------------dance-double - J.Casarino----------------
#NOTES:
     dance-double:
     J.Casarino:
     Medium:
     6:
     0.385,0.000,0.121,0.149,0.019,261.000,13.000,16.000,6.000,0.000,0.000:
00000000
00000000
00000000
00000000
,
00000000
00000000
00000000
00000000
,
00000000
00000000
00000000
00000000
,
00000000
00000000
00000000
00000000
,
00010000
01000000
00010000
00100000
,
01000000
00000000
10000000
00000000
00100000
00000000
01000000
00001000
,
00010000
00000000
00001000
00000000
00000100
00000000
00000010
00001000
,
00000000
00000000
00000000
00000001
00000001
00000000
00000000
00000000
,
00000022
00000000
00000000
00000033
,
00000001
00000100
00000010
00000000
00001000
00000000
00000100
00000000
,
00010000
00000000
00000000
00010000
00000000
00000000
00010000
00000000
00000000
00000000
00000000
00000000
000M0000
00000000
00000000
00000000
,
00001000
01000000
00010000
00000000
00100000
00000000
00001000
00000000
,
01000000
00000000
00000000
01000000
00000000
00000000
01000000
00000000
00000000
00000000
00000000
00000000
0M000000
00000000
00000000
00000000
,
01000000
00010000
10000000
00000000
01000000
00000000
00010000
00000000
,
00001000
00000000
00000000
00001000
00000000
00000000
00001000
00000000
00000000
00000000
00000000
00000000
0000M000
00000000
00000000
00000000
,
00010000
00000010
00001000
00000000
00000100
00000000
00000010
00000000
,
00000001
00000000
00000000
00000001
00000000
00000000
00000001
00000000
00000000
00000000
00000000
00000000
0000000M
00000000
00000000
00000000
,
00000001
00001000
00000001
00000000
00001000
00000100
00010000
00000000
,
00001000
00100000
00001000
00100000
00000000
00000000
00000000
00000000
,
00010000
01000000
00010000
00000000
10000000
00100000
10000000
00000000
,
01000000
00100000
00001000
00010000
00000000
00000000
00000000
00000000
,
00000010
00001000
00000010
00000010
00000000
00000100
00000001
00000100
,
00000000
00000010
00000100
00001000
00000000
00000000
00010000
00001000
,
00020000
00000000
00230000
00000000
20300000
00000000
31000000
10000000
,
00100000
00000000
01000000
00010000
00000000
00000000
01010000
00000000
,
01000000
00001000
00010000
00000000
00001000
00010000
00000100
00000000
,
00001000
00000100
00000010
00000000
00000001
00000000
00001000
00000010
,
00020000
00000000
00032000
00000000
00003020
00000000
00000031
00000001
,
00000000
00000000
00001001
00000000
,
00000001
00000100
00000001
00000000
00000100
00000000
00001000
00000000
,
00010000
00001000
00100000
00001000
,
00000010
00000100
00000010
00000000
00001000
00000000
00010000
00000000
,
00001000
00100000
00010000
01000000
,
00100000
10000000
00010000
00000000
01000000
00000000
00100000
00000000
,
10000000
01000000
00010000
00001000
,
00010000
00000010
00001000
00000000
00000100
00000000
00000010
00000000
,
00000001
00000100
00001000
00010000
,
00022000
00000000
00000000
00033000
,
00010000
00000100
00001000
00001000
00000000
00000100
00000010
00001000
,
00000000
00010000
00001000
01000000
00000000
00000000
00010000
00000000
,
10100000
01100000
01010000
01001000
,
00001000
00010000
00001000
00000100
00000000
00000000
00000010
00000000
,
00010000
00001000
00010000
01000000
00000000
00010000
00001000
00100000
,
00000000
00001000
00010000
00000100
00000000
00000000
00001000
00000100
,
00000010
00000000
00000011
00000000
00001100
00000000
00000100
00010000
,
00001000
01000000
00010000
00000000
,
00100000
00010000
00100000
00100000
00000000
01000000
10000000
01000000
,
00000000
00100000
01000000
00010000
00000000
00000000
00001000
00010000
,
00002000
00000000
00003020
00000000
00000032
00000000
00000103
00000001
,
00000010
00000000
00000100
00001000
00000000
00000000
00001100
00000000
,
00000100
00010000
00001000
00000000
00010000
00001000
01000000
00000000
,
00010000
01000000
00100000
00000000
10000000
00000000
00010000
00100000
,
00002000
00000000
00023000
00000000
00230000
00000000
10300000
10000000
,
00000000
00000000
10010000
00000000
,
10000000
01000000
10000000
00000000
01000000
00000000
00010000
00000000
,
00001000
00010000
00000010
00010000
,
00100000
01000000
00100000
00000000
00010000
00000000
00001000
00000000
,
00010000
00000010
00001000
00000100
,
00000010
00000001
00001000
00000000
00000100
00000000
00000010
00000000
,
00000001
00000100
00001000
00010000
,
00001000
00100000
00010000
00000000
01000000
00000000
00100000
00000000
,
10000000
01000000
00010000
00001000
,
00011000
00000000
000MM000
00000000
;

//---------------dance-double - J.Casarino----------------
#NOTES:
     dance-double:
     J.Casarino:
     Challenge:
     9:
     0.682,0.000,0.186,0.093,0.385,483.000,20.000,10.000,8.000,2.000,0.000:
00000000
00000000
00000000
00000000
,
00000000
00000000
00000000
00000000
,
00000000
00000000
00000000
00000000
,
00000000
00000000
00000000
00000000
,
10000000
00010000
01000000
00100000
01000000
00001000
00010000
00000010
,
00001000
00000010
00000100
00000001
00001000
00000000
00000010
00010000
,
00001000
01000000
00100000
10000000
01000000
00010000
00001000
00000010
,
00000110
00000000
00000MM0
00000000
00000000
00000000
00000001
00001000
00000010
00000000
00000000
00000000
00000000
00000000
00000000
00000000
,
00021200
00000000
00000000
00030300
,
00000000
00000000
00001000
00010000
00001000
00000000
01000000
00010000
01000000
00000000
00001000
00000000
00100000
00001000
00010000
00000000
,
00000010
00000000
00001000
00000100
00000000
00000010
00000001
00000000
00000002
00000000
00000100
00000000
00000100
00000000
00000103
00000000
,
00000M1M
00000000
00001000
00000010
00001000
00000000
00000100
00010000
00000100
00000000
00010000
00000000
00001000
01000000
00010000
00000000
,
00100000
00000000
01000000
10000000
00000000
00100000
01000000
00000000
02000000
00000000
00010000
00000000
00010000
00000000
03010000
00000000
,
1M0M0000
00000000
01000000
10000000
01000000
00000000
00100000
00010000
00100000
00000000
00001000
00000000
00010000
00000100
00001000
00000000
,
00000010
00000000
00010000
00001000
00000000
00010000
00000010
00000000
00000020
00000000
00000100
00000000
00000100
00000000
00000130
00000000
,
00000MM1
00000000
00000100
00000001
00000100
00000000
00000010
00001000
00000010
00000000
00010000
00000000
00001000
00010000
01000000
00000000
,
00010000
00000000
01000000
00100000
00000000
01000000
10000000
00000000
00200000
00000000
01000000
00000000
01000000
00000000
01300000
00000000
,
00010000
00000000
00100000
00010000
00100000
00000000
00001000
00100000
00001000
00000000
00010000
00001000
00010000
00000000
00010000
00000000
,
00000100
00000000
00000001
00000100
00000000
00000100
00000010
00000000
00001000
00000000
00010000
00000000
00001000
00000000
00000100
00000000
,
00000010
00000000
00010000
00001000
00100000
00000000
00010000
01000000
00100000
00000000
00010000
00001000
01000000
00000000
00010000
00000000
,
00100000
01000000
10000000
20020000
00000000
00000000
30030000
00000000
,
00010000
01000000
00010000
00100000
01000000
10000000
00100000
00010000
,
00001000
00010000
00000010
00001000
00000100
00000000
00000010
00000100
,
00001001
00001000
00000110
00000010
00001001
00000000
00000011
00000001
,
00000100
00000000
00000010
00000000
00010000
00000000
00001000
00000000
00100000
00000000
00001000
00000000
00010000
00001000
00010000
00000000
,
00001000
00010000
00100000
01000000
00100000
00010000
00001000
00000010
,
00000100
00000010
00001000
00010000
00001000
00000000
10000000
01000000
,
00100000
00010000
00100000
01000000
10000000
01000000
00010000
00001000
,
00000010
00000100
00001000
00000001
00001000
00000000
00000001
00000010
,
00001000
00000000
00000010
00000000
00000001
00000000
00000100
00000010
00000000
00001000
00000100
00000000
00010000
00000000
00001000
00000010
,
00000000
00000100
00001000
00000000
00000010
00000000
00000100
00001000
00000000
00010000
00001000
00000000
01000000
00000000
00100000
00000000
,
00010000
00000000
00100000
00000000
10000000
00000000
01000000
00100000
00000000
00001000
00010000
00000000
00000010
00000000
00010000
00001000
,
00000000
00000100
00000010
00000000
00001000
00000000
00000001
00000010
00000000
00000100
00010000
00000000
00001000
00000000
01000000
00000000
,
00010000
00000000
00100000
00000000
01000000
00000000
10000000
00100000
00000000
01000000
00010000
00000000
00100000
00000000
00001000
01000000
,
00000000
00001000
00010000
00000000
00001000
00000000
00100000
00001000
00000000
00010000
00000010
00000000
00001000
00000000
00000100
00000000
,
00000010
00000000
00000001
00000000
00000100
00000000
00000010
00000100
00000000
00001000
00010000
00000000
00001000
00000000
01000000
00100000
,
00000000
01000000
00010000
00000000
00100000
00000000
01000000
10000000
00000000
00010000
01000000
00000000
00001000
00000000
00010000
00000000
,
00020200
00000000
00000000
00000000
00000000
00000000
00000000
00000000
00001001
00030300
00000000
00000000
00000000
00000000
00000000
00000000
,
00000001
00000100
00000010
00000001
00000010
00010000
00001000
00000100
,
00001000
01000000
00001000
00010000
00100000
00000000
10000000
00010000
,
01000000
01100000
10010000
10000000
01100000
00000000
01100000
10000000
,
00010000
00000000
10000000
00000000
01000000
00000000
00010000
00000000
00001000
00000000
00010000
00000000
00001000
00010000
00001000
00000000
,
00000100
00000001
00000001
00001000
00000010
00000001
00001000
00000100
,
00000001
00000010
00001000
00010000
00001000
00000000
00010000
01000000
,
10000000
00100000
00010000
10000000
01000000
10000000
00010000
00100000
,
10000000
01000000
00010000
00001000
00010000
00000100
00010000
00000000
,
00001000
00010000
00000100
00000010
00000001
00001000
00000010
00010000
,
00001000
01000000
00001000
00010000
00000010
00000000
00010000
00001000
,
00011000
00101000
00011000
00010010
00011000
00000000
01000100
00000000
,
01000000
00000000
00010000
00000000
00100000
00000000
01000000
00000000
00100000
00000000
00001000
00000000
00010000
00001000
00010000
00000000
,
01000000
01000000
10000000
00010000
00100000
01000000
00010000
00001000
,
01000000
00100000
00010000
00001000
00000000
00010000
00001000
00000010
,
00000100
00001000
00000010
00000100
00001000
00000001
00000010
00000100
,
00000001
00000010
00000100
00001000
00000010
00010000
00001000
00100000
,
01000000
00000000
00100000
00000000
00010000
00000000
10000000
00100000
00000000
01000000
00010000
00000000
00100000
00000000
00001000
00010000
,
00000000
00000100
00001000
00000000
00000010
00000000
00000100
00000001
00000000
00000010
00000100
00000000
00001000
00000010
00000100
00000000
,
00000001
00000000
00000010
00000000
00000100
00000000
00010000
00001000
00000000
01000000
00001000
00000000
00010000
00000000
00001000
00100000
,
00000000
00001000
00010000
00000000
00001000
00000000
00100000
00010000
00000000
01000000
00001000
00000000
01000000
00100000
10000000
00000000
,
01000000
00000000
00010000
00000000
00001000
00000000
00100000
00001000
00000000
00010000
00001000
00000000
01000000
00000000
00010000
01000000
,
00000000
00001000
00010000
00000000
00000010
00000000
00001000
00000001
00000000
00000010
00000001
00000000
00000100
00000010
00001000
00000000
,
00000100
00000000
00000010
00000000
00000001
00000000
00001000
00000100
00000000
00010000
00001000
00000000
00010000
00000000
00000100
00000010
,
00000000
00000001
00001000
00000000
00000100
00000000
00001000
00000010
00000000
00010000
00001000
00000000
01000000
00000000
00010000
00000000
,
00110000
00000000
00000000
00000000
;
