#TITLE:Spacy Crazy Girl;
#SUBTITLE:;
#ARTIST:Ni Ni;
#TITLETRANSLIT:;
#SUBTITLETRANSLIT:;
#ARTISTTRANSLIT:;
#GENRE:Bubblegum Dance;
#CREDIT:;
#BANNER:Spacy Crazy Girl-banner.png;
#BACKGROUND:Spacy Crazy Girl-bg.png;
#LYRICSPATH:;
#CDTITLE:;
#MUSIC:Spacy Crazy Girl.ogg;
#OFFSET:0.014;
#SAMPLESTART:43.800;
#SAMPLELENGTH:11.840;
#SELECTABLE:YES;
#BPMS:0.000=135.000;
#STOPS:;
#BGCHANGES:0.000=Spacy Crazy Girl-bg.png=1.000=0=0=1=====,
20.000=In The Groove 2/428_JumpBack.mpg=1.000=0=0=1===FadeLeft==,
36.000=In The Groove 2/462_JumpBack.mpg=1.000=0=0=1=====,
52.000=In The Groove 2/465_JumpBack.mpg=1.000=0=0=1===FadeRight==,
68.000=In The Groove 2/614_JumpBack.mpg=1.000=0=0=1=====,
84.000=In The Groove 2/949_JumpBack.mpg=1.000=1=0=1===CrossFade==,
96.000=In The Groove 2/949_JumpBack.mpg=1.000=0=0=1=SongBgWithMovieViz====,
100.000=In The Groove 2/779_JumpBack.mpg=1.000=0=0=1=====,
116.000=In The Groove 2/428_JumpBack.mpg=1.000=0=0=1===FadeUp==,
132.000=In The Groove 2/446_JumpBack.mpg=1.000=0=0=1=====,
144.000=In The Groove 2/643_JumpBack.mpg=1.000=0=0=1=SongBgWithMovieViz====,
148.000=In The Groove 2/927_JumpBack.mpg=1.000=0=0=1=====,
164.000=In The Groove 2/446_JumpBack_1.mpg=1.000=0=0=1=====,
180.000=In The Groove 2/586_JumpBack.mpg=1.000=0=0=1===FadeRight==,
196.000=In The Groove 2/465_JumpBack.mpg=1.000=0=0=1=====,
212.000=In The Groove 2/643_JumpBack.mpg=1.000=0=0=1===FadeDown==,
224.000=Spacy Crazy Girl-bg.png=0.500=0=0=1====0^1^0^1=,
225.000=Spacy Crazy Girl-bg.png=1.000=0=0=1===FadeLeft==,
99999=-nosongbg-=1.000=0=0=0 // don't automatically add -songbackground-
;
#BGCHANGES2:32.000=flash=1.000=0=0=1====1^1^0^1=,
36.000=flash=1.000=0=0=1=====,
68.000=flash=1.000=0=0=1=====,
96.000=flash=1.000=0=0=1====1^1^0^1=,
100.000=flash=1.000=0=0=1=====,
132.000=flash=1.000=0=0=1=====,
144.000=flash=1.000=0=0=1====1^1^0^1=,
148.000=flash=1.000=0=0=1=====,
164.000=flash=1.000=0=0=1=====,
196.000=flash=1.000=0=0=1=====,
224.000=flash=1.000=0=0=1=====,
;
#KEYSOUNDS:;
// cache tags:
#FIRSTBEAT:20.000;
#LASTBEAT:232.000;
#SONGFILENAME:/Songs/In The Groove 2/Spacy Crazy Girl/Spacy Crazy Girl.sm;
#HASMUSIC:1;
#HASBANNER:1;
#MUSICLENGTH:106.666;
// end cache tags

//---------------dance-single - K. Ward----------------
#NOTES:
     dance-single:
     K. Ward:
     Medium:
     5:
     0.291,0.000,0.038,0.197,0.009,192.000,4.000,21.000,0.000,0.000,0.000:
0000
0000
0000
0000
,
0000
0000
0000
0000
,
0000
0000
0000
0000
,
0000
0000
0000
0000
,
0000
0000
0000
0000
,
2000
0100
3100
0000
,
0020
0100
0130
0000
,
0002
0010
0013
0000
,
2002
0000
0000
3003
,
1000
0000
1000
0001
0000
0000
0001
0000
,
0001
0000
0001
1000
0000
0000
1000
0000
,
0010
0000
0100
0001
0000
0000
0000
0000
,
0010
0100
0010
0000
1000
0001
1000
0000
,
0100
0100
0100
0000
,
0010
0010
0010
0000
,
0001
1000
0001
0000
0010
0000
0000
0000
,
0001
1000
0001
1000
0001
0000
0000
0000
,
0200
0000
0000
0320
0000
0000
0030
0000
,
1000
1000
0001
0001
,
0020
0000
0000
0230
0000
0300
0000
0000
,
1000
1000
0001
0001
,
0100
0010
0000
0020
0000
0000
0030
0000
,
1000
1000
0001
0001
,
0100
0010
1000
0000
,
0001
0010
0001
0010
0000
0000
0000
0000
,
1000
0100
0010
0100
1000
0000
0001
0000
,
0010
0001
0100
0010
1000
0000
0001
0000
,
0100
0010
1000
0001
0010
0000
0001
0000
,
0200
0000
0001
0310
,
1000
0000
0000
0001
0000
0000
1001
0000
0000
0000
0000
0000
0000
0000
0000
0000
,
0010
0000
0000
0100
0000
0000
1001
0000
0000
0000
0000
0000
0000
0000
0000
0000
,
0001
0100
0010
1000
,
0010
0100
0001
1000
,
0001
0001
0001
0000
0000
0000
0000
0000
,
1000
1000
1000
0000
0000
0000
0000
0000
,
0100
0100
0100
0000
0000
0000
0000
0000
,
1001
0000
0000
0000
,
2000
0100
3100
0000
,
0020
0100
0130
0000
,
0020
0001
0031
0000
,
1000
0000
0100
0000
0010
0100
0010
0000
,
0001
0000
0000
0001
0000
0000
0000
0000
,
1000
0000
0000
1000
0000
0000
0000
0000
,
0010
0100
0001
0010
,
0002
1000
2003
0001
,
3001
0000
0001
0010
0000
0000
0100
0000
,
0010
0000
0010
0001
0000
0000
1000
0000
,
0100
0000
1000
0010
0000
0000
0100
0000
,
0001
0010
0100
0000
0100
0010
0001
0000
,
1000
0100
0010
0001
,
1000
0010
0100
0001
,
1000
0000
1000
0000
0001
0000
0001
0020
,
0000
0030
0001
2000
0000
3000
0000
0000
,
0010
0100
0001
0000
0010
0000
0001
0000
,
1000
0100
1000
0000
0010
0100
0010
0000
,
1000
0000
1000
0000
0001
0010
0100
2000
,
0000
3000
0001
0020
0000
0032
0000
0000
,
0000
0000
0000
0000
,
0003
0000
0000
0000
;

//---------------dance-single - K.W----------------
#NOTES:
     dance-single:
     K.W:
     Hard:
     7:
     0.418,0.000,0.169,0.234,0.089,269.000,18.000,25.000,4.000,0.000,0.000:
0000
0000
0000
0000
,
0000
0000
0000
0000
,
0000
0000
0000
0000
,
0000
0000
0000
0000
,
0000
0000
0000
0000
,
1000
0000
0001
0000
0001
0010
0000
0100
,
0000
0011
0000
0110
0000
1100
0000
0000
,
0010
0000
0100
0000
1000
0100
0001
0000
,
0020
0000
0130
1001
,
0010
0100
0010
0000
0001
0000
0001
0000
,
1000
0100
1000
0000
0100
0000
0100
0000
,
0010
0001
0010
0000
0100
0000
0100
0000
,
1000
0100
0001
0010
0000
0010
0100
0000
,
0020
0000
0100
0130
0000
0000
0000
0000
,
0200
0000
1000
1300
0000
0000
0110
0000
,
1000
1000
0100
0010
0001
0001
0010
0000
,
0100
1000
0010
0001
,
1000
0100
0010
0100
1000
0010
0001
0010
,
1000
1000
0001
0001
,
0010
0100
1000
0001
0100
1000
0100
0001
,
0010
0010
0100
0100
,
1000
0010
0001
0010
0100
0001
0010
0001
,
2000
0000
3100
0000
0002
0010
0013
0000
,
1100
0011
1100
0110
,
0001
0100
0010
0200
0000
0000
0301
0000
,
1000
0000
0000
1000
0000
0000
1000
0000
0000
0000
0010
0000
0001
0000
0010
0000
,
1000
0000
0000
0100
0000
0000
0011
0000
0000
0000
0100
0000
0010
0000
1000
0000
,
0001
0000
0000
0001
0000
0000
0001
0000
0000
0000
0100
0000
0010
0000
0100
0000
,
0002
1000
0010
1003
,
0001
0000
0010
0001
0000
0010
0001
0000
0000
0000
0100
0000
0100
0000
0000
0000
,
0010
0000
0000
1000
0000
0000
1100
0000
0000
0000
0010
0000
0001
0000
0010
0000
,
0100
0000
0010
0001
0000
0100
0010
0000
0000
0000
0100
0000
0010
0000
1000
0000
,
2000
3100
0002
0013
,
0001
0100
1000
0100
0001
0100
1000
0000
,
1000
0100
0001
0100
1000
0100
0001
0000
,
0001
0010
0100
0010
0001
0100
1000
0100
,
0020
0100
0001
0130
,
0000
0001
0000
0100
0000
0010
0000
1000
,
0000
0100
0000
1000
0000
0001
0010
0001
,
0000
0100
0000
0010
0000
0001
0000
1000
,
1100
0000
0000
0000
0110
0000
0000
0000
0011
0000
0000
0000
1000
0100
1000
0100
,
1000
0000
0000
0010
0000
0000
0110
0000
0000
0000
0MM0
0000
0000
0000
0000
0000
,
2000
0000
0000
3200
0000
0000
0320
0000
,
0200
0030
0000
0000
0000
0000
0000
0000
0000
0000
0000
0000
0300
0000
0000
0000
,
1000
0M00
0000
0000
1100
0000
0000
0000
0001
0000
0000
0000
0011
0000
0000
0000
,
1000
000M
0100
1000
0000
0100
2000
0000
0000
0000
0100
0000
3100
0000
0000
0000
,
0001
0000
0010
0001
0000
0010
0002
0000
0000
0000
0010
0000
0013
0000
0000
0000
,
0100
0000
0010
0100
0000
0010
0200
0000
0000
0000
0010
0000
0310
0000
0000
0000
,
0001
1000
0001
0000
0100
0010
0100
0000
,
1000
0100
0001
0000
0001
0100
1000
0000
,
0100
0010
0100
0002
0010
0000
0013
0000
,
0100
0010
0100
0000
1000
0001
1000
0000
,
0010
0001
0100
1000
,
2000
3100
0200
0310
,
0010
0100
0010
0200
1000
0000
1300
0000
,
0020
0130
0002
0013
,
2002
0000
0000
0000
,
0000
0000
0000
0000
,
3003
0000
0000
0000
;

//---------------dance-single - K.W----------------
#NOTES:
     dance-single:
     K.W:
     Easy:
     3:
     0.221,0.000,0.131,0.028,0.000,148.000,14.000,3.000,0.000,0.000,0.000:
0000
0000
0000
0000
,
0000
0000
0000
0000
,
0000
0000
0000
0000
,
0000
0000
0000
0000
,
0000
0000
0000
0000
,
0001
1000
0001
0000
,
0010
0010
0010
0000
,
0001
1000
0001
1000
,
1001
0000
0000
0000
,
1000
0100
1100
0000
,
0010
0100
0110
0000
,
0001
0001
1000
1000
,
0010
0100
0010
0100
,
0001
0000
0000
0000
,
1000
0000
0000
0000
,
0010
0010
0010
0010
,
1000
0001
1001
0000
,
0010
0000
0000
0010
0000
0000
0000
0000
,
0100
0100
0100
0000
,
1000
0000
0000
1000
0000
0000
0000
0000
,
0001
0001
0001
0000
,
1000
0100
0010
0000
,
0010
0100
1000
0000
,
0001
1000
0001
1000
,
0001
0000
0000
0001
0000
0000
0000
0000
,
0100
0010
0100
0010
,
1000
1000
1000
0000
,
0001
0010
0001
0010
,
1001
0000
1000
1000
,
0010
0100
0010
0100
,
0001
0001
0001
0000
,
1000
0100
1000
0100
,
1000
0000
1001
0000
,
0010
0000
0010
0000
,
0010
0010
0010
0000
,
0100
1000
0010
0001
,
1001
0000
0000
0000
,
0000
1100
0000
0000
,
0000
0110
0000
0000
,
0000
0011
0000
0000
,
1001
0110
1001
0000
,
2000
0000
0000
3000
0000
0000
0000
0000
,
0010
0000
0010
0000
,
0100
0000
0100
0000
,
0001
0000
1000
1000
,
0001
0010
0001
0010
,
0001
1000
0001
1000
,
0001
0010
0001
0010
,
0100
0100
0100
0100
,
1000
0001
1000
0000
,
0100
0100
0100
0000
,
1000
0001
1000
1000
,
0020
0000
0130
1001
,
0001
0001
1000
1000
,
0010
0010
0010
0000
,
1000
0100
1000
0100
,
0020
0000
0000
0000
,
0000
0000
0000
0000
,
0030
0000
0000
0000
;

//---------------dance-single - K. Ward----------------
#NOTES:
     dance-single:
     K. Ward:
     Challenge:
     9:
     0.567,0.000,0.384,0.291,0.244,351.000,41.000,31.000,5.000,0.000,0.000:
0000
0000
0000
0000
,
0000
0000
0000
0000
,
0000
0000
0000
0000
,
0000
0000
0000
0000
,
0000
0000
0000
0000
,
0010
0000
0001
0000
0100
1000
0000
0100
0000
0000
0010
0000
1000
0000
0001
0000
,
1000
0000
0100
0000
0010
0001
0000
0010
0000
0000
0100
0000
1100
0000
0000
0000
,
0010
0000
0100
0000
0001
0010
0000
0000
0100
0000
1000
0000
0010
0000
0100
0000
,
1001
0000
0000
0000
0000
0000
0000
0000
0000
0000
0100
0010
0100
0010
0100
0010
,
2000
0000
3100
0100
0000
1000
0010
0100
,
0002
0000
0010
0013
0000
0001
0100
1000
,
0200
0000
0010
0310
0000
1000
0001
1000
,
0010
0000
0000
0010
0100
0000
0000
0100
0001
0000
0000
0001
0010
0000
0000
0000
,
0100
1100
0000
1001
0000
0110
0000
0011
,
0000
1100
0000
1001
0000
0010
0100
0001
,
0010
0011
0000
1100
0000
1001
0010
0110
,
0100
0011
0010
0001
0100
1000
0200
0000
,
0302
0000
0000
2003
0000
0000
3100
0010
,
0001
0010
0100
1000
0010
0100
0001
0000
,
2000
0000
0100
0200
0000
0000
3300
0000
,
0001
0010
0001
0000
0100
0010
0100
0000
0001
0000
1000
0000
1100
0000
0000
0000
,
0010
0100
0001
0020
0000
0000
0031
0000
,
0100
1000
0100
0000
0001
0010
0001
0000
,
1000
1100
0001
0011
,
0100
0010
0100
2002
0000
3003
M00M
0000
,
1000
0001
1000
0000
0010
0000
0100
0000
0000
0000
0011
0000
0011
0000
0000
0000
,
0100
0010
0100
0000
0001
0000
0010
0000
0000
0000
1100
0000
1100
0000
0000
0000
,
0010
0100
0001
0000
0010
0000
0001
0000
0000
0000
1001
0000
1001
0000
0000
0000
,
0100
1000
0100
0000
0001
0010
0001
0000
,
1000
0100
1000
0100
1000
0100
1000
0000
0000
0000
0000
0000
0000
0000
0000
0000
,
0001
0010
0001
0010
0001
0010
0001
0000
0000
0000
0000
0000
0000
0000
0000
0000
,
0100
1000
0100
0001
0010
0001
0100
1000
,
0100
0010
0100
0001
0010
0100
0110
0000
,
0002
0010
0023
0100
0230
1000
2300
0010
,
3020
0100
0230
0001
0302
0100
0203
1000
,
2300
0010
3020
0001
0032
1000
1003
0000
,
1001
0000
0000
0000
1001
0110
1001
0000
,
1000
0000
0100
0000
1000
0100
0000
1000
0100
0000
1000
0100
0000
1000
0100
0000
,
1000
0000
0010
0000
0100
0010
0000
0100
0010
0000
0100
0010
0000
0100
0010
0000
,
0100
0000
0001
0000
1000
0001
0000
1000
0001
0000
1000
0001
0000
1000
0001
0000
,
0010
0100
2000
0000
3010
0100
0002
1000
,
1003
0000
0000
0010
0000
0000
2002
0000
0000
0000
0000
0000
0000
0000
3000
0000
,
0023
0000
0000
0100
0000
0000
0001
0030
,
1001
0000
0010
0000
1001
0000
0000
1000
0000
0000
0010
0000
0000
0100
0001
0000
,
0000
0000
1000
0000
1100
0000
0000
0011
0000
0000
1100
0000
0000
0110
0000
0000
,
0001
0100
1000
0100
0001
1000
1100
0000
,
0010
0100
0001
0010
000M
0001
0011
0000
,
1000
0100
1000
0000
0010
0000
0100
0000
00M0
0000
0001
0000
0011
0000
0000
0000
,
0100
0000
0010
0000
1000
0000
0M00
0000
0010
0000
0100
0000
0001
0010
0001
0010
,
0001
1000
0010
0001
0010
0100
0001
0010
,
0001
0000
0100
0000
1000
0000
0100
0000
0010
0000
1000
0000
0100
0000
0000
0010
,
0001
1000
1001
0000
0010
0100
0110
0000
,
0001
0000
0010
0000
0100
0000
1000
0000
0100
0010
0000
0010
0001
0000
0000
0000
,
1000
0100
1000
0000
0100
0000
0010
0000
0001
0010
0001
0000
0100
0000
1000
0000
,
0100
0010
0100
0000
0001
0000
1000
0000
0010
0000
0100
0000
1001
0000
0000
0000
,
0100
0010
0100
0000
0001
0010
0001
0000
1000
0100
1000
0000
0010
0100
0001
0000
,
0020
0000
0032
2000
0003
0200
0000
0000
,
0000
0000
0000
0000
,
3300
0000
0000
0000
;

//---------------dance-double - ----------------
#NOTES:
     dance-double:
     :
     Hard:
     7:
     0.404,0.000,0.459,0.000,0.023,253.000,49.000,0.000,0.000,0.000,0.000:
00000000
00000000
00000000
00000000
,
00000000
00000000
00000000
00000000
,
00000000
00000000
00000000
00000000
,
00000000
00000000
00000000
00000000
,
00000000
00000000
00000000
00000000
,
10010000
00000000
10100000
00000000
01000000
00010000
00000000
00110000
,
00000000
11000000
00000000
00010000
00000000
00011000
00000000
00000100
,
00000100
00000000
00001001
00000000
00001000
00000100
00000010
00000001
,
00000000
00000000
00001000
00000010
00000000
00011000
00000000
10000000
,
10000000
00000000
00100000
01000000
00010000
00000000
00010000
00000000
,
00100000
01000000
10010000
00000000
,
00001000
00000000
00000001
00000100
00000001
00000000
00000010
00000000
,
00000100
00001000
00011000
00000000
,
10000000
00000000
00100000
01000000
00010000
00000000
00100000
00000000
,
01000000
10000000
00100000
00011000
,
00000001
00000000
00000010
00000100
00001000
00000000
00000010
00000000
,
00000100
00000001
00000010
00011000
,
00100000
00000000
11000000
00000000
00010000
00000000
01000000
00100000
,
10000000
00000000
01000000
00000000
00100000
00010000
00100000
00000000
,
00001000
00000000
00001010
00000000
00000100
00000000
00000001
00000010
,
00000100
00000000
00001000
00000000
00000010
00000100
00000001
00000000
,
00001000
00000000
00011000
00000000
10000000
00000000
01000000
00100000
,
00010000
00000000
01000000
00000000
00100000
10000000
00100000
00000000
,
10010000
00100000
00011000
00000010
,
00000001
00000100
00000010
00001000
00000000
00000000
00001001
00000000
,
00000001
00000000
00000000
00000001
00000000
00000000
00000001
00000000
00000000
00000000
00000100
00000000
00000010
00000000
00001000
00000000
,
00000010
00010000
00001000
00100000
00000000
01000000
10000000
00100000
,
01000000
00000000
00000000
01000000
00000000
00000000
01000000
00000000
00000000
00000000
00010000
00000000
00100000
00000000
01000000
00000000
,
10000000
00010000
01000000
00100000
00000000
10010000
00000000
10000000
,
01000000
00000000
00000000
01000000
00000000
00000000
01000000
00000000
00000000
00000000
00100000
00000000
00010000
00000000
00100000
00000000
,
00001000
00010000
00000100
00000010
00000000
00000001
00000100
00000010
,
00001000
00000000
00000000
00001000
00000000
00000000
00001000
00000000
00000000
00000000
00000100
00000000
00000010
00000000
00000001
00000000
,
00000100
00000010
00000000
00001000
00001000
00000000
00011000
00000000
,
00110000
00000000
10000000
01000000
00000000
10100000
00000000
00100000
,
01000000
00000000
00010000
00100000
00000000
11000000
00000000
10000000
,
00010000
00000000
01000000
00100000
00000000
10000000
01000000
00000000
,
00100000
00010000
00100000
00001000
00010000
00000100
00000010
00000000
,
00000101
00000000
00001010
00000000
00001000
00000100
00000000
00000011
,
00000000
00001010
00000000
00001000
00000000
00011000
00000000
10000000
,
01000000
00000000
00110000
00000000
10000000
00100000
01000000
00010000
,
00000000
00000000
00100000
01000000
00000000
10010000
00000000
00010000
,
01000000
00000000
00000000
01000000
00000000
00000000
01000000
00000000
00000000
00000000
00000000
00000000
00100000
00000000
00100000
00000000
,
10000000
01000000
00100000
00000000
,
00001000
00000100
00000010
00000000
,
01000000
00100000
10000000
00000000
,
00001000
00000000
00001001
00000000
00000110
00000000
00001000
00000100
,
00000010
00000000
00000101
00000000
00001010
00000000
00001000
00000010
,
00000100
00000000
00011000
00000000
00110000
00000000
10000000
01000000
,
00100000
00000000
10100000
00000000
01010000
00000000
10000000
00010000
,
01000000
00000000
11000000
00000000
00100000
00010000
00000000
10100000
,
00000000
00011000
00000000
00000010
00000000
00001001
00000000
00001000
,
00000001
00000000
00001010
00000000
00001000
00000001
00000100
00000010
,
00000000
00000000
00001000
00000100
00000000
00011000
00000000
10000000
,
00100000
00000000
01010000
00000000
10000000
01000000
00000000
00110000
,
00000000
10010000
00000000
00100000
00000000
00011000
00000000
00010000
,
00001000
00000000
00000011
00000000
00001000
00000001
00000100
00000010
,
00000000
00000000
00001000
00000100
00000000
00011000
00000000
00000000
;

//---------------dance-double - J.Casarino----------------
#NOTES:
     dance-double:
     J.Casarino:
     Challenge:
     9:
     0.537,0.000,0.619,0.225,0.094,311.000,66.000,24.000,33.000,1.000,0.000:
00000000
00000000
00000000
00000000
,
00000000
00000000
00000000
00000000
,
00000000
00000000
00000000
00000000
,
00000000
00000000
00000000
00000000
,
00000000
00000000
00000000
00000000
,
00000100
00000010
00000100
00001000
00010000
01000000
00000000
11000000
,
00000000
01010000
00000000
00011000
00000000
00001100
00000000
00000000
,
00000001
00000010
00000100
00000010
00000001
00000100
00000010
00001010
,
00000000
00010000
00001000
00101000
00000000
00110000
10000000
00000000
,
00200000
00000000
01000000
01000000
00000000
00000000
00300000
00010000
,
00001000
00010000
00000100
00000020
00000000
00002030
00000000
00000000
,
00023000
00000000
01000000
01000000
00000000
00030000
000M0000
00010000
,
00000100
00010000
00001000
00200000
00000000
10000000
10300000
00000000
,
00100000
00010000
02000000
00100000
00000000
03010000
00000000
10000000
,
00100000
01000000
00010000
00100000
00000000
00001000
00010000
00000010
,
00001000
00000000
00000100
00000010
00000000
00000000
00000001
00000010
,
00001000
00010000
00000010
00000001
00000010
00010000
00001000
00000000
,
00101000
00000000
01000000
10010000
00000000
10000000
00100000
00100000
,
00010000
00010000
00001000
00010000
00010100
00001000
00001010
00000000
,
00010100
00000000
00001000
01001000
00000000
00000000
00010000
00000010
,
00001001
00000000
00000110
00000000
00010100
00001000
01001000
00000000
,
00011000
00000000
00000010
00001100
00000000
00000001
00000010
00000010
,
00001000
00001000
00010000
00001000
00110000
01000000
11000000
00000000
,
10100000
M0M00000
10100000
M0M00000
00110000
00MM0000
00110000
00MM0000
,
00010000
00001000
00000100
00000100
00000000
00000001
00000010
00000100
,
00001001
00000000
00000010
00000100
00000000
00000010
00000100
00000000
00000000
00000000
00000001
00000000
00000100
00000000
00001000
00000000
,
00011000
00000000
00100000
00001000
00000000
00001000
00010000
00000000
00000000
00000000
01000000
00000000
10000000
00000000
00100000
00000000
,
01100000
00000000
10000000
00010000
00000000
10000000
00010000
00000000
00000000
00000000
10000000
00000000
01000000
00000000
00100000
00000000
,
00010000
00000000
00100000
00001000
00000000
00010000
00002000
00000000
00100000
00000000
00000000
00000000
01003000
00000000
00000000
00000000
,
00011000
00000000
01000000
00010000
00000000
01000000
00010000
00000000
00000000
00000000
10000000
00000000
00100000
00000000
10000000
00000000
,
00010000
00000000
01000000
00001000
00000000
00001000
00010000
00000000
00000000
00000000
00000010
00000000
00001000
00000000
00000100
00000000
,
00010000
00000000
00000010
00001000
00000000
00000010
00001000
00000000
00000000
00000000
00000001
00000000
00000010
00000000
00000100
00000000
,
00002000
00000010
00003010
00000200
00000000
00001300
00010000
00100000
,
10100000
00000000
11000000
00100000
00000000
01010000
00000000
00000000
,
00101000
00000000
00011000
00000100
00000000
00001010
00000000
00000000
,
00000011
00000000
00000101
00000010
00000000
00001100
00000000
00010000
,
00001000
00100000
10000000
00100000
00001000
00010000
00100000
00000000
,
01000000
00100000
01000000
00001000
00010000
00000100
00000000
00001001
,
0000M00M
00000110
00000MM0
00011000
000MM000
01100000
0MM00000
00001000
,
00010000
00000100
00000001
00000100
00010000
00000010
00001000
00001100
,
00000000
00000001
00000010
00000011
00000000
00001001
00000110
00000000
,
00000002
00000203
00002300
00203000
,
20300000
30020000
00030200
00000302
,
00002003
00203000
00300020
00000130
,
00022000
00000000
00000000
00000000
00000000
00000000
00000000
00000000
01000100
00033000
00000000
00000000
00000000
00000000
00000000
00000000
,
00011000
00000000
00001000
00010000
00000000
00010000
00001000
00000000
00000000
00000000
00000010
00000000
00000001
00000000
00000100
00000000
,
00000010
00000000
00000100
00001000
00000000
00010000
00001000
00000000
00000000
00000000
00000010
00000000
00001000
00000000
00010000
00000000
,
00000010
00000000
00010000
00001000
00000000
00010000
00001000
00000000
00000000
00000000
01000000
00000000
00100000
00000000
01000000
00000000
,
01010000
00000000
00100000
00001000
01000000
10000000
01000000
00001000
,
00100000
00001000
00010000
00000010
00000001
00000010
00000000
00010001
,
000M000M
00011000
000MM000
10001000
M000M000
00011000
000MM000
00000000
,
00100000
00001000
00000010
00001000
01000000
00001000
00000100
00000110
,
00000000
00001000
00010000
00011000
00000000
00101000
00011000
00000000
,
00100000
01000000
10000000
00100000
00010000
00001000
00000000
01000010
,
0M0000M0
00011000
000MM000
00100100
00M00M00
00011000
000MM000
00000000
,
00000010
00000001
00000010
00010000
00000100
00000001
00000100
00001100
,
00000000
00010000
00001000
00110000
00000000
11000000
20200000
00000000
,
00000000
00000000
30300000
00000000
;

//---------------dance-double - M.Emirzian----------------
#NOTES:
     dance-double:
     M.Emirzian:
     Easy:
     3:
     0.205,0.000,0.141,0.019,0.000,136.000,15.000,2.000,0.000,0.000,0.000:
00000000
00000000
00000000
00000000
,
00000000
00000000
00000000
00000000
,
00000000
00000000
00000000
00000000
,
00000000
00000000
00000000
00000000
,
00000000
00000000
00000000
00000000
,
00010000
10000000
10010000
00000000
,
00010000
10000000
10010000
00000000
,
00100000
00001000
00010000
00000100
,
00001100
00000000
00000000
00000000
,
00000010
00000100
00000001
00000000
,
00000010
00000100
00001000
00000000
,
00000001
00000100
00000010
00000000
,
00001000
00000100
00010000
00000000
,
00011000
00000000
00000000
00000000
,
01010000
00000000
00000000
00000000
,
00100000
01000000
00010000
00000000
,
10000000
01000000
00100000
00000000
,
00010000
00000000
10000000
01000000
,
00100000
00010000
01000000
00000000
,
00001000
00000000
00010000
00000000
,
00000100
00001000
00001100
00000000
,
00000001
00001000
00001001
00000000
,
00000010
00000100
00000101
00000000
,
00000010
00001000
00000100
00010000
,
00001000
00000000
10000000
00001000
,
01000000
00010000
10000000
00000000
,
01000000
00100000
00010000
00000000
,
10000000
00100000
01000000
00010000
,
00100000
00000000
00001000
00010000
,
00001000
00000000
00010000
00000100
,
00001000
00000010
00000100
00000000
,
00000001
00001000
00000001
00000000
,
00000010
00000000
00000100
00000000
,
00001100
00000000
00011000
00000000
,
01000000
00010000
10000000
00000000
,
00100000
01000000
00010000
10000000
,
01000000
00000000
00000000
00000000
,
00000000
00110000
00000000
00000000
,
00000000
00101000
00000000
00000000
,
00000000
00011000
00000000
00000000
,
00000100
00001000
00001001
00000000
,
00000010
00000000
00000000
00000000
,
00000100
00000000
00000001
00000000
,
00001000
00000000
00000100
00000000
,
00010000
00000000
00001000
01000000
,
00001000
00000000
01000000
00010000
,
01000000
00000000
00100000
10000000
,
00100000
00000000
01000000
00010000
,
00100000
00000000
00001000
00010000
,
00000100
00000000
00001000
00000000
,
00000001
00000010
00001000
00000000
,
00010000
00000100
00001000
00000000
,
00000010
00000000
00000100
00000001
,
00000100
00000000
00000010
00001000
,
00000100
00000000
00010000
00000000
,
00001000
01000000
00010000
00100000
,
20020000
00000000
00000000
00000000
,
30030000
00000000
00000000
00000000
;

//---------------dance-double - M.Emirzian----------------
#NOTES:
     dance-double:
     M.Emirzian:
     Medium:
     6:
     0.317,0.000,0.066,0.028,0.000,227.000,7.000,3.000,0.000,0.000,0.000:
00000000
00000000
00000000
00000000
,
00000000
00000000
00000000
00000000
,
00000000
00000000
00000000
00000000
,
00000000
00000000
00000000
00000000
,
00000000
00000000
00000000
00000000
,
10000000
00000000
01000000
00000000
,
00010000
00000000
00110000
00000000
,
00001000
00000000
00011000
00000000
,
00002200
00000000
00000000
00003300
,
00000010
00000000
00001000
00000001
00001000
00000000
00000000
00000000
,
00000010
00000000
00001000
00000100
00001000
00000000
00000010
00000000
,
00010000
00000000
00001000
00010000
00001000
00000000
00010000
00000000
,
00001000
00000000
01000000
00010000
01000000
00010000
01000000
00000000
,
00100000
00000000
10000000
00010000
10000000
00000000
00000000
00000000
,
01000000
00000000
00100000
00010000
00100000
00000000
00001000
00000000
,
00010000
00000000
00000100
00001000
00000100
00000000
00000010
00000000
,
00000001
00000000
00001000
00000010
00001000
00000010
00001000
00000000
,
00000001
00000000
00000100
00000010
00000100
00000010
00000100
00000000
,
00000001
00001000
00000100
00010000
,
00001000
00000000
00000000
00000000
00010000
00001000
00010000
00000000
,
01000000
00010000
00100000
01000000
,
10000000
00010000
10000000
00010000
10000000
00000000
00100000
00000000
,
01000000
00000000
00010000
00000000
10000000
01000000
10000000
00000000
,
00100000
01000000
00010000
00100000
,
01000000
00100000
00001000
00010000
,
00000100
00001000
00000100
00001000
00000100
00000000
00000010
00000000
,
00000001
00000000
00001000
00000001
00001000
00000000
00000000
00000000
,
00000010
00000100
00000001
00000000
,
00001000
00000000
00000100
00001000
00000100
00000000
00000000
00000000
,
00010000
00001000
00010000
00001000
00010000
00000000
00100000
00000000
,
10000000
00000000
00010000
10000000
00010000
00000000
00100000
00000000
,
01000000
10000000
00010000
01000000
,
00001000
00000000
00010000
00001000
00010000
00001000
00010000
00000000
,
00000100
00001000
00000000
00000000
,
00000010
00000100
00000000
00000000
,
00000001
00001000
00000000
00000000
,
00000010
00000000
00001000
00000100
00001000
00000100
00001000
00000000
,
00000010
00000000
00011000
00000000
,
00001000
00000000
01001000
00000000
,
00010000
00000000
10010000
00000000
,
00100000
00000000
10010000
00000000
,
10000000
01000000
00100000
00010000
,
01000000
00001000
00010000
00000100
,
00001000
00000010
00000100
00000001
,
00001000
00000100
00000010
00000001
00000100
00000000
00000010
00000000
,
00001000
00000100
00001000
00000010
00001000
00000100
00001000
00000000
,
00000010
00010000
00001000
01000000
,
00010000
00000000
00100000
00000000
01000000
00000000
10000000
00010000
,
01000000
00100000
10000000
00010000
01000000
00000000
00100000
00000000
,
10000000
00000000
00000000
00000000
00100000
00000000
00010000
01000000
,
00010000
00000000
00000000
00100000
00001000
00010000
00001000
00010000
,
00001000
00000000
00010000
00000000
00000100
00001000
00000100
00001000
,
00000100
00000000
00000010
00000001
00000010
00000000
00001000
00000100
,
00001000
00000000
00000001
00000000
00000100
00000000
00000010
00001000
,
00000010
00001000
00000010
00001000
00000000
00000000
00000100
00000000
,
00010000
00000000
00001000
00000000
01000000
00010000
01000000
00010000
,
01000000
00000000
00100000
10000000
01000000
00100000
00010000
00000000
,
20000000
00000000
00000000
00000000
,
30000000
00000000
00000000
00000000
;

//---------------dance-single - K. Ward----------------
#NOTES:
     dance-single:
     K. Ward:
     Beginner:
     1:
     0.079,0.000,0.019,0.000,0.000,57.000,2.000,0.000,0.000,0.000,0.000:

0000
0000
0000
0000
,
0000
0000
0000
0000
,
0000
0000
0000
0000
,
0000
0000
0000
0000
,
0000
0000
0000
0000
,
0010
0000
0010
0000
,
0000
0000
0000
0000
,
0100
0000
0100
0000
,
0000
0000
0000
0000
,
0001
0000
0000
0000
,
1000
0000
0000
0000
,
0100
0000
0000
0000
,
1000
0000
1000
0000
,
0001
0000
0000
0000
,
0010
0000
0000
0000
,
0100
0000
0000
0000
,
0010
0000
0100
0000
,
0001
0000
0000
0000
,
0000
0000
0000
0000
,
1000
0000
0000
0000
,
0000
0000
0000
0000
,
0010
0000
0010
0000
,
0010
0000
0000
0000
,
0100
0000
0100
0000
,
1001
0000
0000
0000
,
1000
0000
0000
0000
,
0001
0000
0000
0000
,
0001
0000
0000
0000
,
1000
0000
1000
0000
,
0100
0000
0000
0000
,
0010
0000
0000
0000
,
0001
0000
0000
0000
,
1000
0000
1000
0000
,
0001
0000
0000
0000
,
1000
0000
0000
0000
,
0010
0000
0000
0000
,
0100
0000
0000
0000
,
0001
0000
0000
0000
,
0000
0000
0000
0000
,
1000
0000
0000
0000
,
0000
0000
0000
0000
,
0010
0000
0010
0000
,
0010
0000
0000
0000
,
0100
0000
0100
0000
,
0100
0000
0000
0000
,
0001
0000
0000
0000
,
1000
0000
0000
0000
,
0100
0000
0000
0000
,
1000
0000
0001
0000
,
0010
0000
0000
0000
,
0010
0000
0000
0000
,
0100
0000
0000
0000
,
0100
0000
0000
0000
,
1000
0000
0000
0000
,
0001
0000
0000
0000
,
0001
0000
0000
0000
,
1001
0000
0000
0000
;
