#TITLE:Tribal Style;
#SUBTITLE:;
#ARTIST:KaW;
#TITLETRANSLIT:;
#SUBTITLETRANSLIT:;
#ARTISTTRANSLIT:;
#GENRE:Trance;
#CREDIT:;
#BANNER:Tribal Style-banner.png;
#BACKGROUND:Tribal Style-bg.png;
#LYRICSPATH:;
#CDTITLE:;
#MUSIC:Tribal Style.ogg;
#OFFSET:-0.003;
#SAMPLESTART:41.060;
#SAMPLELENGTH:13.840;
#SELECTABLE:YES;
#BPMS:0.000=140.000;
#STOPS:;
#BGCHANGES:16.000=In The Groove 2/947_JumpBack.mpg=1.000=1=0=1===CrossFade==,
32.000=In The Groove 2/754_JumpBack.mpg=1.000=0=0=1=====,
48.000=In The Groove 2/770_JumpBack.mpg=1.000=0=0=1===FadeLeft==,
60.000=In The Groove 2/770_JumpBack.mpg=1.000=0=0=1=SongBgWithMovieViz====0.5^0.5^0.5^1,
64.000=In The Groove 2/763_JumpBack.mpg=1.000=0=0=1=====,
80.000=In The Groove 2/749_JumpBack.mpg=1.000=0=0=1===FadeRight==,
96.000=In The Groove 2/763_JumpBack.mpg=1.000=0=0=1=====,
112.000=In The Groove 2/749_JumpBack.mpg=1.000=0=0=1===FadeDown==,
128.000=In The Groove 2/803_JumpBack.mpg=1.000=0=0=1=====,
144.000=In The Groove 2/959_JumpBack.mpg=1.000=0=0=1===FadeUp==,
160.000=In The Groove 2/983_JumpBack.mpg=1.000=0=0=1=====,
188.000=In The Groove 2/592_JumpBack.mpg=1.000=1=0=1=SongBgWithMovieViz==CrossFade==,
192.000=In The Groove 2/763_JumpBack.mpg=1.000=0=0=1=====0.5^0.5^0.5^1,
208.000=In The Groove 2/749_JumpBack.mpg=1.000=0=0=1===FadeLeft==,
224.000=In The Groove 2/763_JumpBack.mpg=1.000=0=0=1=====,
240.000=In The Groove 2/749_JumpBack.mpg=1.000=0=0=1===FadeDown==,
256.000=Tribal Style-bg.png=1.000=0=0=1=====,
99999=-nosongbg-=1.000=0=0=0 // don't automatically add -songbackground-
;
#BGCHANGES2:32.000=flash=1.000=0=0=1=====,
64.000=flash=1.000=0=0=1=====,
96.000=flash=1.000=0=0=1=====,
128.000=flash=1.000=0=0=1=====,
160.000=flash=1.000=0=0=1=====,
192.000=flash=1.000=0=0=1=====,
224.000=flash=1.000=0=0=1=====,
256.000=flash=1.000=0=0=1=====,
;
#KEYSOUNDS:;
// cache tags:
#FIRSTBEAT:16.000;
#LASTBEAT:260.000;
#SONGFILENAME:/Songs/In The Groove 2/Tribal Style/Tribal Style.sm;
#HASMUSIC:1;
#HASBANNER:1;
#MUSICLENGTH:116.571;
// end cache tags

//---------------dance-single - K.Ward----------------
#NOTES:
     dance-single:
     K.Ward:
     Hard:
     9:
     0.615,0.000,0.240,0.094,0.575,463.000,28.000,11.000,16.000,4.000,0.000:
0000
0000
0000
0000
,
0000
0000
0000
0000
,
0000
0000
0000
0000
,
0000
0000
0000
0000
,
0001
0000
0000
0001
0010
0000
0100
0000
1000
0000
0000
0000
1000
0000
0010
0000
,
0001
0000
0000
0000
0000
0000
0000
0001
,
0001
0000
0000
0010
0100
0000
0010
0000
1000
0000
0000
0000
0100
0000
0001
0000
,
0100
0000
0000
0000
0000
0000
0000
0000
0000
1100
0000
MM00
,
0001
0100
0000
0100
0010
0000
1000
0000
0100
0000
0010
0000
0100
0000
0000
0000
,
1000
0001
0000
0001
0010
0000
0100
0000
0010
0000
0001
0000
0010
0000
0000
0000
,
0010
0100
0000
0100
0010
0000
0100
0000
1000
0000
0010
0000
0100
0000
0000
0000
,
0001
0010
0000
0010
0001
0000
0010
0000
0100
0000
0000
0000
1001
0000
0000
0000
,
1100
0000
0000
0000
0000
0000
1000
0000
0000
0000
0000
0000
0010
0000
0000
0000
0000
0000
0001
0000
0000
0000
0000
0000
0010
0000
0000
0000
0000
0000
1000
0000
0000
0000
0000
0000
0100
0000
0000
0000
0000
0000
0000
0M00
0000
0000
0000
0000
,
0100
0000
0000
0000
0000
0000
0010
0000
0000
0000
0000
0000
0100
0000
0000
0000
0000
0000
1000
0000
0000
0000
0000
0000
0200
0000
0000
0000
0000
0000
0000
0000
0000
0000
0000
0000
0310
0000
0000
0000
0000
0000
0000
00M0
0000
0000
0000
0000
,
1000
0100
0000
0000
0100
0010
0000
0000
0010
0100
0000
0000
0100
1000
0000
0000
,
2200
0000
0001
3301
,
1000
0001
0000
0001
0010
0000
0100
0010
0000
0010
0001
0000
0100
0010
1000
0000
,
0010
0100
0000
0100
0010
0000
1000
0100
0000
0100
0010
0000
0001
0000
0011
0000
,
0001
0100
0000
0100
0010
0000
0100
0010
0000
0010
0100
0000
0001
0010
0100
0000
,
1000
0100
0000
0100
0010
0000
0010
0100
0000
0100
1000
0000
1100
0000
0000
0000
,
1000
0100
0000
0000
0100
0010
0000
0000
0010
0001
0000
0000
0001
0010
0000
0000
,
0010
0100
0000
0000
0100
1000
0000
0000
0010
0000
0001
0000
0010
0000
1000
0000
,
0100
0010
0000
0000
0010
0001
0000
0000
0001
0010
0000
0000
0010
0100
0000
0000
,
0200
0000
1000
0000
0010
0010
0310
0000
,
0010
0001
0000
0001
0010
0000
0010
0100
0000
0100
0010
0000
0100
1000
0010
0000
,
0100
0010
0000
0010
0100
0000
0001
0010
0000
0010
0100
0000
1000
0000
1001
0000
,
0001
1000
0000
1000
0100
0000
0100
0010
0000
0010
0100
0000
1000
0010
0100
0000
,
0010
0100
0000
0100
0001
0000
0010
0001
0000
0001
0010
0000
0200
0000
0000
0000
,
1300
0100
0000
0000
0100
0010
0000
0000
0010
0000
0100
0000
0010
0000
0001
0000
,
0010
0100
0000
0000
0100
1000
0000
0000
1000
0000
0010
0000
0001
0000
0010
0000
,
1000
0010
0000
0000
0010
0100
0000
0000
0001
0000
0010
0000
0100
0000
1000
0000
,
1000
0000
0000
0000
0000
0000
1100
0000
0000
0000
MM00
0000
0000
0000
0000
0110
0000
0000
0000
0000
0000
0011
0000
0000
,
1000
0000
0100
0010
0001
0000
0010
0000
0100
0000
1000
0000
0000
0000
0100
0010
,
0200
0000
1000
0000
0010
0000
1300
MMMM
,
0001
0000
0010
0100
1000
0000
0010
0000
0100
0000
0001
0000
0000
0000
0010
0100
,
0020
0000
0001
0000
0100
0000
0031
MMMM
,
1000
0000
0100
0010
0100
0000
1000
0000
0010
0000
0100
0000
0001
0000
1000
0000
,
0001
0000
0000
0100
0010
0000
1000
0000
0010
0000
0100
0000
0001
0000
0010
0100
,
1000
0000
0000
0100
0010
0000
0100
0000
0010
0000
0001
0000
0001
0000
0000
0000
,
1010
0000
0000
1100
0000
0000
0010
0000
0110
0000
0101
0000
0000
0000
0000
0000
,
0001
0010
0001
0010
0010
0100
0010
0100
,
0100
1000
0010
0100
0002
0000
0013
000M
,
1000
0100
1000
0100
0100
0010
0100
0010
,
0010
0001
0100
0001
2000
0000
3100
M000
,
1000
0000
0000
0010
0100
0000
0001
0000
0010
0000
0010
0000
0010
0000
0000
0000
,
1000
0000
0000
0001
0010
0000
0001
0000
1000
0000
1000
0000
1000
0000
0000
0000
,
1000
0000
0000
0010
0100
0000
0001
0000
0010
0000
0010
0000
0010
0000
0000
0000
,
2200
0000
0001
3301
,
1000
0001
0000
0001
0010
0000
0010
0100
0000
0100
0010
0000
0001
0010
0001
0000
,
0100
0010
0000
0010
1000
0000
1000
0100
0000
0100
0010
0000
0100
0000
1100
0000
,
1000
0010
0000
0010
0100
0000
0100
0001
0000
0001
0010
0000
0010
0001
1000
0000
,
0001
0100
0000
0100
0010
0000
0010
1000
0000
1000
0100
0000
1100
0000
0000
0000
,
1000
0100
0000
0000
0100
0010
0000
0000
0010
0001
0010
0000
0100
0000
1000
0000
,
0010
0100
0000
0000
0010
0001
0000
0000
0010
0100
0001
0000
0010
0000
0100
0000
,
1000
0010
0000
0000
0100
0001
0000
0000
1000
0100
1000
0000
0001
0000
0010
0000
,
0110
0000
0000
0000
1100
0000
0000
0001
0010
0000
0000
0010
0100
0000
0000
0000
,
1000
0100
0000
0100
1000
0000
0010
0000
0010
0000
0000
0000
0101
0000
0000
0000
,
0001
0010
0000
0010
0001
0000
0100
0000
0100
0000
0000
0000
1001
0000
0000
0000
,
1000
0100
0000
0100
1000
0000
0010
0000
0010
0000
0000
0000
0110
0000
0000
0000
,
0100
0010
0000
0010
1000
0000
0100
0000
1000
0000
0000
0000
1100
0000
0000
0000
,
0001
0010
0000
0100
0010
0000
0001
0010
0000
0100
0010
0000
1001
0000
0001
0000
,
1000
0100
0000
0010
0100
0000
1000
0100
0000
1000
0010
0000
0101
0000
0100
0000
,
0001
0010
0000
0001
0100
0000
0001
1000
0000
0100
0010
0000
1100
0000
0100
0000
,
1000
0100
0000
0100
1000
0000
0010
0000
0101
0000
0100
0000
0010
0100
0010
0000
,
1100
0000
0000
0000
;

//---------------dance-single - K. Ward----------------
#NOTES:
     dance-single:
     K. Ward:
     Medium:
     6:
     0.402,0.000,0.180,0.172,0.000,287.000,21.000,20.000,6.000,0.000,0.000:
0000
0000
0000
0000
,
0000
0000
0000
0000
,
0000
0000
0000
0000
,
0000
0000
0000
0000
,
1000
0000
0001
0010
0100
0010
0100
0000
,
2000
0000
0000
0000
3001
0000
0000
0001
,
1000
0000
0100
1000
0010
0100
0001
0000
,
0020
0000
0130
1001
,
0001
0000
1000
0100
0010
0001
0010
0000
,
0001
0000
1000
0010
0100
0010
1000
0000
,
0100
0000
1000
0100
0010
0001
0010
0000
,
0100
0000
1000
0100
1000
0000
0010
0000
,
0011
0000
0001
0010
0100
1000
0020
0000
,
1030
0000
0001
0100
0010
0100
0002
0000
,
0013
0100
1000
0010
,
1001
0000
0110
0110
,
1000
0000
0010
0100
0000
0001
0010
0100
,
0010
0000
0100
1000
0000
0010
0100
0001
,
0010
0000
0001
0001
0000
0100
0010
1000
,
1000
0100
0010
0011
,
1000
0000
0010
0100
0000
0001
0010
0001
,
0100
0000
0010
1000
0000
0100
0010
0100
,
0010
0001
0100
0001
,
0011
0000
0011
0000
0000
00MM
1100
0000
,
1000
0000
0100
0020
0000
0000
0130
0000
,
1000
0000
1000
0020
0000
0000
0130
0000
,
0001
0000
0010
0200
0000
0000
1300
0000
,
1000
0000
0010
0000
1000
0100
1000
0000
,
0001
0001
1000
1000
,
0010
0100
0010
0000
1000
0000
1000
0000
,
0001
0010
0001
0000
0100
0000
0010
0000
,
2100
0M00
3100
0000
,
0100
0010
0001
0000
0001
0010
0100
0000
,
2000
0010
0010
3010
,
0001
1000
0100
0000
1000
0100
0010
0000
,
0002
0010
0010
0013
,
0100
1000
0010
0000
0100
0001
0010
0000
,
0100
1000
0100
1000
0001
0000
0001
0000
,
0010
0001
0100
0000
0010
1000
0100
0000
,
0010
0001
0010
0000
0011
0000
0000
0000
,
0000
1000
0200
0000
0300
0010
0200
0000
,
0300
1000
0001
0000
1000
0000
1001
0000
,
0000
0001
0020
0000
0030
0100
0020
0000
,
0030
0001
1000
0000
0001
0000
0011
0000
,
0100
0100
0010
0000
1000
1000
0010
0000
,
0100
0100
0001
0000
0010
0000
0011
0000
,
0001
1000
0001
1000
0001
1000
0001
1000
,
0020
0000
0130
0110
,
0001
0000
0100
0010
0000
0100
0010
1000
,
0100
0000
0010
0001
0000
0100
0010
1000
,
0100
0000
1000
1000
0000
0010
0100
0001
,
0001
0010
0100
1100
,
0001
0000
0100
0010
0000
1000
0100
1000
,
0010
0000
0100
0001
0000
0010
0100
0010
,
0100
1000
0010
0100
,
0001
0000
0101
0000
0000
0MM0
1000
0000
,
0002
0000
0000
0013
0000
0000
1100
0000
,
2000
0000
0000
3100
0000
0000
0110
0000
,
0100
0000
0010
0200
0000
0000
0310
0000
,
1000
0000
0001
2000
0000
0000
3100
0000
,
1000
1000
0001
0001
,
0100
0000
0100
0000
0001
1000
0001
1000
,
0010
0010
0100
0100
,
0012
00M0
0013
0100
,
1001
0000
0000
0000
;

//---------------dance-single - K. Ward----------------
#NOTES:
     dance-single:
     K. Ward:
     Easy:
     3:
     0.218,0.000,0.034,0.017,0.000,172.000,4.000,2.000,0.000,0.000,0.000:
0000
0000
0000
0000
,
0000
0000
0000
0000
,
0000
0000
0000
0000
,
0000
0000
0000
0000
,
1000
0000
0100
0000
,
0010
0000
0000
0000
,
0010
0000
0100
0000
,
1000
0000
0000
0000
,
0001
0000
0010
0000
,
0100
0000
0100
0000
,
1000
0000
0010
0000
,
0100
0000
0100
0000
,
0001
0000
1000
1000
,
0010
0000
0100
0100
,
0010
0000
1000
1000
,
0001
0000
0000
0000
,
1000
0010
0000
1000
,
0010
0100
0000
0100
,
0010
1000
0000
1000
,
0001
0000
0001
0000
,
0001
0010
0000
0010
,
0001
0100
0000
0010
,
0001
0010
0000
0010
,
0001
0000
1000
1000
,
0010
1000
0010
0000
,
0001
1000
0001
0000
,
1000
0100
1000
0000
,
0001
1000
0001
0000
,
1001
0000
1000
0000
,
1001
0000
0001
0000
,
1000
0000
0010
0000
,
0100
0000
0001
0000
,
0001
1000
1000
0000
,
1000
0001
0001
0000
,
0001
0100
0100
0000
,
0100
0001
0001
0000
,
1000
0010
0010
0010
,
0100
0010
0010
0010
,
1000
0010
0010
0010
,
0100
0000
0010
0000
,
1000
0100
1000
0100
,
0010
0100
0010
0100
,
0001
0100
0001
0100
,
0010
0100
1000
0100
,
0010
0001
0010
0001
,
0010
0100
0010
0100
,
0010
1000
0010
0100
,
2002
0000
3000
0003
,
1000
0100
0000
0100
,
1000
0010
0000
0010
,
1000
0001
0000
0001
,
1000
1000
1000
0000
,
0100
0000
0010
0000
,
0010
0000
0100
0000
,
0100
0100
1000
0000
,
0001
0001
0001
0001
,
1000
0010
0001
0000
,
0001
0010
1000
0000
,
1000
0010
0001
0000
,
0100
1000
0100
0000
,
0001
0010
0001
0001
,
0100
0001
0100
0100
,
0001
1000
0001
0001
,
1000
0000
0010
0000
,
0110
0000
0000
0000
;

//---------------dance-single - C. Foy----------------
#NOTES:
     dance-single:
     C. Foy:
     Challenge:
     10:
     0.837,0.000,0.335,0.335,0.926,605.000,39.000,39.000,2.000,0.000,0.000:
0000
0000
0000
0000
,
0000
0000
0000
0000
,
0000
0000
0000
0000
,
0000
0000
0000
0000
,
1010
0000
1000
0001
0100
0000
0010
0000
0010
0000
1000
0000
0100
0000
0100
0000
,
1100
0000
1001
0000
0101
0000
0000
1001
,
1000
0000
0001
0100
0010
0000
0010
0000
1000
0000
0100
0000
0010
0000
0001
0000
,
0011
0000
1001
0000
1100
0000
1010
1000
,
1001
0000
1000
0100
1000
0000
0001
0100
0001
1000
0001
0010
0001
1000
0001
0000
,
1000
0010
1000
0001
1000
0000
0001
1000
0000
0010
1000
0000
0001
1000
0001
0000
,
1000
0010
1000
0001
1000
0000
0100
1000
0000
0010
1000
0010
0100
0010
1000
0000
,
0100
0010
0100
1000
0100
0000
0010
0001
0000
1000
0001
0000
1000
0100
1000
0000
,
0001
0010
0001
0010
0001
0000
0001
1000
0000
0010
0100
0010
1000
0010
0100
0000
,
0001
0010
0001
1000
0001
0000
1000
0001
0000
0010
0001
0000
1000
0100
1000
0000
,
0100
0010
0100
1000
0100
0000
1000
0010
0000
1000
0100
1000
0001
1000
0010
0000
,
1000
0010
0000
0100
0001
0000
0100
0001
1000
0001
1000
0000
0001
1000
0001
0000
,
0010
0100
0000
1000
0100
0000
1000
0010
0000
0100
0001
0000
0010
0100
0010
0000
,
0100
1000
0000
0001
0100
0000
0010
1000
0000
0100
1000
0000
0020
0000
0100
0030
,
0001
1000
0000
0100
1000
0000
0010
0100
0000
0001
0010
0000
0001
1000
0001
0000
,
0100
0010
0000
0100
0001
0000
0010
0002
0000
0000
0100
0003
0010
1000
0010
0000
,
1000
0100
1000
0001
1000
0000
0010
0100
0000
0001
0100
0000
0010
0100
0010
0000
,
0100
0001
0000
1000
0010
0000
1000
0001
0000
0100
0001
0000
1000
0010
1000
0000
,
0001
0010
0000
0100
1000
0000
0001
0010
0000
0001
0100
0000
0010
0100
0010
0000
,
1000
0010
0000
0100
0001
0000
1000
0010
1000
0001
1000
0000
0001
0010
0001
0000
,
0100
0001
0000
0010
0001
0000
1000
0010
0000
0100
0001
0000
0010
0001
0010
0000
,
0100
1000
0000
0100
0010
0000
0001
0010
0000
0001
1000
0000
0002
0000
0100
0003
,
0010
1000
0000
0100
0010
0000
0100
1000
0000
0001
0100
0000
0001
0100
0001
0000
,
0010
0100
0000
0010
0001
0000
1000
0200
0000
0000
0010
0300
0100
0010
0100
0000
,
0010
0001
0010
0001
0010
0000
0001
1000
0000
0010
1000
0000
0001
0100
0001
0000
,
0010
0001
0000
0100
0010
0000
1000
0100
0000
0010
0100
0000
1000
0100
1000
0000
,
0010
0100
0000
0001
0100
0000
0010
1000
0000
0010
0100
0000
0001
0010
0001
0000
,
1000
0100
0000
0010
0100
0000
1000
0001
1000
0001
1000
0000
0001
1000
0001
0000
,
1000
0000
0001
0100
0010
0000
1000
0000
0100
0000
0010
0000
0001
0000
0100
0010
,
2000
3000
1001
0000
2200
3300
0011
0000
,
0101
0000
0010
1000
0100
0000
0010
0000
0001
0000
0100
0000
0010
0000
1000
0010
,
0200
0000
0000
0300
1010
0000
0000
0000
0202
0000
0000
0303
0011
0000
0000
0000
,
1000
0100
1000
0100
1000
0000
0010
0000
0100
0000
1000
0000
0100
0000
0001
0000
,
2002
0000
0000
3003
0110
0000
0000
0000
2020
0000
0000
3030
0101
0000
0000
0001
,
0200
0000
0000
0310
1000
0000
0100
0000
0001
0000
0100
0000
1000
0000
0010
0000
,
2000
0000
0000
3010
0100
0000
0100
0000
0001
0100
0010
0000
1000
0010
0100
0000
,
2001
0000
0100
3000
0010
0000
0100
0000
1002
0000
1000
0003
0001
0000
1000
0000
,
0210
0000
0001
0300
1000
0000
0100
0000
1001
0000
0000
0000
0021
0000
0100
0030
,
1200
0000
0010
0300
0001
0000
0100
0000
2001
0000
0100
3000
1000
0000
0010
0000
,
0201
0000
0010
0300
1000
0000
0100
0000
1001
0000
0000
0000
2010
0000
0001
3000
,
0100
0010
1000
0100
0010
0000
0001
0000
0201
0000
0010
0300
1000
0000
0100
0000
,
1002
0000
0100
0003
0010
0000
1000
0000
0201
0000
0010
0300
1000
0000
0100
0000
,
2020
0000
3030
0000
0012
0000
0100
0003
2020
0000
3030
0000
0102
0000
1000
0003
,
0010
1000
0000
1000
0010
0000
0010
0100
0001
1000
0001
0000
1000
0001
1000
0000
,
1000
0100
0000
0100
0010
0000
0010
0001
0000
0001
0100
0000
0010
1000
0100
0000
,
0100
1000
0000
1000
0001
0000
0001
1000
0000
1000
0100
0000
0020
0000
0001
0030
,
1000
0100
0000
0100
0010
0000
0010
0001
0000
0001
0100
0000
0010
1000
0100
0000
,
0100
0010
0000
0010
0001
0000
0001
0200
0000
0000
0010
0300
1000
0100
0010
0000
,
0010
0001
0000
0001
0100
0000
0100
0010
0000
0010
1000
0000
0010
1000
0001
0000
,
0001
0100
0000
0100
0010
0000
0010
1000
0000
1000
0100
0000
0010
0100
1000
0000
,
1000
0001
0000
0001
0100
0000
0100
0001
0000
0001
0010
0000
0010
0001
1000
0000
,
1000
0001
0000
0001
1000
0000
1000
0100
0010
0100
1000
0000
1000
0010
0100
0000
,
0100
0001
0000
0001
0100
0000
0100
0010
0000
0010
1000
0000
1000
0001
0100
0000
,
0100
0010
0000
0010
1000
0000
1000
0100
0000
0100
1000
0000
1000
0010
0100
0000
,
0100
0001
0000
0001
0010
0000
0010
0200
0000
0000
0010
0300
0010
0001
0100
0000
,
0100
0010
0000
0010
0100
0000
0100
0001
0000
0001
0100
0000
0100
0010
1000
0000
,
1000
0100
0000
1000
0010
0000
0010
0100
0000
0001
0100
0000
0100
0010
1000
0000
,
1000
0100
0000
0100
0010
0000
0100
1000
0000
1000
0001
0000
0100
0010
1000
0000
,
1000
0100
0000
0010
0001
0000
0001
0200
0000
0000
0010
0300
0010
0100
0001
0000
,
0001
0010
0000
0100
0010
0000
0010
0001
0100
0010
1000
0000
1000
0100
0010
0000
,
2002
0MM0
0000
0000
0000
0000
0000
0000
3003
0000
0000
0000
0000
0000
0000
0000
;

//---------------dance-single - K. Ward----------------
#NOTES:
     dance-single:
     K. Ward:
     Beginner:
     1:
     0.099,0.000,0.043,0.000,0.000,76.000,5.000,0.000,0.000,0.000,0.000:

0000
0000
0000
0000
,
0000
0000
0000
0000
,
0000
0000
0000
0000
,
0000
0000
0000
0000
,
0001
0000
0000
0000
,
0000
0000
0000
0000
,
0001
0000
0000
0000
,
0000
0000
0000
0000
,
1000
0000
0000
0000
,
1000
0000
0000
0000
,
1000
0000
0000
0000
,
1000
0000
0000
0000
,
0010
0000
0000
0000
,
0010
0000
0000
0000
,
0010
0000
0000
0000
,
1001
0000
0000
0000
,
0001
0000
1000
0000
,
0001
0000
1000
0000
,
0001
0000
1000
0000
,
0001
0000
1000
0000
,
0010
0000
0000
0000
,
0010
0000
0000
0000
,
0010
0000
0000
0000
,
0100
0000
0000
0000
,
0001
0000
0100
0000
,
0001
0000
0100
0000
,
0001
0000
0100
0000
,
0001
0000
0000
0000
,
1000
0000
0100
0000
,
1000
0000
0100
0000
,
1000
0000
0100
0000
,
1000
0000
0000
0000
,
1001
0000
0000
0000
,
0000
0000
0000
0000
,
1001
0000
0000
0000
,
0000
0000
0000
0000
,
1000
0000
1000
0000
,
1000
0000
0000
0000
,
0001
0000
0001
0000
,
0001
0000
0000
0000
,
1000
0000
0000
0000
,
0000
0000
0000
0000
,
0100
0000
0000
0000
,
0000
0000
0000
0000
,
0010
0000
0000
0000
,
0000
0000
0000
0000
,
0100
0000
0000
0000
,
1001
0000
0000
0000
,
0001
0000
0001
0000
,
0001
0000
0001
0000
,
1000
0000
1000
0000
,
1000
0000
1000
0000
,
0010
0000
0010
0000
,
0010
0000
0000
0000
,
0010
0000
0010
0000
,
0010
0000
0000
0000
,
0001
0000
0001
0000
,
1000
0000
1000
0000
,
0001
0000
0001
0000
,
1000
0000
1000
0000
,
0010
0000
0000
0000
,
0100
0000
0000
0000
,
0010
0000
0000
0000
,
0100
0000
0000
0000
,
1001
0000
0000
0000
;

//---------------dance-double - M.Emirzian----------------
#NOTES:
     dance-double:
     M.Emirzian:
     Easy:
     3:
     0.223,0.000,0.129,0.172,0.000,147.000,15.000,20.000,0.000,0.000,0.000:
00000000
00000000
00000000
00000000
,
00000000
00000000
00000000
00000000
,
00000000
00000000
00000000
00000000
,
00000000
00000000
00000000
00000000
,
00000010
00000000
00000010
00000000
,
00000010
00000000
00000000
00000000
,
00000100
00000000
00000100
00000000
,
00000100
00000000
00000000
00000000
,
00001000
00000000
00000000
00010000
,
00001000
00000000
00000000
00001000
,
01000000
00000000
00000000
01000000
,
00100000
00000000
10000000
10000000
,
01000000
00000000
00000000
00010000
,
00001000
00000000
00000000
00010000
,
00000100
00000000
00000010
00000000
,
00002002
00000000
00000000
00003003
,
00001001
00001000
00000000
00000001
,
00000100
00000010
00000000
00000100
,
00000010
00001000
00000000
00000100
,
00010000
00000000
00001000
00001000
,
00010000
00010000
00000000
00001000
,
00100000
00010000
00000000
00100000
,
00010000
10000000
00000000
00010000
,
00010000
00000000
10000000
10000000
,
10010000
00010000
00000000
10000000
,
01000000
00100000
00000000
01000000
,
00100000
00010000
00000000
01000000
,
00001000
00000000
00010000
00010000
,
00001000
00001000
00000000
00010000
,
00000010
00001000
00000000
00000010
,
00001000
00000001
00000000
00001000
,
00001000
00000000
00000001
00000001
,
00001001
00000000
00000001
00000000
,
00000010
00000000
00000100
00000100
,
00000100
00000000
00010000
00000000
,
00001000
00000000
01000000
00010000
,
10000000
00000000
10000000
00000000
,
00100000
00000000
01000000
01000000
,
01000000
00000000
00001000
00000000
,
00010000
00000000
00000100
00001000
,
00002002
00000000
00000000
00003003
,
00000220
00000000
00000000
00000330
,
00002002
00000000
00000000
00003003
,
00002200
00000000
00000000
00003300
,
00022000
00000000
00000000
00033000
,
02002000
00000000
00000000
03003000
,
02200000
00000000
00000000
03300000
,
20020000
00000000
00000000
30030000
,
10010000
00010000
00000000
10000000
,
00100000
01000000
00000000
00100000
,
01000000
00010000
00000000
00100000
,
00001000
00000000
00010000
00010000
,
00001000
00001000
00000000
00010000
,
00000100
00001000
00000000
00000100
,
00001000
00000001
00000000
00001000
,
00001000
00000000
00000001
00000001
,
00001001
00001000
00000000
00000001
,
00000010
00000100
00000000
00000010
,
00000100
00001000
00000000
00000010
,
00010000
00000000
00001000
00001000
,
00010000
00010000
00000000
00001000
,
01000000
00010000
00000000
01000000
,
00010000
10000000
00000000
00010000
,
00010000
00000000
10000000
10000000
,
20020000
00000000
00000000
00000000
,
30030000
00000000
00000000
00000000
;

//---------------dance-double - M.Emirzian----------------
#NOTES:
     dance-double:
     M.Emirzian:
     Medium:
     5:
     0.360,0.000,0.094,0.172,0.000,263.000,11.000,20.000,0.000,0.000,0.000:
00000000
00000000
00000000
00000000
,
00000000
00000000
00000000
00000000
,
00000000
00000000
00000000
00000000
,
00000000
00000000
00000000
00000000
,
00001000
00010000
00000100
00010000
,
00001000
00000000
00000000
00000000
,
00010000
00001000
01000000
00001000
,
00010000
00000000
00000000
00000000
00000000
00000000
01000000
10000000
,
00010000
00000000
01000000
00000000
00010000
01000000
00010000
00000000
,
00100000
00000000
00010000
00000000
01000000
00010000
01000000
00000000
,
00001000
00000000
00010000
00000000
00000100
00001000
00000100
00000000
,
00001000
00000000
00000010
00000000
00001000
00000100
00001000
00000000
,
00000010
00000000
00001000
00000000
00000100
00000010
00000100
00000000
,
00001000
00000000
00000001
00000000
00000100
00000010
00000100
00000000
,
00000001
00000000
00001000
00000000
00000100
00001000
00000100
00000000
,
00022000
00000000
00000000
00033000
,
01000000
00000000
00010000
00000000
01000000
00000000
00100000
10000000
,
00100000
00000000
01000000
00000000
00010000
00000000
10000000
00100000
,
10000000
00000000
00010000
00000000
01000000
00000000
00001000
00010000
,
00001000
00000000
00010000
00000000
00000100
00000000
00001000
00000010
,
00001000
00000000
00000001
00000000
00000100
00000000
00000010
00001000
,
00000010
00000000
00000100
00000000
00000001
00000000
00001000
00000100
,
00001000
00000000
00000001
00000000
00000010
00000000
00000100
00001000
,
00000100
00000000
00010000
00000000
00001000
00000000
01000000
00010000
,
01000000
00000000
00100000
00000000
10000000
00000000
01000000
00100000
,
01000000
00000000
10000000
00000000
00010000
00000000
01000000
00100000
,
01000000
00000000
00010000
00000000
00100000
00000000
00001000
00010000
,
00001000
00000000
00010000
00000000
00000100
00000000
00000010
00000100
,
00000010
00000000
00000001
00000000
00000100
00000000
00000010
00000100
,
00000010
00000000
00001000
00000000
00000100
00000000
00010000
00001000
,
00010000
00000000
00000100
00000000
00001000
00000000
00000001
00000100
,
00000001
00000000
00001001
00000000
,
00000100
00000000
00000010
00010000
00001000
01000000
00000000
00010000
,
01000000
00100000
10000000
01000000
,
00100000
00000000
00010000
01000000
00001000
00010000
00000000
00000100
,
00001000
00000001
00000010
00000100
,
00001000
00000000
00000001
00000100
00000010
00001000
00000100
00010000
,
00001000
00010000
00001000
01000000
,
00010000
00000000
01000000
00100000
10000000
00010000
00100000
00001000
,
00010000
00000100
00001000
00000010
,
00000100
00000000
00002002
00003003
,
00000100
00000000
00002200
00003300
,
00010000
00000000
02020000
03030000
,
00100000
00000000
22000000
33000000
,
00010000
00000000
00022000
00033000
,
00000010
00000000
00000202
00000303
,
00001000
00000000
00022000
00033000
,
02020000
00000000
00000000
03030000
,
00100000
00000000
10000000
00000000
00010000
00000000
00100000
01000000
,
00100000
00000000
00010000
00000000
01000000
00000000
00100000
01000000
,
00100000
00000000
01000000
00000000
00001000
00000000
00010000
00001000
,
00010000
00000000
00000100
00000000
00001000
00000000
00000001
00000010
,
00000001
00000000
00001000
00000000
00000100
00000000
00000010
00000001
,
00000010
00000000
00000100
00000000
00001000
00000000
00000100
00010000
,
00000100
00000000
00010000
00000000
00001000
00000000
01000000
00010000
,
01000000
00000000
00010000
00000000
00100000
00000000
00010000
01000000
,
00010000
00000000
00100000
00000000
00010000
00000000
00100000
00001000
,
00100000
00000000
00001000
00000000
00010000
00000000
00000010
00001000
,
00000010
00000000
00001000
00000000
00000100
00000000
00001000
00000010
,
00001000
00000000
00000100
00000000
00001000
00000000
00000001
00000100
,
00000001
00000000
00001000
00000000
00000010
00000000
00000100
00000001
,
00000100
00000000
00000010
00000000
00001000
00000000
00000100
00010000
,
00000100
00000000
00010000
00000000
00001000
00000000
01000000
00010000
,
01000000
00000000
00100000
00000000
10000000
00000000
01000000
00100000
,
20020000
00000000
00000000
00000000
,
30030000
00000000
00000000
00000000
;

//---------------dance-double - M.Emirzian----------------
#NOTES:
     dance-double:
     M.Emirzian:
     Hard:
     9:
     0.654,0.000,0.051,0.103,0.686,516.000,6.000,12.000,0.000,0.000,0.000:
00000000
00000000
00000000
00000000
,
00000000
00000000
00000000
00000000
,
00000000
00000000
00000000
00000000
,
00000000
00000000
00000000
00000000
,
00100000
00000000
10000000
00010000
10000000
00000000
00001000
00000001
,
00001000
00000000
00000000
00000000
00000000
00000000
00000000
00000010
,
00000100
00000000
00000001
00001000
00000001
00000000
00010000
10000000
,
00010000
00000000
01000000
00000000
00100000
00000000
10000000
01000000
,
00100000
00000000
00000000
00010000
00000000
00000000
10000000
00000000
00000000
01000000
00000000
00000000
00100000
00000000
01000000
00000000
,
10000000
00000000
00000000
00010000
00000000
00000000
01000000
00000000
00000000
00001000
00000000
00000000
00010000
00000000
00000100
00000000
,
00001000
00000000
00000000
00000010
00000000
00000000
00000100
00000000
00000000
00000010
00000000
00000000
00001000
00000000
00000001
00000000
,
00000010
00000000
00000000
00000100
00000000
00000000
00001000
00000000
00000000
00000010
00000000
00000000
00000100
00000000
00000001
00000000
,
00000010
00000100
00000000
00010000
00000000
00001000
00000100
00000000
00001000
00010000
00000000
00100000
00000000
00010000
00001000
00000000
,
01000000
00100000
00000000
10000000
00000000
01000000
00100000
00000000
00001000
00010000
00000000
01000000
00000000
00010000
00001000
00000000
,
01000000
00100000
00000000
10000000
00000000
01000000
00100000
00000000
00010000
01000000
00000000
00100000
00000000
10000000
01000000
00000000
,
00120000
00000000
00000000
00000000
00000000
00000000
00000000
00000000
10000000
00000000
10000000
00000000
10000000
00030000
10000000
00000000
,
00100000
01000000
00000000
01000000
00010000
00000000
00010000
10000000
00000000
10000000
01000000
00000000
00100000
00000000
00010000
00000000
,
01000000
00001000
00000000
00001000
00010000
00000000
00010000
00000100
00000000
00000100
00000010
00000000
00000001
00000000
00001000
00000000
,
00000010
00000100
00000000
00000100
00000001
00000000
00000001
00000010
00000000
00000010
00000100
00000000
00001000
00000000
00000010
00000000
,
00010000
00001000
00000000
00001000
00000100
00000000
00000100
00001000
00000000
00001000
00010000
00000000
01000000
00000000
10000000
00000000
,
00010000
01000000
00000000
01000000
00100000
00000000
00100000
10000000
00000000
10000000
01000000
00000000
00100000
00000000
00001000
00000000
,
00010000
01000000
00000000
01000000
00010000
00000000
00010000
00001000
00000000
00001000
00000100
00000000
00000001
00000000
00000010
00000000
,
00000100
00001000
00000000
00001000
00000010
00000000
00000010
00000100
00000000
00000100
00000001
00000000
00001000
00000000
00000100
00000000
,
00010000
00001000
00000000
00001000
01000000
00000000
01000000
00100000
00000000
00100000
01000000
00000000
00010000
00000000
00100000
00000000
,
01000000
10000000
00000000
10000000
01000000
00000000
01000000
00100000
00000000
00100000
00010000
00000000
01000000
00000000
00001000
00000000
,
00010000
00000100
00000000
00000100
00001000
00000000
00001000
00000100
00000000
00000100
00010000
00000000
00001000
00000000
00000100
00000000
,
00000001
00001000
00000000
00001000
00000100
00000000
00000100
00000010
00000000
00000010
00000001
00000000
00000100
00000000
00000010
00000000
,
00001000
00000100
00000000
00000100
00010000
00000000
00010000
00001000
00000000
00001000
00000010
00000000
00001000
00000000
00010000
00000000
,
00001000
00100000
00000000
00100000
01000000
00000000
01000000
10000000
00000000
10000000
00100000
00000000
01000000
00000000
00100000
00000000
,
10000000
01000000
00000000
01000000
00100000
00000000
00100000
00010000
00000000
00010000
01000000
00000000
00001000
00000000
00010000
00000000
,
00000100
00001000
00000000
00001000
00000010
00000000
00000010
00000100
00000000
00000100
00000001
00000000
00000010
00000000
00000100
00000000
,
00002000
00003020
00000230
00000302
,
00000013
00000000
00000100
00001000
00000100
00000000
00010000
00000000
00001000
00000000
01000000
00000000
00000000
00000000
00010000
01000000
,
00010000
00000000
00000000
00100000
00000000
00000000
01000000
00000000
10000000
00000000
00100000
00000000
00010000
00000000
00100000
00000000
,
10000000
00000000
01000000
00100000
01000000
00000000
10000000
00000000
00010000
00000000
01000000
00000000
00000000
00000000
00001000
01000000
,
00001000
00000000
00000000
00010000
00000000
00000000
00001000
00000000
00000100
00000000
00000010
00000000
00000100
00000000
00001000
00000000
,
00010000
00000000
00000100
00010000
00000100
00000000
00001000
00000000
00000010
00000000
00000100
00000000
00000001
00000000
00001001
00000000
,
00000110
00000000
00000000
00000100
00000000
00000000
00000010
00000000
00001000
00000000
00000100
00000000
00010000
00000000
00001000
01000000
,
00010000
00000000
10000000
00010000
10000000
00000000
00100000
00000000
01000000
00000000
00010000
00000000
00100000
00000000
01100000
00000000
,
00020000
00230000
02300000
23000000
,
30010000
01000000
00100000
10000000
01000000
00100000
01000000
10000000
,
00100000
01000000
00100000
10000000
00010000
01000000
00001000
00010000
,
00000100
00000010
00000100
00001000
00000001
00000100
00000010
00000100
,
00000001
00000010
00001000
00010000
00100000
10000000
01000000
00100000
,
01000000
10000000
00100000
00010000
00001000
00000010
00000100
00001000
,
00000010
00000100
00000010
00100000
01000000
00100000
00010000
01000000
,
00100000
01000000
00001000
00000010
00000100
00000010
00000001
00000100
,
00001002
00000000
00000000
00000000
00000000
00000000
00000000
00000000
00000100
00000000
00000100
00000000
00000100
00000003
00000100
00000000
,
00000010
00001000
00000000
00001000
00000100
00000000
00000100
00010000
00000000
00010000
00001000
00000000
00000100
00000000
00001000
00000000
,
00010000
00001000
00000000
00001000
01000000
00000000
01000000
00010000
00000000
00010000
00100000
00000000
01000000
00000000
10000000
00000000
,
01000000
00100000
00000000
00100000
00001000
00000000
00001000
00010000
00000000
00010000
00000100
00000000
00001000
00000000
00000010
00000000
,
00000100
00000001
00000000
00000001
00000010
00000000
00000010
00000100
00000000
00000100
00001000
00000000
00000001
00000000
00000100
00000000
,
00001000
00010000
00000000
00010000
01000000
00000000
01000000
10000000
00000000
10000000
00100000
00000000
01000000
00000000
00100000
00000000
,
10000000
01000000
00000000
01000000
00100000
00000000
00100000
01000000
00000000
01000000
00010000
00000000
00001000
00000000
00000100
00000000
,
00001000
00010000
00000000
00010000
00000100
00000000
00000100
00001000
00000000
00001000
00000010
00000000
00000100
00000000
00000001
00000000
,
00000010
00000100
00000000
00000100
00001000
00000000
00001000
00000001
00000000
00000001
00000100
00000000
00001000
00000000
00010000
00000000
,
00000100
00010000
00000000
00010000
00001000
00000000
00001000
00100000
00000000
00100000
00010000
00000000
01000000
00000000
10000000
00000000
,
01000000
00010000
00000000
00010000
10000000
00000000
10000000
01000000
00000000
01000000
00010000
00000000
00001000
00000000
00000100
00000000
,
00000010
00001000
00000000
00001000
00000100
00000000
00000100
00000010
00000000
00000010
00000100
00000000
00001000
00000000
00000001
00000000
,
00000100
00001000
00000000
00001000
00010000
00000000
00010000
01000000
00000000
01000000
00010000
00000000
00001000
00000000
00010000
00000000
,
00100000
10000000
00000000
10000000
00010000
00000000
00010000
01000000
00000000
01000000
00100000
00000000
10000000
00000000
01000000
00000000
,
00100000
00001000
00000000
00001000
00010000
00000000
00010000
00000010
00000000
00000010
00000100
00000000
00000001
00000000
00000010
00000000
,
00000100
00001000
00000000
00001000
00000001
00000000
00000001
00000100
00000000
00000100
00001000
00000000
00010000
00000000
01000000
00000000
,
10000000
00100000
00000000
00100000
00010000
00000000
00010000
00001000
00000000
00001000
00000010
00000000
00000001
00000000
00000100
00000000
,
00002020
00000000
00000000
00000000
,
00003030
00000000
00000000
00000000
;

//---------------dance-double - J.Casarino----------------
#NOTES:
     dance-double:
     J.Casarino:
     Challenge:
     11:
     0.750,0.000,0.489,0.197,0.854,528.000,57.000,23.000,4.000,47.000,0.000:
00000000
00000000
00000000
00000000
,
00000000
00000000
00000000
00000000
,
00000000
00000000
00000000
00000000
,
00000000
00000000
00000000
00000000
,
02002000
00000000
00100000
10000000
00100000
00000000
10000000
00100000
,
10000000
00000000
00000000
00000000
10100000
03003000
00000000
00000000
M0M00000
00000000
00000000
00000000
00011000
00000000
00000000
00000000
,
00020200
00000000
00000010
00000001
00000010
00000000
00000001
00000010
,
00000001
00000000
00000000
00000000
00000011
00030300
00000000
00000000
000000MM
00000000
00000000
00000000
00000100
00000000
00010000
00000000
,
00011000
00000000
00000000
01001000
00000000
00000000
01010000
00000000
00000000
00110000
00000000
00000000
01000000
00000000
10000000
00000000
,
10100000
00000000
00000000
01100000
00000000
00000000
00110000
00000000
00000000
00011000
00000000
00000000
00001000
00000000
00000100
00000000
,
00000110
00000000
00000000
00000101
00000000
00000000
00001010
00000000
00000000
00011000
00000000
00000000
00001000
00000000
00100000
00000000
,
01100000
00000000
00000000
10010000
00000000
00000000
00011000
00000000
00000000
00001001
00000000
00000000
00010000
00000000
00001000
00000000
,
00000010
00000001
00000000
00000011
00000000
00001000
00000100
00000000
00010000
00001000
00000000
00101000
00000000
00010000
01000000
00000000
,
00001000
00010000
00000000
00011000
00000000
00000100
00010000
00000000
00001000
00010000
00000000
00110000
00000000
10000000
01000000
00000000
,
00100000
00010000
00000000
01010000
00000000
00001000
00010000
00000000
00000010
00001000
00000000
00000110
00000000
00010000
00000010
00000000
,
00022000
00000000
00000000
00000000
00000000
00000000
00000000
00000000
00100000
00000010
00100000
00000000
00100010
00033000
00000000
00000000
,
00010000
00001000
00000000
00001000
00010000
00000000
00010000
00000010
00000000
00010000
00000001
00000000
00001000
00000010
00000100
00000000
,
00000010
00000001
00000000
00000010
00000100
00000000
00000010
00001000
00000000
00000010
00010000
00000000
00011000
00000000
01001000
00000000
,
00010000
01000000
00000000
01000000
00100000
00000000
01000000
10000000
00000000
00010000
00100000
00000000
10000000
00100000
01000000
00000000
,
00001000
00100000
00000000
00100000
00001000
00000000
00010000
00000100
00001000
00000010
00000100
00000000
00000001
00001000
00000010
00000000
,
00000100
00001000
00000000
00000100
00000001
00000000
00000100
00001000
00000000
01000000
00100000
00000000
10000000
01000000
00100000
00000000
,
00010000
01000000
00000000
00001000
00010000
00000000
00000100
00000010
00000000
00000100
00001000
00000000
00001001
00000000
00000011
00000000
,
00000100
00000100
00000000
00000010
00000010
00000000
00001000
00001000
00000000
00000100
00000100
00000000
00010000
00001000
00010000
00000000
,
00000010
00001000
00000000
00000100
00010000
00000000
00001000
01000000
00100000
01000000
00010000
00000000
00100000
00001000
00010000
00000100
,
00001000
00000100
00000000
00000010
00001000
00000000
00010000
01000000
00000000
01000000
10000000
00000000
00100000
01000000
00001000
00000000
,
00010000
00000100
00000000
00000100
00010000
00000000
00000010
00000001
00000000
00000001
00000010
00000000
00000110
00000000
00001001
00000000
,
00000001
00001000
00000000
00000010
00010000
00000000
00001000
01000000
00000000
00100000
10000000
00000000
01000000
00100000
00001000
00000000
,
00010000
00001000
00000000
00001000
00000010
00000000
00000001
00000100
00000001
00000010
00000100
00000000
00001000
00000010
00001000
00000000
,
00000100
00000100
00000000
00010000
00010000
00000000
00001000
00001000
00000000
00000100
00000100
00000000
00000001
00001000
00000001
00000000
,
00000010
00000100
00000000
00001000
00000010
00000000
00010000
00001000
00000000
00100000
01000000
00000000
10010000
00000000
11000000
00000000
,
01000000
00100000
00000000
00000100
00001000
00000000
00000010
00000100
00000000
00000001
00001000
00000000
00000100
00000010
00000001
00000000
,
00000100
00000010
00000000
00001000
00000100
00000000
00010000
00001000
01000000
00100000
10000000
00000000
01000000
00100000
00001000
00000000
,
00010000
00000000
00000100
00000010
00000100
00000000
00001000
00000000
00000001
00000000
00000100
00000000
00001000
00000000
00000000
00020000
,
00002000
00000000
00100000
00000010
00100000
00000010
00100000
00000010
,
00133000
00000000
00000000
00000000
00001000
00000000
00010000
00000000
00100000
00000000
10000000
00000000
00000000
00000000
01000000
20000000
,
02000000
00000000
00000000
00000000
00100000
00000000
00000000
00000000
00001000
00000000
00000000
00000000
00110000
33000000
00000000
00000000
,
01000000
00000000
00010000
00001000
00010000
00000000
00001000
00000000
00010000
00000000
00000010
00000000
00001000
00000000
00000001
00000200
,
00000002
00000000
00000000
00000000
00000010
00000000
00010000
00000000
00001000
00000000
00010000
00000000
00000010
00000303
00000000
00000000
,
00001000
00000000
00000001
00000100
00000010
00000000
00010000
00000000
00001000
00000000
00100000
00000000
00010000
00000000
10000000
00000000
,
01000000
00010000
00000000
00000000
00001000
00010000
00000000
00000000
00100000
00010000
00000000
00000000
00001000
01000000
00000000
00000000
,
20010000
00001000
00010000
00100000
,
31000000
00000000
00000000
01000000
00010000
00000000
00000000
00010000
00001000
00000000
00000000
00001000
00000100
00000000
00000000
00000100
,
00000002
00000010
00000100
00001000
,
00020000
00000000
00000000
00000000
00000000
00000000
00000000
00000000
00001010
00000000
00000000
00000000
00000110
00030003
00000000
00000000
,
00010000
01001000
00010100
01001000
,
00022000
00000000
00000000
00000010
00100000
00000000
00000000
00100000
00000010
00000000
00000000
00000010
00133000
00000000
00000000
00000000
,
00011000
00100010
01000100
00000000
,
02100210
00000000
00000000
00000000
00000000
00000000
00000000
00000000
00010000
00001000
00010000
00000000
00011000
03000300
00000000
00000000
,
00001000
00010000
00000000
00010000
00000100
00000000
00000100
00001000
00000000
00000010
00000100
00000000
00001000
00010000
00001000
00000000
,
00100000
01000000
00000000
01000000
00010000
00000000
00001000
00010000
00000000
00000001
00000100
00000000
00000010
00000000
00001000
00000000
,
00000001
00000100
00000000
00000010
00001000
00000000
00000100
00010000
00000000
00001000
01000000
00000000
00100000
10000000
01000000
00000000
,
00100000
00010000
00000000
10000000
01000000
00000000
00100000
00010000
01000000
00001000
00010000
00000000
00000100
00000010
00000001
00000100
,
00000010
00001000
00000000
00000001
00000010
00000000
00001000
00010000
00000000
00100000
01000000
00000000
00010000
10000000
01000000
00000000
,
00100000
00010000
00000000
00100000
00001000
00000000
00010000
00000100
00000000
00000100
00000010
00000000
00000011
00000000
00001001
00000000
,
00000100
00000100
00000000
00000010
00000010
00000000
00001000
00001000
00000000
00000001
00000001
00000000
00000100
00000010
00001000
00000000
,
00000100
00010000
00000000
00001000
01000000
00000000
00010000
00100000
01000000
00100000
00010000
00100000
01000000
00010000
00001000
00000000
,
00001000
00010000
00000000
00010000
00000100
00000000
00000010
00001000
00000000
00001000
00000010
00000000
00000001
00000010
00000100
00000000
,
00010000
00000100
00000000
00000100
00010000
00000000
00001000
01000000
00000000
01000000
00001000
00000000
01010000
00000000
10010000
00000000
,
01000000
00100000
00000000
00001000
00000100
00000000
00000001
00001000
00000000
00000100
00000010
00000000
00000001
00000100
00000010
00000000
,
00001000
00000100
00000000
00010000
00001000
00000000
01000000
00100000
10000000
00100000
00010000
00000000
00100000
01000000
00001000
00010000
,
00001000
00010000
00000000
00010000
01000000
00000000
00010000
00001000
00000000
00001000
00000100
00000000
00000001
00001000
00000001
00000000
,
00000010
00000100
00000000
00000100
00001000
00000000
00001000
00000001
00000000
00000001
00000010
00000000
00001001
00000000
00000110
00000000
,
00000010
00000001
00000000
00001000
00000100
00000000
00010000
00001000
00000000
00100000
00010000
00000000
10000000
01000000
00100000
00000000
,
00001000
00010000
00000000
00000100
00000010
00000000
00000001
00001000
00000100
00000000
00000000
00000000
00000000
00000000
00000000
00000000
,
00022220
00000000
00033330
00000000
;
