#TITLE:Typical Tropical;
#SUBTITLE:;
#ARTIST:Bambee;
#TITLETRANSLIT:;
#SUBTITLETRANSLIT:;
#ARTISTTRANSLIT:;
#GENRE:Bubblegum Dance;
#CREDIT:;
#BANNER:Typical Tropical-banner.png;
#BACKGROUND:Typical Tropical-bg.png;
#LYRICSPATH:;
#CDTITLE:;
#MUSIC:Typical Tropical.ogg;
#OFFSET:-0.464;
#SAMPLESTART:35.440;
#SAMPLELENGTH:11.840;
#SELECTABLE:YES;
#BPMS:0.000=137.000;
#STOPS:;
#BGCHANGES:0.000=Typical Tropical-bg.png=1.000=0=0=1=====,
16.000=In The Groove 2/641_JumpBack.mpg=1.000=1=0=1===CrossFade==,
30.000=In The Groove 2/446_JumpBack.mpg=1.000=0=0=1=====,
30.333=In The Groove 2/446_JumpBack_1.mpg=1.000=0=0=1=SongBgWithMovieViz====,
30.667=In The Groove 2/446_JumpBack.mpg=1.000=0=0=1=====,
31.000=In The Groove 2/817_JumpBack.mpg=1.000=0=0=1=SongBgWithMovieViz====,
32.000=In The Groove 2/927_JumpBack.mpg=1.000=0=0=1=====,
48.000=In The Groove 2/906_JumpBack.mpg=1.000=0=0=1=====,
64.000=In The Groove 2/817_JumpBack.mpg=1.000=0=0=1===FadeLeft==,
76.000=In The Groove 2/439_JumpBack_1.mpg=1.000=0=0=1=SongBgWithMovieViz====,
80.000=In The Groove 2/906_JumpBack.mpg=1.000=0=0=1=====,
96.000=-random-=1.000=0=0=1===FadeRight==,
112.000=In The Groove 2/614_JumpBack.mpg=1.000=0=0=1=====,
128.000=In The Groove 2/604_JumpBack.mpg=1.000=0=0=1===FadeUp==,
146.000=In The Groove 2/439_JumpBack1.mpg=1.000=0=0=1=====,
146.333=In The Groove 2/439_JumpBack1.mpg=1.000=0=0=1=SongBgWithMovieViz====,
146.667=In The Groove 2/439_JumpBack1.mpg=1.000=0=0=1=====,
147.000=In The Groove 2/439_JumpBack1.mpg=1.000=0=0=1=SongBgWithMovieViz====0.5^0.5^0.5^1,
148.000=-random-=1.000=0=0=1=====,
164.000=-random-=1.000=0=0=1===FadeLeft==,
180.000=In The Groove 2/462_JumpBack.mpg=1.000=0=0=1=====,
196.000=-random-=1.000=0=0=1===FadeRight==,
212.000=In The Groove 2/604_JumpBack.mpg=1.000=0=0=1=SongBgWithMovieViz===0^1^1^1=,
227.000=Typical Tropical-bg.png=1.000=0=0=1=====,
99999=-nosongbg-=1.000=0=0=0 // don't automatically add -songbackground-
;
#BGCHANGES2:28.000=flash=1.000=0=0=1====1^1^0^1=,
32.000=flash=1.000=0=0=1=====,
48.000=flash=1.000=0=0=1=====,
80.000=flash=1.000=0=0=1=====,
112.000=flash=1.000=0=0=1=====,
144.000=flash=1.000=0=0=1====1^1^0^1=,
148.000=flash=1.000=0=0=1=====,
180.000=flash=1.000=0=0=1=====,
212.000=flash=1.000=0=0=1=====,
227.000=flash=1.000=0=0=1=====,
;
#KEYSOUNDS:;
// cache tags:
#FIRSTBEAT:16.000;
#LASTBEAT:227.000;
#SONGFILENAME:/Songs/In The Groove 2/Typical Tropical/Typical Tropical.sm;
#HASMUSIC:1;
#HASBANNER:1;
#MUSICLENGTH:103.828;
// end cache tags

//---------------dance-single - K.W----------------
#NOTES:
     dance-single:
     K.W:
     Hard:
     7:
     0.421,0.000,0.135,0.183,0.120,273.000,14.000,19.000,0.000,0.000,0.000:
0000
0000
0000
0000
,
0000
0000
0000
0000
,
0000
0000
0000
0000
,
0000
0000
0000
0000
,
1000
0000
0000
0000
1000
0000
0000
0010
0000
0000
0100
0000
0001
0000
0010
0000
,
0001
0000
0000
0000
0001
0000
0000
0010
0000
0000
0001
0000
0100
0000
0010
0000
,
1000
0000
0000
0000
1000
0000
0000
0100
0000
0000
0010
0000
0100
0000
0000
0000
,
1100
0000
0000
0000
0000
0000
0001
0010
0001
0010
0000
0000
,
0000
1000
0100
0010
0100
0010
0001
0100
,
0000
0010
0010
0010
2000
0000
3100
0000
,
0000
0100
0010
0100
1000
0010
0100
0001
,
0000
0010
0010
0010
0100
0000
1000
0000
,
0001
0000
0000
0001
0010
0000
0001
0000
0100
0000
0000
0100
0010
0000
1000
0000
,
0001
0000
0000
0001
0010
0000
0001
0000
1000
0000
0000
1000
0010
0000
0100
0000
,
0001
0010
0001
1000
0000
0110
0000
1001
,
0000
0000
0000
0000
2000
0001
3001
0000
,
1000
0000
0000
1000
0010
0000
0100
0000
0002
0000
0000
0000
0013
0000
0000
0000
,
0001
0000
0000
0001
0010
0000
0100
0000
0020
0000
0000
0000
0130
0000
0000
0000
,
0010
0001
0100
1000
,
1001
0000
0000
0000
,
1000
1000
1000
0000
0001
0001
0001
0000
,
1000
0100
0010
0200
0000
0000
1300
0000
,
1000
0000
0010
0100
0000
0001
0000
1100
,
0000
0110
0000
1001
0000
0000
0000
0000
,
0001
0001
0001
0000
1000
1000
1000
0000
,
0010
0100
0001
0020
0000
0000
0100
0000
,
0031
0000
0100
1000
0100
0010
0100
0002
,
0000
2000
0000
0000
3003
0000
0000
0000
,
0001
0000
0000
0000
0001
0000
0000
0001
0000
0000
0001
0000
0100
0000
0010
0000
,
1000
0000
0000
0000
1000
0000
0000
1000
0000
0000
0010
0000
0100
0000
0001
0000
,
0010
0000
0000
0000
0010
0000
0000
0010
0000
0000
0100
0000
0010
0000
0000
0000
,
0100
0000
1100
0000
0010
0100
0101
0000
,
1000
0000
0000
0000
0010
0000
0000
0100
0000
0000
0001
0000
0010
0000
0100
0000
,
0010
0000
0000
0000
0100
0000
0000
1000
0000
0000
0010
0000
0100
0000
0001
0000
,
0010
0001
0100
1000
,
0100
0001
0010
0000
0100
0010
0001
0000
,
1100
0000
0000
0000
0000
0000
0001
0010
0001
0010
0000
0000
,
0000
1000
0100
1000
0010
0100
0001
0010
,
0000
0001
0001
0001
2000
0000
3100
0000
,
0000
0010
0100
0010
0001
0100
1000
0100
,
0000
0001
0001
0001
0020
0000
0031
0000
,
1000
0000
0000
1000
0010
0000
0100
0000
0001
0000
0000
0000
0010
0000
0000
0000
,
0001
0000
0000
0001
0010
0000
0001
0000
2000
0000
0000
0000
3100
0000
0000
0000
,
0010
0000
0000
0010
0001
0000
0010
0000
0001
0000
1000
0000
0100
0000
0000
0000
,
0010
0100
1000
0010
0100
0000
1001
0000
,
0001
0001
0001
0000
1000
1000
1000
0000
,
0001
0010
0100
2000
0000
0000
3100
0000
,
0010
0100
0010
0001
0000
1000
0000
0011
,
0000
0110
0000
1001
0000
0000
0000
0000
,
1000
1000
1000
0000
0001
0001
0001
0000
,
0100
0010
1000
0200
0000
0000
0010
0000
,
1300
0000
0010
0001
0010
0100
0001
0020
,
0000
0200
0000
0000
0330
0000
0000
0000
,
1000
0000
0000
0000
1000
0000
0000
2000
0000
0000
0000
0000
3000
0000
0000
0000
,
0001
0000
0000
0000
0001
0000
0000
0002
0000
0000
0000
0000
0003
0000
0000
0000
,
0100
0000
0000
0000
0100
0000
0000
0200
0000
0000
0000
0000
0300
0000
0000
0000
,
0010
0000
0000
0000
0010
0000
0000
0020
0000
0000
0000
0000
0030
0000
0000
0000
;

//---------------dance-single - K.W----------------
#NOTES:
     dance-single:
     K.W:
     Easy:
     3:
     0.223,0.000,0.087,0.048,0.000,148.000,9.000,5.000,0.000,0.000,0.000:
0000
0000
0000
0000
,
0000
0000
0000
0000
,
0000
0000
0000
0000
,
0000
0000
0000
0000
,
1000
1000
1000
1000
,
0001
0001
0001
0001
,
0100
0000
0100
0000
,
1001
0000
0000
0000
,
0001
0010
0001
0001
,
1000
1000
1000
0000
,
0010
0100
0010
0010
,
1000
0000
0001
0001
,
1000
0000
0001
0000
,
0100
0000
0010
0000
,
1000
0100
0010
0100
,
1000
0000
0000
0000
,
0001
1000
1001
0000
,
1000
0001
1001
0000
,
1001
0000
0110
0000
,
1001
0000
0000
0000
,
1000
0010
0100
0010
,
1000
0001
0010
0001
,
1000
0100
1000
0010
,
0100
0010
1000
0001
,
1000
0010
0100
0010
,
1000
0001
0010
0001
,
2000
0000
3000
0000
,
0002
0000
0003
0000
,
1000
1000
1000
0000
,
0100
0100
0100
0000
,
0010
0000
0010
0000
,
0010
0010
0100
0100
,
1000
1000
1000
0000
,
0001
0001
0001
0000
,
0100
0000
0010
0000
,
1000
1000
0001
0001
,
1001
0000
0000
0000
,
1000
0001
1000
1000
,
0100
0000
0100
0000
,
1000
0001
0010
0010
,
0001
0000
1001
0000
,
1000
1000
1000
0000
,
0010
0010
0010
0000
,
1000
0100
0010
0001
,
0010
0100
1000
0000
,
0001
0100
0010
0100
,
0001
1000
0100
1000
,
0001
0010
0001
0100
,
0010
0010
0010
0000
,
1000
0010
0100
0010
,
1000
0001
0010
0001
,
2000
0000
3000
0000
,
0002
0000
0003
0000
,
1001
0000
0000
0000
,
1000
0000
0000
0000
,
0001
0000
0000
0000
,
0200
0000
0000
0300
;

//---------------dance-single - K.W----------------
#NOTES:
     dance-single:
     K.W:
     Medium:
     5:
     0.323,0.000,0.231,0.067,0.029,204.000,24.000,7.000,1.000,0.000,0.000:
0000
0000
0000
0000
,
0000
0000
0000
0000
,
0000
0000
0000
0000
,
0000
0000
0000
0000
,
0001
0000
1000
0000
0001
0010
0001
0000
,
0100
0010
0100
0100
,
0011
0000
1100
0010
,
1001
0000
1001
0110
,
1001
0000
0001
0000
0010
0001
0100
0000
,
0010
0000
0010
0000
1000
0100
1000
0000
,
0001
0000
0001
0000
0010
0100
0010
0000
,
0001
0001
0020
0000
,
0130
0000
1000
0100
1000
0000
0000
0000
,
0010
0000
0100
0001
0010
0000
0000
0000
,
0001
0001
1000
1000
,
0110
0000
0000
0000
,
0001
0000
0000
0001
0000
0000
0001
0000
0000
0000
0000
0000
0000
0000
0000
0000
,
1000
0000
0000
1000
0000
0000
1000
0000
0000
0000
0000
0000
0000
0000
0000
0000
,
0010
0100
0001
0000
0010
0000
0100
0000
,
1001
0000
0000
0000
,
1000
0100
1000
0000
0001
0000
0011
0000
,
0100
0010
0100
0000
0010
0000
0110
0000
,
1000
0000
0100
0010
0000
0100
0000
1000
,
0000
0001
0000
1001
0000
0000
0000
0000
,
0100
1000
0100
0000
0001
0010
0001
0000
,
1000
0000
0010
0100
0000
0001
0000
0000
,
0010
0010
0100
0100
,
2000
0000
3001
1001
,
0100
0000
0000
0000
0100
0000
0000
0100
0000
0000
0000
0000
0000
0000
0000
0000
,
0010
0000
0000
0000
0010
0000
0000
0010
0000
0000
0000
0000
0000
0000
0000
0000
,
0100
0000
0001
0000
0100
0010
0100
0001
,
0000
0011
0000
0000
0000
0000
0000
0000
,
1000
0000
0000
0000
1000
0000
0000
1000
0000
0000
0000
0000
0010
0000
0000
0000
,
0100
0000
0000
0000
0100
0000
0000
0100
0000
0000
0000
0000
0001
0000
0000
0000
,
2000
0000
3020
0000
,
0230
0010
0001
0310
,
1001
0000
0000
0000
,
1000
0100
1000
0000
0001
0000
1001
0000
,
0010
0100
0010
0000
0001
0000
1001
0000
,
1000
0100
1000
0000
0001
0000
1001
0000
,
0100
1100
0010
0011
,
1000
0001
1000
0001
1000
0000
1001
0000
,
0010
0100
0010
0100
0010
0000
0110
0000
,
1000
0100
1000
0100
1000
0000
1001
0000
,
0001
0010
0001
0010
0001
0000
0110
0000
,
1000
0100
1000
0000
0001
0000
0001
0000
,
1000
0000
0100
0010
0000
0000
0100
1000
,
0010
0000
0100
0001
0000
0010
0000
0001
,
0000
1000
0000
1001
0000
0100
0010
0100
,
0010
0000
1000
0000
0100
0010
0100
0000
,
1000
0000
0010
0100
0000
0000
0000
0000
,
0001
0000
0001
0000
1000
0100
1000
0000
,
0002
0010
0100
0013
,
1000
000M
0000
0000
0000
0000
0000
0000
,
0001
0000
0000
0000
,
0100
0000
0000
0000
,
0020
0000
0000
0030
;

//---------------dance-single - K. Ward----------------
#NOTES:
     dance-single:
     K. Ward:
     Challenge:
     9:
     0.588,0.000,0.501,0.116,0.299,363.000,52.000,12.000,0.000,0.000,0.000:
0000
0000
0000
0000
,
0000
0000
0000
0000
,
0000
0000
0000
0000
,
0000
0000
0000
0000
,
0001
0000
0000
0000
0100
0000
0000
1000
0000
0000
0100
0000
0001
0010
0001
0000
,
0010
0000
0000
0000
0100
0000
0000
0010
0000
0000
0100
0000
1000
0100
1000
0000
,
0100
0000
0000
0000
0010
0000
0000
0001
0000
0000
0100
0000
1000
0000
0100
0000
,
2002
0000
0000
3003
0000
0000
1001
0110
0011
0101
0000
0000
,
1000
0001
0100
1000
0100
1000
0100
0001
,
0010
0100
0010
0001
0100
1000
0200
0000
,
0301
0010
0010
0001
0100
0100
0010
0110
,
0000
0001
0010
0001
1001
0000
0110
0000
,
0001
0000
0000
0001
0010
0000
0100
0000
1000
0000
0000
1000
0010
0000
0100
0000
,
1000
0000
0000
1000
0100
0000
0010
0000
0100
0000
0000
0100
0001
0000
0010
0000
,
0001
0100
1000
0100
0001
0010
0001
0100
,
2000
3200
0302
1003
,
0100
0000
0000
1100
0000
0000
0010
0000
0001
0000
0000
1001
0000
0000
1000
0000
,
0100
0000
0000
1100
0000
0000
0010
0000
0100
0000
0000
1001
0000
0000
0010
0000
,
0101
0000
1010
0000
0011
0100
0110
0000
,
1001
0000
0000
1100
0000
0110
0000
1001
,
1000
0000
0000
0000
0010
0000
0000
0100
0000
0000
0001
0000
1000
0010
0100
0000
,
0010
0000
0000
0000
0100
0000
0000
0001
0000
0000
1000
0000
0100
0000
0010
0000
,
0001
0000
0000
0000
0100
0000
0010
1000
0000
0000
0010
0000
0100
0000
0001
0000
,
1000
0000
0000
0000
1000
0000
0010
0100
0000
0000
0001
0000
0001
0000
0000
0000
,
1100
0000
0000
0000
0110
0000
0000
0001
0000
0000
0100
0000
0010
0100
0001
0000
,
1000
0000
0000
0000
1100
0000
0000
0001
0000
0000
0100
0000
0010
0100
0010
0000
,
0100
0000
0000
0000
1001
0000
0010
0100
0000
0000
0010
0000
0001
0000
0010
0000
,
1000
0001
0001
0000
0010
0100
0110
0000
,
1002
0000
0000
0000
0010
0000
0000
0100
0000
0000
0010
0000
0013
0000
0000
0000
,
0210
0000
0000
0000
0010
0000
0000
1000
0000
0000
0010
0000
0310
0000
0000
0000
,
1002
0000
0000
0000
0010
0000
0000
0100
0000
0000
0010
0000
0013
0000
0000
0000
,
2001
0000
0010
0100
0010
0100
3010
0000
,
0110
0000
0000
0000
1001
0000
0000
0100
0000
0000
0001
0000
0010
0000
0100
0000
,
0110
0000
0000
0000
1001
0000
0000
0010
0000
0000
0100
0000
0010
0001
0010
0000
,
0100
0001
0010
0001
0100
1000
0100
0001
,
0020
0000
0031
0000
0100
1000
0100
0010
,
1001
0000
0000
0000
0000
0000
1001
0110
1100
0101
0000
0000
,
0100
0001
0010
0100
0010
0001
0100
1000
,
0100
0001
1000
0001
0010
0100
0020
0000
,
0130
0010
0010
0001
0100
0100
0010
0110
,
0000
0001
0010
0001
0011
0000
0110
0000
,
1000
0000
0001
1000
0001
0000
0100
0010
0100
0000
0001
0000
0001
0000
1000
0100
,
1000
0000
0001
0010
0001
0000
0100
0010
0100
0000
0001
0000
0001
0000
0100
0000
,
1000
0000
0100
0010
0100
0000
0001
1000
0001
0000
0010
0000
0001
0000
1000
0000
,
0100
0000
0010
0100
0010
0000
0001
1000
0001
0000
0100
0000
1000
0000
0100
0000
,
0110
0000
0000
0000
1100
0000
0000
0011
0000
0000
1000
0000
0010
0100
0001
0000
,
0010
0000
0000
0000
0110
0000
0000
1001
0000
0000
1000
0000
0010
0100
0010
0000
,
0001
0000
0010
0000
0100
0000
0010
1000
0000
0000
0100
0000
0010
0100
0010
0000
,
0001
0000
0100
0000
0010
0000
0001
0010
0000
0000
0100
0000
0010
0100
0010
0000
,
1000
0000
0000
0000
0011
0000
0000
0110
0000
0000
1000
0000
0001
0010
0001
0000
,
1000
0000
0000
0000
0110
0000
0000
1001
0000
0000
0100
0000
0001
0100
0010
0000
,
1000
0000
0100
0000
0010
0000
0100
0010
0000
0000
0001
0000
0100
0010
0100
0000
,
0001
0000
0100
0000
1000
0000
0100
0010
0000
0000
0100
0000
1001
0000
0000
0000
,
1000
0000
0000
0000
1000
0000
0000
0010
0000
0000
0001
0000
0010
0000
0100
0000
,
1000
0000
0000
0000
0100
0000
0000
0001
0000
0000
1000
0000
0010
0100
0010
0000
,
1000
0000
0000
0000
0001
0000
0000
0010
0000
0000
0100
0000
0010
0000
0001
0000
,
1000
0000
0000
0000
0010
0000
0000
0100
0000
0000
0001
0000
1001
0000
0000
0000
;

//---------------dance-single - K. Ward----------------
#NOTES:
     dance-single:
     K. Ward:
     Beginner:
     1:
     0.087,0.000,0.039,0.000,0.000,59.000,4.000,0.000,0.000,0.000,0.000:

0000
0000
0000
0000
,
0000
0000
0000
0000
,
0000
0000
0000
0000
,
0000
0000
0000
0000
,
0001
0000
0000
0000
,
0010
0000
0000
0000
,
0100
0000
0000
0000
,
1001
0000
0000
0000
,
0100
0000
0000
0000
,
0010
0000
0000
0000
,
1000
0000
0000
0000
,
0001
0000
0000
0000
,
0010
0000
0000
0000
,
0001
0000
0000
0000
,
0100
0000
0000
0000
,
1000
0000
0000
0000
,
0100
0000
0000
0000
,
1000
0000
0000
0000
,
0010
0000
0000
0000
,
1001
0000
0000
0000
,
0100
0000
0000
0000
,
0010
0000
0000
0000
,
0001
0000
0000
0000
,
1000
0000
0000
0000
,
0010
0000
0000
0000
,
0100
0000
0000
0000
,
0001
0000
1000
0000
,
0001
0000
0000
0000
,
0100
0000
0100
0000
,
0100
0000
0000
0000
,
1000
0000
1000
0000
,
1000
0000
0000
0000
,
0010
0000
0010
0000
,
0010
0000
0000
0000
,
0100
0000
0100
0000
,
0100
0000
0000
0000
,
1001
0000
0000
0000
,
1000
0000
0000
0000
,
0001
0000
0000
0000
,
0010
0000
0000
0000
,
0001
0000
0000
0000
,
1000
0000
0000
0000
,
0001
0000
0000
0000
,
0100
0000
0000
0000
,
0010
0000
0000
0000
,
1000
0000
0000
0000
,
0001
0000
0000
0000
,
1000
0000
0000
0000
,
0100
0000
0000
0000
,
1000
0000
0000
0000
,
0001
0000
0000
0000
,
0100
0000
0000
0000
,
0010
0000
0000
0000
,
1001
0000
0000
0000
,
0100
0000
0000
0000
,
0001
0000
0000
0000
,
1000
0000
0000
0001
;

//---------------dance-double - M.Emirzian----------------
#NOTES:
     dance-double:
     M.Emirzian:
     Easy:
     3:
     0.191,0.000,0.058,0.019,0.000,131.000,6.000,2.000,0.000,0.000,0.000:
00000000
00000000
00000000
00000000
,
00000000
00000000
00000000
00000000
,
00000000
00000000
00000000
00000000
,
00000000
00000000
00000000
00000000
,
10000000
00000000
00000000
00000000
,
00010000
00000000
00000000
00000000
,
00001000
00000000
00000000
00000000
,
00000001
00000000
00000001
00001000
,
00000100
00000000
00001000
00000000
,
00000100
00000000
00010000
00001000
,
01000000
00000000
00010000
00000000
,
01000000
00000000
00100000
10000000
,
00100000
00000000
01000000
00010000
,
01010000
00000000
10000000
01000000
,
11000000
00000000
00100000
00000000
,
00010000
01000000
00010000
00000000
,
00100000
00000000
00001000
00010000
,
00011000
00000000
00000100
00001000
,
00001100
00000000
00000001
00000000
,
00002002
00000000
00000000
00003003
,
00000010
00001000
00000010
00001000
,
00000100
00010000
00001000
00000000
,
01000000
00000000
00010000
00000000
,
01000000
00010000
10000000
00000000
,
01000000
00100000
01000000
00100000
,
00010000
01000000
00001000
00000000
,
00010000
00000000
00000100
00000000
,
00001000
00000100
00000010
00000000
,
00000001
00000000
00000100
00000000
,
00000010
00001000
00000100
00000000
,
00000010
00000000
00000001
00000000
,
00000100
00000000
00001000
00000000
,
00010000
00000000
01000000
00000000
,
10000000
00010000
01000000
00000000
,
00100000
00000000
10000000
00000000
,
01000000
00000000
00100000
00000000
,
00010000
00000000
01000000
00001000
,
00010000
00000000
00000100
00000000
,
00001000
00000000
00000010
00000100
,
00000001
00000000
00000010
00000000
,
00000100
00000000
00001000
00000001
,
00000100
00000000
00000010
00000000
,
00001000
00000000
00000100
00010000
,
00001000
00000000
01000000
00000000
,
00010000
00000000
00100000
01000000
,
10000000
01000000
00100000
00010000
,
00100000
00001000
00010000
00000000
,
00000100
00000000
00001000
00000000
,
00000010
00000100
00000001
00000000
,
00001000
00000010
00001000
00000010
,
00010000
00001000
00010000
00000000
,
00001000
00000000
01000000
00000000
,
00010000
01000000
00100000
10000000
,
10010000
00000000
00000000
00000000
,
10000000
00000000
00000000
00000000
,
00010000
00000000
00000000
00000000
,
00001000
00000000
00000000
00000001
;

//---------------dance-double - M.Emirzian----------------
#NOTES:
     dance-double:
     M.Emirzian:
     Medium:
     6:
     0.323,0.000,0.048,0.039,0.000,226.000,5.000,4.000,0.000,0.000,0.000:
00000000
00000000
00000000
00000000
,
00000000
00000000
00000000
00000000
,
00000000
00000000
00000000
00000000
,
00000000
00000000
00000000
00000000
,
00010000
00000000
10000000
00000000
,
01000000
00000000
00100000
00000000
,
00010000
00000000
10000000
00000000
,
01000000
00000000
00100000
00110000
,
00000000
00001000
00010000
00000100
00010000
00001000
00000000
00010000
,
00000000
00000100
00001000
00000010
00001000
00000100
00001000
00000000
,
00000000
00000001
00000100
00000010
00001000
00000010
00000000
00000100
,
00000000
00000001
00000100
00000010
00001000
00000100
00010000
00000000
,
00001000
00000000
00100000
00010000
01000000
00000000
00000000
00000000
,
00100000
00000000
10000000
01000000
10000000
00000000
00100000
00000000
,
01000000
00000000
00010000
10000000
00000000
01000000
00000000
00100000
,
00000000
00000000
00001000
00010000
,
00000100
00000000
00001000
00000001
00000100
00000000
00000010
00000000
,
00001000
00000000
00000100
00000001
00000010
00000000
00000100
00000000
,
00001000
00000010
00000100
00001000
,
00022000
00000000
00000000
00033000
,
00001000
01000000
00001000
00000000
00100000
00010000
00100000
00000000
,
10010000
00000000
10000000
01000000
00000000
00000000
10000000
00010000
,
10000000
00000000
01000000
00100000
00000000
00010000
00000000
01000000
,
00000000
00001000
00000000
00010000
00000000
00000000
00000000
00000000
,
01000000
00001000
01000000
00000000
00001000
00010000
00001000
00000000
,
00000100
00000000
00000001
00001000
00000000
00000000
00000000
00000000
,
00000100
00000000
00000010
00000100
00000010
00000000
00000001
00000100
,
00000000
00000010
00000000
00000000
00000000
00000000
00001000
00000100
,
00001000
00000010
00010000
00001000
,
01000000
00000000
00010000
10000000
00000000
00000000
01000000
00000000
,
00100000
00000000
10000000
01000000
,
10000000
00100000
00010000
00100000
,
10000000
01000000
00010000
00001000
,
00000010
00000000
00000001
00001000
00000000
00000000
00000001
00000100
,
00000001
00000100
00000010
00001000
,
00000100
00010000
00000100
00001000
,
00022000
00000000
00000000
00033000
,
00000000
00001000
01000000
00001000
00010000
00001000
00000000
01000000
,
00000000
00010000
10000000
01000000
00100000
00010000
01000000
00000000
,
00000000
00100000
10000000
00100000
01000000
00010000
00000000
10000000
,
00000000
01000000
00100000
00010000
01000000
00001000
00010000
00000000
,
00000000
00001000
01000000
00001000
00010000
00001000
00000000
00010000
,
00000000
00000100
00001000
00000100
00000010
00000100
00001000
00000000
,
00000000
00000001
00000100
00000010
00001000
00000010
00000000
00000100
,
00000000
00000001
00001000
00000100
00001000
00000001
00000100
00000000
,
00000010
00010000
00001000
00000000
00010000
00001000
01000000
00000000
,
00010000
00000000
01000000
00100000
00000000
00000000
10000000
01000000
,
00100000
00000000
00010000
10000000
00000000
01000000
00000000
00100000
,
00000000
00010000
00000000
01000000
00000000
00000000
00000000
00000000
,
00001000
00010000
00001000
00000000
00000100
00000001
00001000
00000000
,
00000100
00000000
00000010
00000001
00000000
00000000
00000000
00000000
,
00000010
00000000
00000100
00001000
00000001
00000000
00000100
00000010
,
00000000
00010000
00000000
00000000
00000000
00000000
00001000
01000000
,
01001000
00000000
00100000
00000000
,
10000000
00000000
01000000
00000000
,
00100000
00000000
00010000
00000000
,
10000000
00000000
01000000
01000000
;

//---------------dance-double - M.Emirzian----------------
#NOTES:
     dance-double:
     M.Emirzian:
     Hard:
     7:
     0.484,0.000,0.058,0.058,0.231,340.000,6.000,6.000,0.000,0.000,0.000:
00000000
00000000
00000000
00000000
,
00000000
00000000
00000000
00000000
,
00000000
00000000
00000000
00000000
,
00000000
00000000
00000000
00000000
,
00001000
00000000
00000000
00000000
00000100
00000000
00000000
00000010
00000000
00000000
00000001
00000000
00001000
00000000
00000010
00000000
,
00000100
00000000
00000000
00000000
00000001
00000000
00000010
00000001
00000000
00000000
00001000
00000000
00000010
00000000
00000100
00000000
,
00000001
00000000
00000000
00000000
00000100
00000000
00000000
00000010
00000000
00000000
00001000
00000000
00000100
00001000
00000100
00000000
,
00020200
00000000
00000000
00030300
00000000
00000000
00010000
00001000
00010000
00001000
00000000
00000000
,
00010000
01000000
10000000
00100000
01000000
00100000
10000000
01000000
,
00000000
00010000
00001000
00000100
00001000
00010000
00001000
00000000
,
00000000
00000010
00000001
00000100
00000010
00000100
00000001
00001000
,
00000000
00000100
00000010
00000100
00001000
00000001
00000100
00000000
,
00000010
00000000
00000000
00001000
00000000
00000000
00000100
00000000
00010000
00000000
00000000
00001000
00000000
00000000
01000000
00000000
,
10000000
00000000
00000000
01000000
00000000
00000000
00100000
00000000
01000000
00000000
00000000
00001000
00000000
00000000
00000010
00000000
,
00000100
00000000
00000000
00001000
00000000
00000000
00000001
00000000
00000100
00000000
00000000
00000010
00000000
00000000
00000100
00000000
,
00000001
00000000
00000000
00000010
00000000
00000000
00001000
00000000
00010000
00000000
00000000
00100000
00000000
00000000
10000000
00000000
,
00010000
00000000
00000000
01000000
00000000
00000000
00100000
00000000
10000000
00000000
00000000
00010000
00000000
00000000
00100000
00000000
,
01000000
00000000
00000000
00100000
00000000
00000000
00001000
00000000
00010000
00000000
00000000
00100000
00000000
00000000
00010000
00000000
,
00001000
00000100
00000001
00000010
00001000
00000010
00000001
00000000
,
00002002
00000000
00000000
00003003
,
00000010
00001000
00000100
00000000
00000010
00000001
00000100
00000000
,
00000010
00000000
00001000
00001100
00000000
00000000
00010000
00001000
,
00000100
00001000
00010000
00100000
10000000
01000000
00100000
00000000
,
01000000
10000000
00100000
00010000
00100000
10000000
01000000
00000000
,
00100000
00010000
01000000
00000000
00100000
10000000
01000000
00000000
,
00100000
00000000
00010000
01010000
00000000
00000000
00001000
00010000
,
01000000
00010000
00001000
00000010
00000100
00000010
00000001
00000000
,
00000010
00000100
00001000
00000010
00000100
00000010
00001000
00000000
,
00000100
00000000
00000000
00000000
00000010
00000000
00000001
00001000
00000000
00000000
00000010
00000000
00000100
00000010
00000100
00000000
,
00001000
00000000
00000000
00000000
00010000
00000000
00001000
01000000
00000000
00000000
00010000
00000000
01000000
00010000
01000000
00000000
,
00100000
00000000
00000000
00000000
10000000
00000000
01000000
00100000
00000000
00000000
00010000
00000000
01000000
00100000
01000000
00000000
,
00010000
00000000
00000000
00000000
10000000
00000000
01000000
00100000
00000000
00000000
00010000
00000000
01000000
00001000
01000000
00000000
,
00001000
00000000
00000000
00000000
00010000
00000000
00000100
00001000
00000000
00000000
00000010
00000000
00000100
00000001
00000100
00000000
,
00000010
00000000
00000000
00000000
00001000
00000000
00000100
00000010
00000000
00000000
00000001
00000000
00000100
00000010
00000100
00000000
,
00000001
00000000
00000000
00000000
00001000
00000000
00000100
00010000
00000000
00000000
00001000
00000000
01000000
00010000
01000000
00000000
,
00100000
00000000
00000000
00000000
10000000
00000000
01000000
00100000
00000000
00000000
00010000
00000000
10000000
00010000
10000000
00000000
,
22000000
00000000
00000000
33000000
00000000
00000000
00010000
01000000
00010000
01000000
00000000
00000000
,
00100000
10000000
01000000
00010000
00000100
00000010
00000100
00001000
,
00000000
00000001
00000100
00000010
00000100
00000001
00001000
00000000
,
00000000
00000100
00000010
00000001
00000100
00000010
00010000
00001000
,
00000000
01000000
00010000
01000000
10000000
01000000
00010000
00100000
,
01000000
10000000
00100000
01000000
00010000
10000000
01000000
00100000
,
00000000
00001000
00010000
00000010
00001000
00000100
00000010
00000000
,
00000000
00000001
00000100
00000010
00001000
00000100
00000010
00000100
,
00000000
00010000
00001000
01000000
00100000
01000000
00010000
00000000
,
00100000
10000000
01000000
00000000
00100000
00010000
01000000
00000000
,
00100000
00000000
10000000
11000000
00000000
00000000
00010000
01000000
,
00100000
01000000
00001000
00010000
00001000
00000010
00000001
00000000
,
00000100
00000010
00000100
00000001
00000010
00001000
00010000
00000000
,
00000100
00000000
00000000
00000000
00001000
00000000
00000010
00000100
00000000
00000000
00000001
00000000
00000010
00000100
00000010
00000000
,
00000001
00000000
00000000
00000000
00000100
00000000
00000010
00001000
00000000
00000000
00000100
00000000
00010000
00001000
00010000
00000000
,
00000010
00000000
00000000
00000000
00010000
00000000
00001000
01000000
00000000
00000000
00010000
00000000
01000000
00010000
01000000
00000000
,
00100000
00000000
00000000
00000000
01000000
00000000
00010000
10000000
00000000
00000000
01000000
00000000
00100000
01000000
00100000
00000000
,
00010000
00000000
00000000
00000000
00000000
00000000
00000000
10000000
00000000
00000000
00000000
00000000
01000000
00000000
00000000
00000000
,
00010000
00000000
00000000
00000000
00000000
00000000
00000000
00000010
00000000
00000000
00000000
00000000
00001000
00000000
00000000
00000000
,
00000100
00000000
00000000
00000000
00000000
00000000
00000000
00100000
00000000
00000000
00000000
00000000
00010000
00000000
00000000
00000000
,
01000000
00000000
00000000
00000000
00000000
00000000
00000000
00100000
00000000
00000000
10000000
00000000
00100000
00000000
00000000
00000000
;

//---------------dance-double - M.Emirzian----------------
#NOTES:
     dance-double:
     M.Emirzian:
     Challenge:
     9:
     0.607,0.000,0.260,0.019,0.424,412.000,27.000,2.000,3.000,0.000,0.000:
00000000
00000000
00000000
00000000
,
00000000
00000000
00000000
00000000
,
00000000
00000000
00000000
00000000
,
00000000
00000000
00000000
00000000
,
00010000
00000000
000M0000
00000000
00001000
00000000
00000000
01000000
00000000
00000000
00001000
00000000
00010000
00001000
00010000
00000000
,
00000010
00000000
000000M0
00000000
00001000
00000000
00000000
00000100
00000000
00000000
00010000
00000000
00001000
00010000
00001000
00000000
,
00000010
00000000
000000M0
00000000
00000001
00000000
00000000
00001000
00000000
00000000
00000010
00000000
00000100
00000001
00000100
00000000
,
00002002
00000000
00000000
00003003
00000000
00000000
00000010
00000100
00000010
00000100
00000000
00000000
,
00001000
00000001
00000100
00001000
01000000
00001000
00000100
00000001
,
00000000
00001000
00000100
00010000
00001000
01000000
00100000
00000000
,
00000000
10000000
00100000
00010000
00000010
00010000
00100000
10000000
,
00000000
00010000
01000000
00001000
00010000
00000010
00001000
00000000
,
00000001
00000000
00000000
00000001
00000010
00000000
00000100
00000000
00001000
00000000
00000000
00001000
00000010
00000000
00000100
00000000
,
00001000
00000000
00000000
00001000
00010000
00000000
00001000
00000000
00000100
00000000
00000000
00000100
00001000
00000000
00010000
00000000
,
00100000
00000000
00000000
00100000
10000000
00000000
01000000
00000000
00100000
00000000
00000000
00100000
00010000
00000000
01000000
00000000
,
00100000
00000000
01000000
00001000
01000000
00000000
00010000
00000000
00100000
00000000
00001000
00000000
00010000
00001000
00010000
00000000
,
00000100
00000000
00000000
00001100
00000000
00000000
00000010
00000000
00010000
00000000
00000000
00011000
00000000
00000000
00000100
00000000
,
00001000
00000000
00000000
00011000
00000000
00000000
00100000
00000000
00010000
00000000
00000000
00011000
00000000
00000000
00000010
00000000
,
00001000
01010000
00001010
00101000
,
00010100
00010000
00000000
00001000
00000000
00000010
00000000
00000001
,
00001000
00000000
00000000
00000000
00001010
00000000
00000000
00000101
00000000
00000000
00000010
00000000
00001000
00000100
00010000
00000000
,
00001000
00000000
00000000
00000000
00001100
00000000
00000000
01010000
00000000
00000000
10000000
00000000
01000000
00100000
00010000
00000000
,
01000000
00000000
00100000
10000000
00100000
00000000
01000000
00010000
01000000
00000000
00100000
00000000
10000000
00000000
01000000
00000000
,
00010000
00000000
00000010
00000000
00010000
00000000
01000000
00000000
10000000
00010000
10000000
00000000
00100000
00000000
01000000
00000000
,
00010000
00000000
00000000
00000000
00110000
00000000
00000000
00001100
00000000
00000000
00000010
00000000
00000100
00000001
00001000
00000000
,
00001010
00000000
00000000
00000000
01001000
00000000
00000000
00010100
00000000
00000000
00001000
00000000
01000000
00001000
00010000
00000000
,
01000000
00000000
00100000
00010000
00100000
00000000
01000000
10000000
01000000
00000000
10000000
00000000
00100000
00000000
00010000
00000000
,
00000010
00000000
00010000
00000000
00100000
00000000
10000000
00000000
01000000
00100000
00010000
00000000
01000000
00000000
00001000
00000000
,
00010000
00000000
00000000
00010000
00000100
00000000
00001000
00000000
00000010
00000000
00000000
00000010
00000100
00000000
00000001
00000000
,
00000010
00000000
00000000
00000010
00001000
00000000
00010000
00000000
00000100
00000000
00000000
00000100
00010000
00000000
00100000
00000000
,
00010000
00000000
00000000
00010000
00001000
00000000
01000000
00000000
00100000
00000000
00000000
00100000
01000000
00000000
00010000
00000000
,
10000000
00000000
01000000
00100000
00010000
00000000
01000000
00000000
00001000
00000000
00010000
00000000
00001000
00010000
00001000
00000000
,
00100000
00000000
00000000
00100000
00001000
00000000
00010000
00000000
00000100
00000000
00000000
00000100
00001000
00000000
00000010
00000000
,
00000100
00000000
00000000
00000100
00000001
00000000
00000010
00000000
00001000
00000000
00000000
00001000
00010000
00000000
00100000
00000000
,
10000000
00000000
00000000
10000000
01000000
00000000
00010000
00000000
00001000
00000000
00000000
00001000
00000100
00000000
00000001
00000000
,
00000010
00000000
00000000
00000000
00000100
00000000
00000000
00001000
00000000
00000000
00000001
00000000
00000100
00000010
00001000
00000000
,
00000100
00000000
00000000
00000000
00000000
00000000
00000000
00000000
00000000
00000000
00000000
00000000
00011000
00000000
00000000
00000000
00000000
00000000
00000000
00000000
00000000
00001000
00000000
00000000
00010000
00000000
00000000
00000000
00001000
00000000
00000000
00000000
00010000
00000000
00000000
00000000
00001000
00000000
00000000
00000000
00000000
00000000
00000000
00000000
00000000
00000000
00000000
00000000
,
00000010
00000001
00000100
00001000
01000000
00001000
00000100
00000001
,
00000000
00001000
00000100
00010000
00001000
01000000
00100000
00000000
,
00000000
10000000
00100000
00010000
00000100
00010000
01000000
10000000
,
00000000
00100000
01000000
00001000
00010000
00000100
00001000
00000010
,
00000100
00000000
00000001
00001000
00000001
00000000
00000010
00000100
00000010
00000000
00001000
00010000
00001000
00000000
00000100
00001000
,
00000100
00000000
00001000
00010000
00001000
00000000
01000000
00100000
01000000
00000000
00100000
00010000
00100000
00000000
00010000
00001000
,
00010000
00000000
01000000
00100000
01000000
00000000
10000000
00010000
10000000
00000000
00100000
01000000
00100000
00000000
00010000
00001000
,
00010000
00000000
00000100
00001000
00000100
00000000
00000010
00000001
00000010
00000000
00000100
00000000
00001000
00000000
00000001
00000000
,
00000100
00000000
00000000
00000000
00001010
00000000
00000000
01010000
00000000
00000000
00001000
00000000
01000000
00010000
00100000
00000000
,
01000000
00000000
00000000
00000000
11000000
00000000
00000000
00110000
00000000
00000000
00001000
00000000
01000000
00001000
00010000
00000000
,
00000100
00000000
00001000
00000010
00001000
00000000
00000100
00000010
00000100
00000000
00001000
00000000
00000001
00000000
00000100
00000000
,
00001000
00000000
01000000
00000000
00001000
00000000
00000100
00000000
00000001
00000100
00000001
00000000
00000010
00000000
00000100
00000000
,
00001000
00000000
00000000
00000000
00010100
00000000
00000000
01001000
00000000
00000000
00001000
00000000
00010000
00000100
00010000
00000000
,
00001000
00000000
00000000
00000000
00100010
00000000
00000000
00011000
00000000
00000000
01000000
00000000
00010000
01000000
00100000
00000000
,
10000000
00000000
01000000
00100000
01000000
00000000
00100000
00010000
00100000
00000000
00001000
00000000
01000000
00000000
00001000
00000000
,
00010000
00000000
00000010
00000000
00001000
00000000
00000100
00000000
00000010
00000100
00001000
00000000
00000001
00000000
00000100
00000000
,
00000010
00000000
00000000
00000000
00001000
00000000
00000000
00000100
00000000
00000000
00010000
00000000
00001000
01000000
00010000
00000000
,
10000000
00000000
00000000
00000000
01000000
00000000
00000000
00010000
00000000
00000000
00001000
00000000
00010000
00000100
00010000
00000000
,
00001000
00000000
00000000
00000000
00000010
00000000
00000000
00000001
00000000
00000000
00001000
00000000
00000010
00000100
00000010
00000000
,
00001000
00000000
00000000
00000000
00000001
00000000
00000000
00000100
00000000
00000000
00001000
00000000
00010000
00000000
00000000
00000000
;
