#TITLE:Drifting Away;
#SUBTITLE:;
#ARTIST:Filo Bedo;
#TITLETRANSLIT:;
#SUBTITLETRANSLIT:;
#ARTISTTRANSLIT:;
#GENRE:;
#CREDIT:;
#BANNER:Drifting Away-banner.png;
#BACKGROUND:Drifting Away-bg.png;
#LYRICSPATH:;
#CDTITLE:;
#MUSIC:Filo Bedo - Drifting Away.ogg;
#OFFSET:-0.132;
#SAMPLESTART:89.870;
#SAMPLELENGTH:12.940;
#SELECTABLE:YES;
#BPMS:0.000=143.000;
#STOPS:;
#BGCHANGES:0.000=Drifting Away-bg.png=1.000=0=0=1=====,
16.000=jb_043.mpg=1.000=1=0=1===CrossFade==,
24.000=EV01448N.mpg=1.000=0=0=1=====,
40.000=714_JumpBack.mpg=1.000=0=0=1=====,
56.000=vol3-10-ntsc.mpg=1.000=0=0=1=====,
72.000=675_JumpBack.mpg=1.000=0=0=1=====,
88.000=EV01439N.mpg=1.000=0=0=1=====,
104.000=671_JumpBack.mpg=1.000=0=0=1=====,
111.000=vis_vol3-10-ntsc.mpg=1.000=1=0=1===CrossFade==,
120.000=vol4-06-ntsc.mpg=1.000=0=0=1=====,
136.000=VOL1-15-NTSC.mpg=1.000=0=0=1=====,
152.000=EV01457N.mpg=1.000=0=0=1=====,
168.000=vol3-15-ntsc.mpg=1.000=0=0=1=====,
184.000=VOL1-48-NTSC.mpg=1.000=0=0=1=====,
200.000=708_JumpBack.mpg=1.000=0=0=1=====,
216.000=736_JumpBack.mpg=1.000=0=0=1=====,
232.000=EV01448N.mpg=1.000=0=0=1=====,
248.000=676_JumpBack.mpg=1.000=0=0=1=====,
264.000=VOL1-15-NTSC.mpg=1.000=0=0=1=====,
275.000=vis_vol3-10-ntsc.mpg=1.000=1=0=1===CrossFade==,
280.000=Drifting Away-bg.png=1.000=0=0=1=====,
99999=-nosongbg-=1.000=0=0=0 // don't automatically add -songbackground-
;
#KEYSOUNDS:;
// cache tags:
#FIRSTBEAT:12.000;
#LASTBEAT:280.000;
#SONGFILENAME:/Songs/In The Groove/Drifting Away/Drifting Away.sm;
#HASMUSIC:1;
#HASBANNER:1;
#MUSICLENGTH:119.814;
// end cache tags

//---------------dance-single - K. Ward----------------
#NOTES:
     dance-single:
     K. Ward:
     Easy:
     3:
     0.223,0.000,0.000,0.000,0.000,187.000,0.000,0.000,0.000,0.000,0.000:

0000
0000
0000
0000
,
0000
0000
0000
0000
,
0000
0000
0000
0000
,
0000
0000
0000
0000
,
0000
0000
0000
0000
,
0000
0000
0000
0000
,
0001
0000
0000
0000
,
1000
0000
0001
0000
,
1000
0010
0100
0000
,
0001
0100
0001
0100
,
0001
0010
0001
1000
,
0001
0100
0010
1000
,
0100
0100
0100
0100
,
1000
0010
1000
0010
,
0100
0001
0100
0001
,
1000
0100
0010
0001
,
1000
1000
1000
1000
,
0100
0000
0100
1000
,
0010
0000
0010
0000
,
1000
0000
0001
0000
,
0010
0000
0001
0000
,
0100
0000
0100
0001
,
1000
0000
0001
0000
,
1000
0000
0010
0000
,
1000
0001
0010
0001
,
1000
0000
0010
0010
,
0100
0000
0001
0000
,
0100
0000
0010
0000
,
1000
0000
0000
0000
,
1000
1000
0001
0001
,
1000
0001
0100
0010
,
1000
0010
1000
0000
,
1000
1000
1000
0100
,
1000
0010
0100
0000
,
0001
0100
0010
0010
,
1000
0100
1000
0100
,
1000
0000
0000
0000
,
0001
0000
0000
0000
,
1000
0100
1000
0010
,
1000
0010
1000
0000
,
0001
0100
0001
0010
,
0001
0100
0010
0000
,
0100
0100
0100
0001
,
0010
0001
0100
0010
,
1000
0000
0100
0000
,
1000
0000
0000
0000
,
0010
0100
0100
0100
,
0010
1000
0010
0010
,
1000
0001
0010
0100
,
1000
0001
0100
0001
,
1000
0000
0000
0000
,
0001
0000
1000
0100
,
1000
0000
0000
0000
,
0010
0000
0100
0001
,
1000
0000
0001
0000
,
1000
0000
0010
0000
,
1000
0001
0010
0001
,
1000
0000
0010
0010
,
0100
0000
0001
0000
,
0100
0000
0010
0000
,
1000
0000
0000
0000
,
1000
1000
0001
0001
,
1000
0001
0100
0010
,
1000
0010
1000
1000
,
0001
0000
0001
0001
,
1000
0000
0010
0100
,
0001
0100
0100
0100
,
0001
0100
0100
0010
,
1000
0000
0000
0000
,
0000
0000
0000
0000
,
1000
0000
0000
0000
;

//---------------dance-single - K. Ward----------------
#NOTES:
     dance-single:
     K. Ward:
     Hard:
     8:
     0.512,0.000,0.067,0.150,0.138,403.000,8.000,18.000,0.000,0.000,0.000:
0000
0000
0000
0000
,
0000
0000
0000
0000
,
0000
0000
0000
0000
,
0000
0000
0000
0000
,
0000
0000
0000
0000
,
0000
0000
0000
0000
0000
0000
0000
0000
1000
0000
0000
0001
0000
0000
0100
0000
,
0020
0000
0000
0000
0000
0000
0130
0002
,
0000
0000
1003
0010
0000
1000
0000
0220
,
0000
0000
0000
0330
,
0001
0100
0010
0110
,
0001
0100
0010
0000
1000
0010
0100
0000
,
0001
0100
0010
1000
0010
0000
1000
0000
,
0001
0100
0001
0000
1000
0100
1000
0000
,
0010
0100
0010
1000
0020
0000
0130
0000
,
0001
0100
0010
0000
1000
0010
0100
0000
,
0001
0100
0010
1000
0001
0100
0010
1000
,
0010
0100
0001
0000
1000
0010
1000
0000
,
0010
0100
0001
1000
0010
0100
0001
0000
,
1000
0100
1000
0000
0010
0000
1000
0010
0000
0100
0001
0000
0100
0000
0000
0000
,
0001
0010
0001
0000
0100
0000
0001
0100
0000
0010
1000
0000
0010
0000
0000
0000
,
1000
0010
1000
0000
0001
0000
0100
0010
0000
0100
0010
0000
1000
0000
0001
0000
,
0100
0010
0100
0000
0001
0000
0000
0000
2000
0000
0000
0000
3010
0000
0000
0000
,
1000
0100
1000
0000
0010
0000
1000
0010
0000
0100
0001
0000
0100
0000
0001
0000
,
0010
0001
1000
0000
0001
0000
1000
0100
0000
1000
0001
0000
0100
0000
0010
0000
,
1000
0010
1000
0000
0001
0000
0100
0010
0000
0100
0010
0000
1000
0000
0010
0000
,
0100
0010
1000
0000
0010
0000
0100
0001
0000
0100
0010
0000
2000
0000
0000
0000
,
3001
0010
0001
0000
0100
0000
0001
0100
0000
0010
1000
0000
0010
0000
1000
0000
,
0010
1000
0010
0000
1000
0000
0001
0010
0000
0001
0100
0000
0010
0000
0100
0000
,
0001
0100
0001
0000
1000
0000
0010
0100
0000
0010
1000
0000
0010
0000
1000
0000
,
0002
0000
0103
0000
0010
0100
0001
0000
,
1000
0010
1000
0000
0001
0100
0010
0000
,
1000
0010
0100
0001
1000
0000
0001
0000
,
1000
0010
0100
0000
0010
0100
0001
0000
,
1000
0010
0100
0001
0001
0000
1000
0000
,
0010
1000
0010
1000
0010
0100
0010
0100
,
0001
0100
0001
0100
0010
1000
0010
0100
,
0002
1000
0100
0100
,
1003
0000
0000
0000
0010
0100
0001
0000
,
1000
0010
0100
0001
1000
0010
0100
0001
,
1000
0010
0100
0010
0100
0000
0001
0000
,
1000
0010
0100
0000
0010
0100
0001
0000
,
0100
0010
0100
0001
0001
0000
1000
0000
,
0001
0100
0010
0000
0100
0010
1000
0000
,
0001
0100
0010
1000
0001
0100
0001
1000
,
0002
1000
0100
0100
,
1003
0000
0000
0000
0010
0100
0010
0100
,
0010
1000
0100
0010
0100
1000
1000
0000
,
0010
0100
0001
1000
0010
1000
1000
0000
,
0001
1000
0001
0100
0010
0100
0100
0000
,
0010
0100
0001
0100
0010
1000
0010
1000
,
0002
0010
0100
1003
,
0200
0001
1000
0301
,
2000
0000
0000
0000
,
3010
0000
0000
0000
0000
0000
0000
0000
1000
0000
0000
0001
0000
0000
0100
0000
,
0010
1000
0001
1000
0010
0000
1010
0000
,
0001
0100
0010
1000
0010
0000
0101
0000
,
1000
0100
0010
0001
1000
0000
1010
0000
,
0001
0100
0010
1000
0010
0100
0010
0000
,
1000
0010
0100
0000
0010
0100
0001
0000
,
1000
0100
1000
0001
0100
0010
0100
0000
,
0001
0010
0001
0000
1000
0010
1000
0000
,
0020
0100
0130
0001
,
1000
0100
0010
0001
1000
0010
0200
0000
,
0301
0010
0100
1000
0001
0100
0020
0000
,
1030
0100
1000
0001
0100
0001
0100
0010
,
1000
0001
0001
0110
,
0001
0001
1000
0010
0100
0100
0010
1000
,
0001
0001
0100
0010
0100
0100
0010
0000
,
2002
0000
0000
0000
,
3003
0000
0000
0000
,
1001
0000
0000
0000
;

//---------------dance-single - M. Puls----------------
#NOTES:
     dance-single:
     M. Puls:
     Challenge:
     9:
     0.692,0.000,0.376,0.050,0.355,529.000,45.000,6.000,0.000,0.000,0.000:
0000
0000
0000
0000
,
0000
0000
0000
0000
,
0000
0000
0000
0000
,
0001
1000
0010
0100
0001
1000
1000
0100
,
0001
0001
0100
1000
1000
0100
0001
0001
,
0100
0000
1000
0000
1000
0000
0100
0000
0001
0000
0000
0001
0000
0000
0100
0000
,
1000
0001
0100
0001
0010
0010
0011
0000
,
0001
0100
0010
1000
0010
0010
0110
0000
,
0001
0010
0100
1000
0100
0100
1100
0000
,
0001
0100
0010
0000
0100
0010
1000
0000
,
0001
0000
0100
0000
0001
0010
0001
0000
0010
0000
0100
0000
1000
0100
1000
0000
,
0001
0000
0100
0000
0001
1000
0010
0000
1000
0000
0010
0000
0100
0010
0100
0000
,
0001
0000
1000
0000
0001
0100
0010
0000
1000
0000
0100
0000
0010
0100
0010
0000
,
0100
0000
0010
0000
0100
1000
0001
0000
1000
0000
0100
0000
0110
0000
0000
0000
,
1000
0100
0110
0000
0001
0010
0110
0000
,
1000
0001
0100
0001
1000
0010
1000
0000
,
0001
0100
0001
0000
1000
0001
1000
0000
,
0010
0100
0001
0100
0010
1000
0010
0000
,
1000
0100
1000
0000
0110
0000
1000
0010
0000
0100
0001
0000
0110
0000
1000
0000
,
0001
0010
0001
0000
0110
0000
0001
0100
0000
0010
1000
0000
0110
0000
0001
0000
,
1000
0001
1000
0000
0011
0000
0100
0010
0000
0100
0010
0000
1100
0000
0011
0000
,
1000
0001
1000
0000
0100
0000
0010
0000
1001
0000
0100
0000
0010
0000
0000
0000
,
1000
0100
1000
0000
0110
0000
1000
0010
0000
0100
0001
0000
0110
0000
0100
0000
,
0001
0010
0001
0000
1100
0000
0001
0100
0000
0010
1000
0000
0001
0000
0010
0000
,
1000
0001
1000
0000
0011
0000
0100
0010
0000
0100
0010
0000
1100
0000
0001
0000
,
1000
0001
1000
0000
0001
0000
0100
0010
0000
0100
0001
0000
0110
0000
0001
0000
,
0010
1000
0010
0000
0100
0000
0001
0100
0000
1000
0100
0000
1000
0000
1000
0000
,
0010
1000
0010
0000
1000
0000
0010
0100
0000
0001
0100
0000
0001
0000
1000
0000
,
1000
0010
1000
0000
0001
0000
0100
0010
0000
0100
0010
0000
1000
0000
0001
0100
,
0000
0001
0100
0000
0001
0000
1000
0010
0000
1000
0010
0000
1000
0000
0001
0000
,
1000
0000
0010
0000
1000
0000
0000
0000
0001
0100
0001
0000
0010
0000
0100
0000
,
1000
0010
1000
0000
0100
0000
0010
0000
0100
0000
0010
0000
0001
0000
0000
0000
,
1000
0000
0010
0000
0100
0000
1000
0000
0100
0000
0010
0000
0001
0100
0001
0000
,
1000
0000
0010
0000
0100
0000
0010
1000
0010
0000
0000
0000
0100
0000
0000
0000
,
0001
0000
1000
0100
0010
0000
0001
0000
0010
0100
1000
0000
0010
0000
0100
0000
,
0001
0010
0100
0000
0010
0000
0100
0000
1000
0000
0010
0000
0100
0000
0001
0000
,
1000
0000
1000
0001
0100
0010
0100
0010
,
1000
0000
1000
0100
1000
0000
0010
0100
0010
0000
1000
0001
1000
0000
0001
1000
,
0001
0100
0010
0000
1000
0010
0100
0000
,
0001
0000
1000
0000
0010
0000
0010
0100
0010
0000
0000
0000
1000
0000
0000
0000
,
0001
0100
0010
0000
0010
0100
0001
0000
,
0001
0000
0100
0000
0010
0000
0100
0010
0100
0000
0000
0000
0010
0000
0000
0000
,
1000
0001
0100
0001
0100
0010
0100
0010
,
1000
0010
0100
0010
1000
0100
1000
0001
,
2002
0000
0000
0000
,
3003
0000
0000
0000
1100
1010
0011
0000
,
0010
0000
1000
0000
0100
0010
0001
0010
0100
0000
1000
0000
0001
0000
0000
0000
,
1010
0000
0110
0000
0101
0000
0001
0000
0010
0100
1000
0100
0010
0000
0001
0000
,
0100
0010
1000
0000
0100
1000
0001
0100
,
0010
1000
0100
0001
0100
0000
1010
0000
,
0110
0000
1000
0000
0010
0100
0000
0000
1001
0000
0001
0000
0100
0010
0000
0000
,
0110
0000
0100
0000
1000
0001
0000
0000
0110
0000
0010
0000
0001
1000
0000
0000
,
0000
0110
0000
0011
0000
1100
0000
0220
,
0000
0000
0000
0000
0330
0000
0000
0000
1000
0000
0000
0001
0000
0000
0100
0000
,
0001
0000
0000
0000
0001
0000
0100
0000
0001
0010
0001
0000
0010
0000
0100
0000
,
1000
0100
1000
0000
0001
0000
0100
0000
0010
0100
0001
0000
1000
0000
0010
0000
,
0100
0010
0100
0000
0001
0000
0100
0000
0100
0010
1000
0000
0001
0000
0100
0000
,
0010
0100
0010
0000
0100
0000
0010
0000
1000
0001
0100
0000
0001
0000
0100
0000
,
0110
0000
1000
0100
0110
0000
0001
0010
,
0110
0000
1000
0001
0100
0001
1000
0010
,
1000
0000
0001
0100
0001
0000
1000
0001
,
1000
0000
0000
0000
0010
0000
0100
0000
0001
0010
0100
0000
0010
0000
0001
0000
,
0010
0001
0100
0000
0010
0000
1000
0000
1000
0001
0010
0000
0100
0000
1000
0010
,
0100
0000
0001
0000
0001
1000
0100
0000
0010
0000
0001
0100
0001
0000
0001
0000
,
1000
0100
1010
0001
0100
0011
0100
0010
,
1100
0010
0100
0011
1000
0010
1000
0000
,
1000
0001
1000
0000
0010
0000
1000
0000
0001
1000
0001
0000
0100
0010
0100
0000
,
0001
1000
0001
0000
0100
0010
0100
0000
0001
1000
0001
0000
0100
0010
0100
0000
,
2002
0000
0000
0000
,
3003
0000
0000
0000
,
1001
0000
0000
0000
;

//---------------dance-single - K. Ward----------------
#NOTES:
     dance-single:
     K. Ward:
     Medium:
     5:
     0.316,0.000,0.025,0.017,0.000,260.000,3.000,2.000,0.000,0.000,0.000:
0000
0000
0000
0000
,
0000
0000
0000
0000
,
0000
0000
0000
0000
,
0000
0000
0000
0000
,
0000
0000
0000
0000
,
0000
0000
0000
0000
,
1000
0000
0100
0000
,
1000
0000
0010
0000
,
0001
0000
0100
0000
,
0010
1000
0010
1000
,
0001
0100
0010
0000
1000
0000
1000
0000
,
0001
0010
0001
0000
0010
0000
0010
0000
,
0001
0100
0010
0000
1000
0000
1000
0000
,
0001
1000
0100
0000
1000
0000
0010
0000
,
1000
0010
0100
0000
0001
0000
1000
0000
,
0001
1000
0010
0000
1000
0000
0010
0000
,
1000
0100
1000
0010
1000
0000
0010
0000
,
0100
0010
1000
0001
,
0010
0000
0001
0000
1000
0100
1000
0000
,
0001
0000
1000
0000
0010
1000
0010
0000
,
1000
0000
0001
0000
0010
0001
0010
0000
,
0001
1000
0010
0000
,
1000
0010
1000
1000
,
0100
1000
0001
0001
,
0100
0010
1000
0010
,
1000
0000
1000
0000
0001
0100
0001
0100
,
0010
0000
1000
0000
0001
0100
0001
0000
,
1000
0000
0001
0000
0010
0001
0010
0000
,
0001
0000
1000
0000
0100
1000
0100
0000
,
1000
0000
0010
0000
0100
0010
0100
0000
,
0001
1000
0010
0100
,
0001
1000
0010
0000
,
0100
0010
0100
0010
,
1000
0100
0100
0000
,
1000
0001
0100
0010
,
0100
0000
0001
0000
0010
0000
0001
0100
,
0001
0100
0010
0010
,
1000
0000
0000
0000
,
1000
0010
0100
0001
,
0100
0001
0100
0000
0100
0000
0000
0000
,
0010
1000
0010
0100
,
0010
1000
0010
0000
0010
0000
0000
0000
,
0010
0100
0001
1000
,
0001
0100
0010
0000
1000
0100
1000
0000
,
0001
0000
1000
0000
,
1001
0000
0000
0000
,
1000
0010
0100
0010
,
1000
0010
0100
0000
0010
0000
0100
0000
,
0001
1000
0100
0000
1000
0000
1000
0000
,
0001
0010
0001
0000
0001
0000
0100
0000
,
0001
0001
0001
0001
,
0100
0100
0100
0100
,
0110
0000
0010
0000
,
1001
0000
0000
0000
,
0001
0100
0001
0000
1000
0000
0010
0000
,
0100
0001
1000
0000
0010
0000
0100
0000
,
0010
1000
0001
0000
0010
0000
0001
0000
,
0100
0010
0100
0000
0100
0000
0010
0000
,
1000
0010
0100
0000
0100
0000
0010
0000
,
1000
0100
1000
0000
1000
0000
0001
0000
,
1000
0100
1000
0010
,
0010
0100
0001
0000
0010
0000
0001
0000
,
1000
0001
1000
0000
0010
0000
0100
0000
,
0010
0100
0010
0000
0100
0000
0001
0000
,
1000
0010
0100
0001
,
0100
0010
0100
0000
0001
0000
1000
0000
,
0010
0000
0100
0010
,
1000
0000
0001
0100
,
0200
0000
0000
0000
,
0302
0000
0000
0000
,
1003
0000
0000
0000
;

//---------------dance-double - M. Emirzian----------------
#NOTES:
     dance-double:
     M. Emirzian:
     Easy:
     3:
     0.212,0.000,0.025,0.008,0.000,174.000,3.000,1.000,0.000,0.000,0.000:
00000000
00000000
00000000
00000000
,
00000000
00000000
00000000
00000000
,
00000000
00000000
00000000
00000000
,
00000000
00000000
00000000
00000000
,
10000000
00000000
00000000
00000000
,
00010000
00000000
00000000
00000000
,
10000000
00000000
00100000
00000000
,
01000000
00000000
00001000
00001000
,
00100000
00000000
00001000
00000000
,
00010000
00000000
00000010
00000100
,
00000100
00000000
00000001
00000000
,
00001000
00000000
00000010
00001000
,
00001000
00000000
00000100
00000000
,
00010000
00000000
00001000
00001000
,
00100000
00000000
01000000
00000000
,
10000000
10000000
00010000
00010000
,
01100000
00000000
01000000
00000000
,
00001000
00001000
00010000
00000010
,
00000100
00000001
00000100
00000001
,
00001000
00000100
00001000
00000100
,
00010000
00001000
00010000
00001000
,
01000000
00010000
01000000
00010000
,
01000000
00100000
01000000
00100000
,
10000000
00100000
10000000
00010000
,
01000000
00000000
01000000
00000000
,
00001000
00010000
00000010
00001000
,
00000100
00000000
00000001
00000100
,
00001000
00000000
00000010
00000000
,
00010000
00000000
00001000
00000000
,
01000000
00100000
10000000
00010000
,
00100000
00000000
01000000
01000000
,
10000000
00000000
00100000
00000000
,
01000000
01000000
00001000
00000000
,
00010000
00000000
00001000
00000000
,
00000010
00000001
00000001
00000000
,
00000100
00000000
00000010
00000000
,
00010000
00010000
00001000
00000000
,
01000000
00000000
00100000
10000000
,
10000000
00000000
10000000
00000000
,
01000000
01000000
00010000
00000000
,
00001000
00000000
00010000
00000000
,
00000100
00000100
00000010
00000000
,
00000001
00000000
00000100
00000000
,
00001000
00001000
00010000
00000000
,
00001000
00000000
01000000
00000000
,
01000000
01000000
00100000
00100000
,
10010000
00000000
10000000
00000000
,
00010000
00000000
00001000
00000000
,
00000001
00000000
00000100
00000000
,
00000010
00000000
00010000
00000000
,
00001000
00000000
01000000
00000000
,
01000000
00000000
01000000
00000000
,
00200000
00000000
00000000
00000000
,
10300000
00000000
00000000
00000000
,
10000000
00000000
01000000
00000000
,
00010000
00000000
00001000
00001000
,
00010000
00000000
00000100
00000000
,
00000010
00000000
00000001
00000001
,
00000100
00000000
00000010
00000000
,
00010000
00000000
00001000
00001000
,
00010000
00000000
00100000
00000000
,
10000000
00000000
00010000
00010000
,
01000000
00000000
00001000
00000000
,
00010000
00010000
00000010
00000010
,
00001000
00000000
00000100
00000000
,
00000010
00000000
00000001
00000001
,
00000100
00000000
00000010
00000000
,
00010000
00010000
00001000
00001000
,
00010000
00000000
00000100
00000000
,
00000010
00000000
00000001
00000100
,
00001001
00000000
00000000
00000000
;

//---------------dance-double - M. Emirzian----------------
#NOTES:
     dance-double:
     M. Emirzian:
     Medium:
     6:
     0.380,0.000,0.025,0.083,0.000,306.000,3.000,10.000,0.000,0.000,0.000:
00000000
00000000
00000000
00000000
,
00000000
00000000
00000000
00000000
,
00000000
00000000
00000000
00000000
,
00000000
00000000
00000000
00000000
,
00002000
00000000
00023000
00000000
,
02030000
00000000
23000000
00000000
,
30200000
00000000
02300000
00000000
,
03002000
00000000
00013000
00000000
,
00010010
00000000
00000020
00000000
,
00000130
00000001
00000010
00000100
,
00001000
00000001
00000100
00000000
00001000
00000000
00010000
00000000
,
00001000
01000000
00100000
00000000
01000000
00000000
00010000
00000000
,
00100000
01000000
10000000
00000000
01000000
00000000
00010000
00000000
,
00001000
00010000
00000010
00000000
00000100
00000000
00000001
00000000
,
00001000
00000001
00000010
00000000
00001000
00000000
00010000
00000000
,
00001000
00010000
01000000
00000000
10000000
00000000
00010000
00000000
,
01000000
00100000
10000000
01000000
00010000
00001000
00000100
00000001
,
00000010
00000100
00001000
00000001
,
00000100
00000000
00001000
00000000
00010000
00100000
00010000
00000000
,
00001000
00000000
00010000
00000000
01000000
00010000
01000000
00000000
,
00010000
00000000
00001000
00000000
00000100
00001000
00000100
00000000
,
00001000
00000000
00010000
00000000
00001000
01000000
00100000
10000000
,
01000000
00100000
00010000
01000000
,
00100000
00010000
00001000
00010000
,
00000100
00000010
00000001
00001000
,
00000010
00000000
00000100
00000000
00000001
00000100
00000010
00001000
,
00000100
00000000
00010000
00000000
00001000
00000010
00001000
00000000
,
00010000
00000000
00001000
00000000
00000100
00001000
00000100
00000000
,
00001000
00000000
00010000
00000000
00100000
00010000
00100000
00000000
,
00010000
00000000
00001000
00000000
01000000
00010000
10000000
01000000
,
00100000
00000000
00010000
00000000
01000000
00000000
00100000
00010000
,
00001000
00000000
00010000
00000000
01000000
00000000
00010000
00001000
,
00000010
00000001
00001000
00000010
,
00000100
00000001
00000010
00000000
00000100
00000000
00001000
00000000
,
00000010
00010000
00001000
01000000
,
00100000
00000000
10000000
00000000
01000000
00100000
00010000
01000000
,
00100000
10000000
01000000
00010000
,
00001000
00010000
00000100
00000010
00000001
00000100
00000010
00000000
,
00000100
00000010
00001000
00000100
,
00000010
00001000
00010000
00000000
00001000
00000000
01000000
00000000
,
00100000
10000000
00010000
00100000
,
01000000
10000000
00010000
00000000
01000000
00000000
00100000
00000000
,
01000000
00001000
00010000
00000100
,
00001000
00000010
00000100
00000000
00000001
00000010
00000100
00001000
,
00000001
00000100
00000010
00000100
,
00002000
00000000
00000000
00000000
,
00013000
01000000
10000000
00100000
,
01000000
00010000
00100000
00000000
01000000
00000000
00100000
00000000
,
00001000
00010000
00000010
00000000
00000100
00000000
00000001
00000000
,
00001000
00000100
00000010
00000000
00001000
00000000
00010000
00000000
,
00100000
00000000
10000000
00010000
01000000
00000000
00100000
00000000
,
10000000
01000000
00010000
00001000
,
00010000
00000100
00000000
00000010
00000000
00000100
00000000
00001000
,
00000002
00000000
00000000
00000000
,
00000103
00000010
00010000
00000000
00001000
00000000
00100000
00000000
,
01000000
10000000
00010000
00000000
01000000
00000000
00100000
00000000
,
01000000
00010000
10000000
00000000
01000000
00000000
00010000
00000000
,
00001000
00010000
00000100
00000000
00000010
00000000
00000100
00000000
,
00001000
00000001
00000100
00000000
00000010
00000000
00000100
00000000
,
00000001
00000010
00000100
00000000
00010000
00000000
00001000
00000000
,
00010000
00100000
10000000
00010000
,
01000000
00100000
10000000
00000000
01000000
00000000
00110000
00000000
,
01000000
00001000
00010000
00000000
00000100
00000000
00000010
00000000
,
00000100
00001000
00000001
00000000
00000010
00000000
00000100
00000000
,
00001000
00000010
00000100
00000000
00001000
00000000
00010000
00000000
,
00001000
01000000
00100000
00000000
10000000
00000000
00010000
00000000
,
01000000
00100000
01000000
00001000
,
00010000
00000100
00010000
00001000
00000010
00000001
00001000
00000100
,
00000010
00000001
00000100
00001000
,
00010000
00000000
00100000
10000000
00010000
01000000
00100000
00000000
,
10010000
00000000
00000000
00000000
;

//---------------dance-double - M. Emirzian----------------
#NOTES:
     dance-double:
     M. Emirzian:
     Hard:
     7:
     0.485,0.000,0.067,0.217,0.200,373.000,8.000,26.000,0.000,0.000,0.000:
00000000
00000000
00000000
00000000
,
00000000
00000000
00000000
00000000
,
00000000
00000000
00000000
00000000
,
00000000
00000000
00000000
00000000
,
20000000
30100000
02000000
03010000
,
00200000
00301000
00020000
00030100
,
00002000
00003010
00000200
00000301
,
00000020
00000000
00000130
00000000
00001000
00000001
00000100
00000000
,
00001020
00010030
02001000
03010000
,
00100000
01000000
10000000
00000000
00010000
00000000
01010000
00000000
,
00100000
00000000
01000000
00000000
10000000
00000000
00000000
00010000
00000000
00000000
00100000
00000000
01000000
00000000
00000000
00100000
,
00000000
00000000
00010000
00000000
10000000
00000000
00000000
00010000
00000000
00000000
01000000
00000000
00100000
00000000
00000000
00010000
,
00000000
00000000
00001000
00000000
00000010
00000000
00000000
00001000
00000000
00000000
00010000
00000000
00001000
00000000
00000000
00000010
,
00000000
00000000
00000001
00000000
00001000
00000000
00000000
00000010
00000000
00000000
00000100
00000000
00000010
00000000
00000000
00001000
,
00000000
00000000
00000001
00000000
00000100
00000000
00000000
00001000
00000000
00000000
00010000
00000000
00100000
00000000
00000000
10000000
,
00000000
00000000
00010000
00000000
01000000
00000000
00000000
10000000
00000000
00000000
01000000
00000000
00010000
00000000
00000000
00100000
,
00000000
00000000
01000000
00000000
10000000
00000000
00000000
00010000
00000000
00000000
00100000
00000000
00001000
00000000
00000000
00010000
,
00000000
00000000
00001000
00000000
00000100
00000000
00000000
00000001
00000000
00000000
00000010
00000000
00000100
00000000
00010000
00000000
,
00001000
00000000
00000000
00000000
00010000
00000000
00000000
00001000
00000000
00000000
00000100
00000000
00001000
00000000
00000000
00000000
,
00020000
00000000
00000000
00000000
00130000
00000000
00000000
00010000
00000000
00000000
00001000
00000000
00010000
00000000
00000000
00000000
,
01000000
10000000
00100000
00000000
01000000
00010000
00100000
00000000
,
01000000
10000000
00100000
00010000
00001000
00000010
00001000
00000000
,
00020000
00000000
00000000
00000000
00031000
00000000
00000000
00000100
00000000
00000000
00001000
00000000
00010000
00000000
00000000
00000000
,
00100000
00000000
00000000
00000000
00020000
00000000
00000000
00001000
00030000
00000000
00000010
00000000
00001000
00000000
00000000
00000000
,
00010000
00001000
00000100
00000000
00000001
00000100
00001000
00000000
,
00000100
00000001
00000010
00001000
00010000
00100000
00010000
00000000
,
00002000
00000000
00000000
00000000
00013000
00000000
00000000
01000000
00000000
00000000
00010000
00000000
00001000
00000000
00000000
00000000
,
00000020
00000000
00000000
00000000
00001030
00000000
00000000
00010000
00000000
00000000
00100000
00000000
10000000
00000000
00000000
00000000
,
01000000
00100000
00001000
00000000
00010000
00000100
00001000
00000000
,
00000001
00000010
00000100
00010000
00000010
00000100
00000001
00000000
,
00000100
00000000
00001000
00000000
00010000
00001000
00000100
00000000
,
00001000
00010000
00100000
10000000
01000000
00000000
10000000
00000000
,
00010000
01000000
00100000
00000000
10000000
00100000
00010000
00000000
,
00100000
10000000
01000000
00010000
00001000
00000000
00010100
00000000
,
00000010
00000000
00000100
00000000
00001000
00000010
00000100
00000000
,
00000001
00000000
00000010
00000000
00000100
00010000
00001000
00010000
,
00100000
00000000
10000000
00010000
01000000
00000000
00100000
01000000
,
00010000
00000000
00100000
00000000
01000000
10000000
00100000
00010000
,
00001000
00000000
00010000
00000000
01000000
00010000
00001000
00000000
,
00000010
00000001
00000100
00000000
00001001
00000000
00000010
00000000
,
00000100
00000001
00001000
00000000
00000100
00010000
00001000
00000000
,
00000100
00001000
00010000
00000000
00011000
00000000
01000000
00000000
,
10000000
00100000
01000000
00000000
00010000
01000000
00100000
00000000
,
10000000
01000000
00010000
00001000
00000010
00000001
00000100
00000010
,
00010000
00000000
00001000
00000100
00000001
00000000
00000011
00000000
,
00000200
00000000
00000000
00000000
,
00001300
00000100
00000010
00000100
00010000
00001000
00000200
00000000
,
00001300
00010000
01000000
00100000
00010000
01000000
00002000
00000000
,
01003000
00100000
10000000
01000000
00010000
00001000
00020000
00000000
,
00030100
00000000
00000010
00000000
00000100
00000000
00010000
00000000
00000010
00000000
00000000
00000100
00000000
00000000
00000001
00000000
,
00000020
00001030
00020000
00130000
,
00020000
00000000
00031000
00000000
00000100
00001000
00010000
00100000
,
20000000
00010000
00000000
01000000
00000000
01000000
00000000
01000000
,
30000000
00000000
00200000
00000000
,
00310000
00000000
01000000
00000000
00100000
00000000
00000000
01000000
00000000
00000000
00001000
00000000
00010000
00000000
00000000
00000100
,
00000000
00000000
00001000
00000000
00000010
00000000
00000000
00010000
00000000
00000000
00001000
00000000
00000100
00000000
00000000
00000001
,
00000000
00000000
00000010
00000000
00000100
00000000
00000000
00001000
00000000
00000000
00000010
00000000
00000100
00000000
00000000
00000010
,
00000000
00000000
00001000
00000000
00000001
00000000
00000000
00000100
00000000
00000000
00000010
00000000
00010000
00000000
00000000
00001000
,
00000000
00000000
01000000
00000000
00100000
00000000
00000000
10000000
00000000
00000000
00010000
00000000
00100000
00000000
00000000
01000000
,
00000000
00000000
10000000
00000000
00010000
00000000
00000000
10000000
00000000
00000000
01000000
00000000
00010000
00000000
00000000
00001000
,
00000000
00000000
00000010
00000000
00000001
00000000
00000000
00000100
00000000
00000000
00000010
00000000
00000100
00000000
00000000
00000001
,
00000000
00000000
00000010
00000000
00000100
00000000
00000000
00001000
00000000
00000000
00000001
00000000
00001000
00000000
00000100
00000000
,
00000010
00000000
00001000
00000000
00010000
00000000
00000000
00100000
00000000
00000000
10000000
00000000
00010000
00000000
00000000
10000000
,
00000000
00000000
00100000
00000000
01000000
00000000
00000000
00010000
00000000
00000000
00100000
00000000
01000000
00000000
00000000
00010000
,
00000000
00000000
00001000
00000000
00010000
00000000
00000000
00000010
00000000
00000000
00000100
00000000
00000001
00000000
00000000
00000010
,
00000000
00000000
00001000
00000000
00000010
00000000
00000000
00000100
00000000
00000000
00010000
00000000
00001000
00000000
00000000
00100000
,
00000000
00000000
00001000
00000000
00010000
00000000
00000000
00100000
00000000
00000000
10000000
00000000
00010000
00000000
00000000
01000000
,
00000000
00000000
10000000
00000000
01000000
00000000
00000000
00010000
00000000
00000000
00100000
00000000
01000000
00000000
00010000
00000000
,
00002000
00003010
00000002
00000103
,
00010020
00000000
00010030
00001000
00000100
00001000
00010000
00100000
,
10000000
00000000
00000000
00000000
;

//---------------dance-double - M. Emirzian----------------
#NOTES:
     dance-double:
     M. Emirzian:
     Challenge:
     9:
     0.622,0.000,0.175,0.175,0.267,480.000,21.000,21.000,1.000,1.000,0.000:
00000000
00000000
00000000
00000000
,
00000000
00000000
00000000
00000000
,
00000000
00000000
00000000
00000000
,
00000000
00000000
00000000
00000000
,
10000000
01000000
00020000
00000000
01030000
00000000
00012000
00000000
,
00013000
01000000
10000000
00000000
00100000
00010000
00001000
00000000
,
00000010
00000001
00000200
00000000
00001300
00000000
00012000
00000000
,
00013000
01000000
20000000
00000000
31000000
00000000
01020000
00000000
,
00031000
00010000
01000000
00000000
00010000
00001000
00000100
00000000
,
00000001
00001000
00000100
00000000
00001001
00000000
00000110
00000000
,
00000010
00000000
00000100
00000000
00000001
00000000
00000000
00000010
00000000
00000000
00000100
00000000
00001000
00000000
00000001
00000100
,
00000000
00000000
00000010
00000000
00000100
00000000
00000001
00000010
00000000
00000000
00001000
00000000
00000001
00000000
00000100
00001000
,
00000000
00000000
00000010
00000000
00010000
00000000
00001000
01000000
00000000
00000000
00100000
00000000
01000000
00000000
00010000
00100000
,
00000000
00000000
10000000
00000000
00010000
00000000
01000000
10000000
00000000
00000000
00100000
00000000
01000000
00000000
00001000
00010000
,
00000000
00000000
01000000
00000000
00010000
00000000
00001000
01000000
00000000
00000000
00001000
00000000
00010000
00000000
00000010
00000100
,
00000000
00000000
00000010
00000000
00001000
00000000
00000100
00000010
00000000
00000000
00001000
00000000
00000010
00000000
00000001
00001000
,
00000000
00000000
00000100
00000000
00000001
00000000
00000100
00001000
00000000
00000000
00000010
00000000
00010000
00000000
00001000
00000100
,
00000000
00000000
00001000
00000000
00010000
00000000
00001000
00100000
00000000
00000000
00010000
00000000
01000000
00000000
00100000
00000000
,
10000000
01000000
00000000
00000000
00010000
00000000
00000010
00001000
00000000
00000000
00000100
00000000
00000110
00000000
00000000
00000000
,
00000001
00000100
00000000
00000000
00010000
00000000
00001000
01000000
00000000
00000000
00100000
00000000
01100000
00000000
00000000
00000000
,
10000000
00100000
00000000
00000000
00010000
00000000
00000100
00000010
00000000
00000000
00000100
00000000
00000110
00000000
00000000
00000000
,
00000001
00000100
00000000
00000000
00010000
00000000
00001000
01000000
00000000
00000000
00100000
00000000
01100000
00000000
00000000
00000000
,
10000000
01000000
10000000
00000000
00010000
00000000
01000000
00100000
00000000
10000000
01000000
00000000
00100000
00000000
00100000
00000000
,
00001000
00010000
00001000
00000000
01000000
00000000
00001000
00010000
00000000
00000010
00001000
00000000
00000100
00000000
00000100
00000000
,
00000010
00000001
00000010
00000000
00000100
00000000
00001000
00000001
00000000
00000100
00001000
00000000
00000100
00000000
00000100
00000000
,
00000010
00001000
00000010
00000000
00010000
00000000
00001000
01000000
00000000
00100000
00010000
00000000
00100000
00000000
00100000
00000000
,
01000000
00010000
01000000
00000000
00100000
00000000
10000000
01000000
00000000
00100000
00010000
00000000
00100000
00000000
00100000
00000000
,
01000000
10000000
01000000
00000000
00100000
00000000
00001000
00010000
00000000
00001000
00000100
00000000
00000001
00000000
00000001
00000000
,
00000100
00000001
00000100
00000000
00000010
00000000
00000100
00001000
00000000
00001000
00010000
00000000
00100000
00000000
10000000
01000000
,
00000000
01000000
00010000
00000000
00001000
00000000
00000010
00000001
00000000
00000001
00000100
00000000
00001000
00000000
00010000
00000000
,
00012000
00000000
00013000
00100000
10000000
00100000
00010000
00000000
,
00012000
00000000
00013000
00100000
01000000
00100000
00010000
00000000
,
00021000
00000000
00031000
00000010
00000001
00000010
00001000
00000000
,
00021000
00000000
00031000
00000010
00000100
00000010
00001000
00000000
,
00012000
00000000
00003010
00001000
00010000
00001000
00000010
00000000
,
00000120
00000000
00001030
00000100
00000010
00000100
00001000
00000000
,
00012000
00000000
01003000
00100000
00010000
00001000
00100000
01000000
,
10000000
00100000
10000000
01000000
00010000
00001000
00011000
00000000
,
00010000
00001000
00000010
00000100
00001000
00000010
00000001
00000010
,
00001000
00000001
00000100
00001000
00010000
01000000
10000000
00010000
,
01000000
00100000
01000000
00010000
00100000
01000000
10000000
01000000
,
00010000
00001000
00000100
00000001
00000010
00000100
00000010
00000001
,
00001000
00000001
00000100
00001000
00010000
00100000
00010000
00001000
,
00010000
00100000
10000000
00010000
10000000
00100000
00010000
00001000
,
00000010
00000001
00000010
00000100
00000001
00000100
00001000
00000010
,
00020000
00000000
00000000
0003M000
,
00001000
00010000
00000010
00010000
00001000
00010000
02000000
00000000
,
03010000
00001000
00100000
00001000
00010000
00001000
00000200
00000000
,
00001300
00010000
00000100
00010000
00001000
00010000
00200000
00000000
,
10300000
00000000
01000000
00000000
00010000
00000000
00001000
00000000
00000100
00000000
00000000
00000001
00000000
00000000
00000010
00000000
,
00001100
00000010
00000101
00000001
,
00000100
00001000
00010000
00001000
01000000
00100000
10000000
01000000
,
00100000
00010000
00000000
00100000
00000000
01000000
00000000
20000000
,
00000000
00000000
00000000
00000000
00020000
00000000
00000000
30000000
,
01030000
00000000
00100000
00000000
10000000
00000000
00000000
01000000
00000000
00000000
00010000
00000000
01000000
00000000
00100000
00001000
,
00000000
00000000
00010000
00000000
00001000
00000000
00000100
00000001
00000000
00000000
00001000
00000000
00000010
00000000
00000001
00001000
,
00000000
00000000
00000100
00000000
00000010
00000000
00001000
00000100
00000000
00000000
00000010
00000000
00000100
00000000
00010000
00001000
,
00000000
00000000
01000000
00000000
00100000
00000000
00010000
10000000
00000000
00000000
01000000
00000000
00010000
00000000
00100000
01000000
,
00000000
00000000
00100000
00000000
00010000
00000000
01000000
10000000
00000000
00000000
01000000
00000000
00001000
00000000
00100000
00010000
,
00000000
00000000
01000000
00000000
00001000
00000000
00010000
00001000
00000000
00000000
00000010
00000000
00000001
00000000
00001000
00000100
,
00000000
00000000
00000001
00000000
00001000
00000000
00000010
00000001
00000000
00000000
00000100
00000000
00000010
00000000
00001000
00000100
,
00000000
00000000
00010000
00000000
00001000
00000000
00100000
01000000
00000000
00000000
10000000
00000000
00010000
00000000
10000000
00000000
,
01000000
00010000
01000000
10000000
00100000
00010000
00100000
01000000
,
00100000
00010000
00001000
00000010
00001000
00010000
00001000
00000010
,
00000100
00000001
00000100
00001000
00000001
00000100
00000001
00000010
,
00000100
00010000
00001000
01000000
00010000
01000000
00100000
10000000
,
01000000
00100000
01000000
00010000
00001000
00000100
00001000
00010000
,
00001000
00000100
00000001
00000010
00000100
00001000
00000010
00010000
,
00011000
00000000
00000000
02000000
00000000
00000000
20000000
00000000
00000000
00010000
33000000
00000000
,
10000000
01000000
00010000
00001000
00000100
00000001
00000010
00000100
,
00001001
00000000
00000000
00000000
;

//---------------lights-cabinet - ----------------
#NOTES:
     lights-cabinet:
     :
     Easy:
     1:
     1.000,0.000,1.000,0.000,0.134,469.000,265.000,0.000,0.000,239.000,0.000:

00000000
00000000
00000000
00000000
,
00000000
00000000
00000000
00000000
,
10000011
01000000
00100000
00010000
10000000
01000000
00100000
00010000
,
10000000
00100000
01000000
00010000
10000000
00100000
01000000
00010000
,
10000000
00100000
01000000
00010000
10000000
01000000
00100000
00010000
,
10000000
01000000
00100000
00010000
10000011
00010000
00000011
01000000
,
10100011
01000000
00100000
00010000
10000000
01000000
01100000
00010000
,
00010011
01000000
10100000
10100000
00000000
11010000
00100000
11100000
,
10000011
01000000
00100000
00010000
10000000
01000000
00100000
00010000
,
00010011
10000000
01000000
00000000
01100011
00000000
01110011
00000000
,
00010011
01000000
00100011
00000000
10000011
00100000
01000011
00000000
,
10010011
01000000
00100011
10000000
01100011
00000000
10000011
00000000
,
00010011
01000000
00010011
00000000
10000011
01000000
10000011
00000000
,
00100011
01000000
00100011
10000000
10100011
00000000
11000011
00000000
,
01010011
01000000
00100011
00000000
11100011
00100000
01000011
00000000
,
10010011
01000000
00100011
10000000
01110011
01000000
01100011
10000000
,
10110011
01000000
00010011
00000000
11000011
00100000
10000011
00000000
,
10100011
01000000
00010011
10000000
01110011
01000000
10010011
00000000
,
10000011
01000000
10000000
00000000
00100011
00000000
10000000
00100000
00000011
01000000
00010011
00000000
11110011
00000000
00000000
00000000
,
00010011
00100000
00010000
00000000
01000011
00000000
00010000
01000000
00000011
00100000
10000011
00000000
11110011
00000000
00000000
00000000
,
10000011
00100000
10000000
00000000
00010011
00000000
01000000
00100000
00000011
01000000
00100011
00000000
11000011
00000000
00010000
00000000
,
11000011
00100000
00000000
00000000
11010011
00000000
00000000
00000000
11110011
00000000
00000000
00000000
00100000
00000000
00000000
00000000
,
10000011
01000000
10000000
00000000
00100011
00000000
10000000
00100000
00000011
01000000
00010011
00000000
01000011
00000000
00010000
00000000
,
01100011
00010000
10000000
00000000
00010011
00000000
10000000
01000000
00000011
10000000
00010011
00000000
01000011
00000000
00100000
00000000
,
10000011
00100000
10000000
00000000
00010011
00000000
01000000
00100000
00000011
01000000
00100011
00000000
10000011
00000000
00100000
00000000
,
01000011
00100000
10000000
00000000
00100011
00000000
01000000
00010000
00000011
01000000
00100011
00000000
11110011
00000000
00000000
00000000
,
00010011
00100000
00010000
00000000
01000011
00000000
00010000
01000000
00000011
00100000
10000011
00000000
00100011
00000000
10000000
00000000
,
00100011
10000000
00100000
00000000
10000011
00000000
00010000
00100000
00000011
00010000
01000011
00000000
00100011
00000000
01000000
00000000
,
00010011
01000000
00010000
00000000
10000011
00000000
00100000
01000000
00000011
00100000
10000000
00000000
00100011
00000000
10000000
00000000
,
01110011
00000000
11000011
00000000
11100011
01000011
10010011
00000000
,
10100011
00100000
10000011
00000000
00010011
01000000
00100011
00000000
,
11110011
00100000
01000011
00010000
10000011
00000000
11110011
00000000
,
11100011
00100000
01000011
00000000
00100011
01000000
00010011
00000000
,
11110011
00100000
01000011
00010000
00010011
00000000
10000011
00000011
,
01110011
10000000
00100011
10000000
01110011
01000000
00100011
01000000
,
10110011
01000000
00010011
01000000
10100011
10000000
00100011
01000000
,
01010011
10000000
11000011
01000000
,
11110011
00000000
00000011
00000000
10100011
01000011
01110011
00000000
,
10000011
00100000
01000011
00010000
11010011
00100000
01000011
00010000
,
10100011
00100000
01000011
00100000
11000011
00000000
01010000
00000000
,
10010011
00100000
01000011
00000000
10100011
01000000
00010011
00000000
,
01010011
00100000
01000011
00010000
10010011
00000000
10100000
00000000
,
10010011
01000000
00100011
00000000
11000011
00100000
10000011
00000000
,
00110011
01000000
00100011
10000000
10010011
01000000
00110011
10000011
,
10110011
11000011
01010011
01110011
,
11110011
00000000
00000000
00000000
00100000
01000000
00100000
01000000
,
10110011
10000000
01000011
00100000
01100011
10000000
10000011
00000000
,
10110011
01000000
00010011
10000000
01100011
10000000
10000011
00000000
,
00110011
10000000
00010011
01000000
10100011
01000000
11000011
00000000
,
00110011
01000000
00010011
01000000
10100011
10000000
01100011
10000000
,
10010011
10100000
01010011
10100000
,
11000011
00110000
11000011
00110011
,
11110011
11110000
00000000
11110000
00000000
11110000
00000000
11110000
,
11110011
00000000
00000000
00000000
00000000
00000000
00000000
00000000
10000000
00000000
00000000
00010000
00000000
00000000
01000000
00000000
,
00100011
10000000
00010011
10000000
00100011
00000011
10100011
00000000
,
00010011
01000000
00100011
10000000
00100011
00000011
01010011
00000000
,
10000011
01000000
00100011
00010000
10000011
00000011
10100011
00000000
,
00010011
01000000
00100011
10000000
00100011
01000011
00100011
00000000
,
10000011
00100000
01000011
00000000
00100011
01000011
00010011
00000000
,
10000011
01000000
10000011
00010000
01000011
00100011
01000011
00000000
,
00010011
00100000
00010011
00000000
10000011
00100011
10000011
00000000
,
00100011
00000000
01000011
00000000
01000011
00000011
00010011
00000000
,
10000011
01000000
00100011
00010000
10000011
00100011
01000011
00000000
,
00010011
00100000
01000011
10000000
00010011
01000011
00100011
00000000
,
10000011
01000000
10000011
00010000
01000011
00010011
01000011
00100000
,
10000011
00000000
00010011
00000000
00010011
00000011
01100011
00000000
,
00010011
00010000
10000011
00100000
01000011
01000000
00100011
10000000
,
00010011
00010000
01000011
00100000
01000011
01000000
00100011
00000000
,
11110011
00000000
00000000
00000000
,
00000000
00000000
00000000
00000000
,
11110011
00000000
00000000
00000000
;

//---------------dance-single - M. Puls----------------
#NOTES:
     dance-single:
     M. Puls:
     Beginner:
     1:
     0.091,0.000,0.042,0.000,0.000,71.000,5.000,0.000,0.000,0.000,0.000:
0000
0000
0000
0000
,
0000
0000
0000
0000
,
0000
0000
0000
0000
,
0000
0000
0000
0000
,
0000
0000
0000
0000
,
0000
0000
0000
0000
,
1000
0000
0000
0000
,
0000
0000
0000
0000
,
0001
0000
0000
0000
,
0010
0000
0000
0000
,
1001
0000
0000
0000
,
0001
0000
0000
0000
,
1000
0000
0000
0000
,
0001
0000
0000
0000
,
1000
0000
0000
0000
,
0001
0000
0000
0000
,
0100
0000
0000
0000
,
0010
0000
0000
0000
,
1000
0000
0000
0000
,
0010
0000
0000
0000
,
0001
0000
0000
0000
,
1000
0000
0000
0000
,
0001
0000
0001
0000
,
1000
0000
0000
0000
,
0010
0000
0010
0000
,
0100
0000
0000
0000
,
0001
0000
0000
0000
,
1000
0000
0000
0000
,
1001
0000
0000
0000
,
0001
0000
0000
0000
,
1001
0000
0000
0000
,
0001
0000
0000
0000
,
1000
0000
0000
0000
,
0010
0000
0000
0000
,
0100
0000
0000
0000
,
0001
0000
0000
0000
,
1000
0000
0000
0000
,
1000
0000
0000
0000
,
0001
0000
0001
0000
,
1000
0000
0000
0000
,
1000
0000
0010
0000
,
0010
0000
0000
0000
,
0100
0000
0000
0000
,
0100
0000
0000
0000
,
0001
0000
0000
0000
,
1000
0000
0000
0000
,
1000
0000
1000
0000
,
0001
0000
0001
0000
,
1000
0000
1000
0000
,
0001
0000
0001
0000
,
1000
0000
0000
0000
,
0000
0000
0000
0000
,
1001
0000
0000
0000
,
0000
0000
0000
0000
,
1000
0000
0000
0000
,
0010
0000
0000
0000
,
1000
0000
0000
0000
,
0100
0000
0000
0000
,
1000
0000
0000
0000
,
0001
0000
0000
0000
,
1000
0000
0000
0000
,
0001
0000
0001
0000
,
1000
0000
0000
0000
,
0001
0000
0000
0000
,
1000
0000
0000
0000
,
0010
0000
0000
0000
,
0100
0000
0100
0000
,
0001
0000
0000
0000
,
1000
0000
0000
0000
,
0000
0000
0000
0000
,
1001
0000
0000
0000
;
