#TITLE:Go 60 Go;
#SUBTITLE:;
#ARTIST:Takoyaki;
#TITLETRANSLIT:;
#SUBTITLETRANSLIT:;
#ARTISTTRANSLIT:;
#GENRE:Techno;
#CREDIT:;
#BANNER:Go 60 Go-banner.png;
#BACKGROUND:Go 60 Go-bg.png;
#LYRICSPATH:;
#CDTITLE:;
#MUSIC:Go _60_ Go.ogg;
#OFFSET:-0.026;
#SAMPLESTART:35.980;
#SAMPLELENGTH:11.660;
#SELECTABLE:YES;
#BPMS:0.000=160.000;
#STOPS:238.000=0.375
;
#BGCHANGES:0.000=Go 60 Go-bg.png=1.000=0=0=1=====,
16.000=In The Groove 2/453_JumpBack.mpg=1.000=1=0=1===CrossFade==,
26.500=In The Groove 2/453_JumpBack.mpg=1.000=1=0=1=SongBgWithMovieViz==CrossFade==0.5^0.5^0.5^1,
32.000=-random-=1.000=0=0=1===FadeLeft==,
48.000=-random-=1.000=0=0=1===FadeRight==,
64.000=-random-=1.000=0=0=1===FadeUp==,
80.000=-random-=1.000=0=0=1===FadeDown==,
96.000=-random-=1.000=0=0=1===SlideLeft==,
112.000=-random-=1.000=0=0=1===SlideRight==,
128.000=-random-=1.000=0=0=1===SlideUp==,
144.000=-random-=1.000=0=0=1===SlideDown==,
160.000=In The Groove 2/956_JumpBack.mpg=1.000=0=0=1=SongBgWithMovieViz===0^1^1^1=,
176.000=-random-=1.000=0=0=1=====,
188.000=Go 60 Go-bg.png=1.000=0=0=1====1^1^0^1=,
188.750=Go 60 Go-bg.png=1.000=0=0=1====0^1^1^1=,
189.500=Go 60 Go-bg.png=1.000=0=0=1====1^0^1^1=,
190.500=Go 60 Go-bg.png=1.000=0=0=1====0^0^1^1=,
191.000=Go 60 Go-bg.png=1.000=0=0=1=====,
191.250==1.000=0=0=1====1^0^0^1=,
191.500=Go 60 Go-bg.png=1.000=0=0=1=====,
192.000=-random-=1.000=0=0=1===FadeLeft==,
208.000=-random-=1.000=0=0=1===FadeRight==,
224.000=-random-=1.000=0=0=1===FadeUp==,
238.000=Go 60 Go-bg.png=1.000=0=0=1=====,
239.000=-random-=1.000=0=0=1===FadeLeft==,
255.000=-random-=1.000=0=0=1=====,
271.000=-random-=1.000=0=0=1===FadeUp==,
283.000=Go 60 Go-bg.png=1.000=0=0=1====1^0^1^1=,
283.500=Go 60 Go-bg.png=1.000=0=0=1====0^1^1^1=,
284.000=Go 60 Go-bg.png=1.000=0=0=1====1^1^0^1=,
285.000=Go 60 Go-bg.png=1.000=0=0=1====1^0^0^1=,
285.500=Go 60 Go-bg.png=1.000=0=0=1====0^0^1^1=,
286.000=Go 60 Go-bg.png=1.000=0=0=1====0^1^0^1=,
287.000=Go 60 Go-bg.png=1.000=1=0=1===CrossFade==,
99999=-nosongbg-=1.000=0=0=0 // don't automatically add -songbackground-
;
#BGCHANGES2:156.000=yellow flash=1.000=0=0=1=====,
160.000=white flash=1.000=0=0=1=====,
176.000=white flash=1.000=0=0=1=====,
255.000=white flash=1.000=0=0=1=====,
287.000=white flash=1.000=0=0=1=====,
;
#KEYSOUNDS:;
// cache tags:
#FIRSTBEAT:15.000;
#LASTBEAT:289.000;
#SONGFILENAME:/Songs/In The Groove 2/Go 60 Go/Go 60 Go.sm;
#HASMUSIC:1;
#HASBANNER:1;
#MUSICLENGTH:110.315;
// end cache tags

//---------------dance-single - ----------------
#NOTES:
     dance-single:
     :
     Easy:
     4:
     0.291,0.000,0.335,0.109,0.000,176.000,37.000,12.000,0.000,0.000,0.000:
0000
0000
0000
0000
,
0000
0000
0000
0000
,
0000
0000
0000
0000
,
0000
0000
0000
0000
,
1001
0000
0110
0000
,
0010
0000
0100
0000
,
0001
0010
0100
2002
,
0000
0000
0000
3003
,
1001
0000
0001
0010
,
0100
0000
0001
0100
,
0000
0110
0000
1000
,
0010
0000
0110
0000
,
1001
0000
0110
0000
,
0001
0100
0010
0000
,
1000
0100
0000
0010
,
0001
1000
0010
0000
,
1000
0000
1000
0000
,
0010
0000
0010
0000
,
0100
0000
0001
0000
,
0100
0000
0001
0000
,
0001
0001
0001
0000
,
1000
1000
1000
0000
,
0010
0100
0010
0000
,
0001
1000
2002
3003
,
0110
0000
0001
0010
,
0001
0000
0010
1000
,
0000
0110
0000
0100
,
1000
0010
0100
0000
,
0001
1000
0010
1000
,
0000
0001
0010
0000
,
1000
0010
0000
0100
,
1000
0001
0100
0000
,
0010
0000
0110
0000
,
0010
0000
0110
0000
,
0001
1000
0100
0010
,
0001
0100
0001
0000
,
0010
0000
1001
0000
,
0100
0000
0110
0000
,
1000
0100
0010
0001
,
0010
0001
1000
0000
,
0000
0001
0000
0010
,
0000
1000
0000
0100
,
0000
0001
0000
1000
,
0000
0010
0000
0100
,
0001
0001
0001
0000
,
1000
0001
1000
0000
,
0010
0100
0010
0000
,
1001
0110
1001
0110
,
1001
0000
0001
0010
,
0100
1000
0100
0000
,
1000
0010
0001
0000
,
0010
1000
0001
0000
,
0110
0000
0001
0010
,
0001
0100
0010
0000
,
1000
0100
1000
0100
,
0010
0001
0100
0000
,
0100
1000
0010
0000
,
0110
0000
1001
0000
,
0100
0001
0010
0000
,
0110
0000
1001
0001
,
1000
0001
0000
0110
,
0000
1001
0000
0010
,
0100
0010
0000
1001
,
0000
0110
0000
0100
,
0000
0010
0000
1000
,
0000
0001
0000
0001
,
0000
1000
0000
0010
,
0000
0100
0000
2002
,
0000
0000
3003
0220
,
0000
0000
0330
2002
,
0000
0000
3003
0110
,
1001
0110
1001
2002
,
0000
3003
0000
0000
;

//---------------dance-single - C.Emirzian----------------
#NOTES:
     dance-single:
     C.Emirzian:
     Medium:
     7:
     0.486,0.000,0.607,0.073,0.000,300.000,67.000,8.000,0.000,0.000,0.000:
0000
0000
0000
0000
,
0000
0000
0000
0000
,
0000
0000
0000
0000
,
0000
0000
0000
0000
,
1001
0000
0000
1000
0100
0001
0000
0100
,
0000
1000
0000
0010
0100
0000
0110
0000
,
0001
0000
1000
0100
1000
0100
0000
2002
,
0000
0000
0000
3003
,
0101
0000
1000
0100
0010
0000
1000
0010
,
0000
0011
0000
0001
0100
0000
1010
0000
,
1001
0000
0110
0000
1000
0010
0100
0000
,
0001
0010
0100
1000
0001
0100
0010
0000
,
1010
0000
1000
0001
0010
0000
0100
0001
,
0000
1100
0000
1000
0001
0000
1010
0000
,
0101
0000
0011
0000
1000
0100
1000
0000
,
0001
0010
0100
0000
1000
0100
0010
0000
,
1001
0000
1010
0000
,
0100
0000
0011
0000
,
0010
0000
1100
0000
,
0010
0000
0101
0100
,
0010
1000
0011
0100
,
1000
0010
0101
0001
,
1000
0100
1010
0100
,
0001
0010
2002
3003
,
1000
0100
0000
0010
0000
0001
0000
0100
,
0010
1000
0000
0010
0000
0100
0000
0001
,
1000
0001
0100
0000
0001
0100
0010
0000
,
0010
1000
0001
0010
0001
1000
0100
0000
,
0010
0001
0000
1000
0000
0100
0000
0010
,
0000
0001
0000
0010
0000
0100
0000
1000
,
0000
0010
0000
0100
0001
0100
0010
0000
,
1000
0100
1000
0001
1000
0010
1000
0000
,
1100
0010
0101
0010
,
1000
0010
0100
0010
0001
0010
0100
0000
,
0011
0100
1001
0010
,
0001
0100
0001
1000
0001
0010
0001
0000
,
1001
1010
0100
0011
,
0001
0100
0010
0100
1000
0100
0010
0100
,
0001
1100
0100
0101
,
1000
0100
0010
0001
0100
0010
0100
0000
,
0000
1001
0000
0110
,
0000
1010
0000
0011
,
0000
1100
0000
0101
,
0000
1001
0000
0110
,
1000
1010
1000
1100
,
0001
0011
0001
0101
,
1001
0110
1001
0110
,
2002
0000
0000
3003
,
1000
0100
0010
0001
,
0010
0100
1000
0001
0100
0001
1000
0000
,
1010
0000
1000
0100
1000
0010
0100
0000
,
0001
0010
0001
0010
0100
1000
0010
0000
,
0101
0000
0001
0100
0001
1000
0100
0000
,
0010
0001
0100
0000
1000
0100
0001
0000
,
1001
0000
1000
0100
0010
0001
0100
0000
,
0010
1000
0010
0100
0001
1000
0100
0000
,
0011
1001
0110
1000
,
0100
0000
0010
0001
1000
0000
0001
0010
,
0100
0000
0010
0100
1000
0000
0010
0001
,
1000
0000
0010
0000
0100
0000
0001
0100
,
0001
0000
1000
0100
1000
0000
0001
1000
,
0100
1000
0001
1000
0010
1000
0001
0000
,
0010
0100
1000
0010
,
0100
0001
1000
0100
,
1010
0000
0101
0000
,
1100
0000
0011
0000
,
1100
0000
0101
0000
,
0011
0000
1010
0000
,
1100
0000
0101
0000
,
1010
0000
0011
0000
,
0000
0000
0000
0010
,
0001
0100
0010
2002
,
0000
3003
0000
0000
;

//---------------dance-single - M.Emirzian----------------
#NOTES:
     dance-single:
     M.Emirzian:
     Hard:
     9:
     0.719,0.000,0.236,0.091,0.594,519.000,26.000,10.000,2.000,4.000,0.000:
0000
0000
0000
0000
,
0000
0000
0000
0000
,
0000
0000
0000
0000
,
0000
0000
0000
0000
,
1001
0000
0000
1000
0001
1000
0000
1000
,
0000
0001
0000
1000
0001
0000
1000
0000
,
1001
0000
0001
1000
0001
1000
0000
2002
,
0000
0000
0000
0000
0000
0000
0000
0000
0110
3003
0000
0000
0000
0000
0000
0000
,
1000
0000
0000
0000
0000
0000
0000
0000
0001
0000
0000
0000
0000
0100
0000
0000
0000
0000
0000
0000
0000
0000
0000
0000
0100
0000
0000
0000
0000
0010
0000
0000
0000
0000
0000
0000
0000
0000
0000
0000
0010
0000
0000
0000
0000
1000
0000
0000
0000
0000
0000
0000
0000
0000
0000
0000
1000
0000
0000
0000
0000
0100
0000
0000
,
0000
0000
0000
0000
0000
0100
0000
0000
0010
0000
0000
0000
0000
0000
0000
0000
0000
0000
0000
0000
0000
0000
0000
0000
0001
0000
0000
0000
0000
0000
0000
0000
1000
0000
0000
0000
0000
0000
0000
0000
0010
0000
0000
0000
0000
0100
0000
0000
0010
0000
0000
0000
0000
0000
0000
0000
1000
0000
0000
0000
0000
0001
0000
0000
,
0000
0000
0000
0000
0000
0000
0000
0000
0001
0000
0000
0000
0000
0010
0000
0000
0000
0000
0000
0000
0000
0000
0000
0000
0010
0000
0000
0000
0000
0100
0000
0000
0000
0000
0000
0000
0000
0000
0000
0000
0100
0000
0000
0000
0000
1000
0000
0000
0000
0000
0000
0000
0000
0000
0000
0000
1000
0000
0000
0000
0000
0001
0000
0000
,
1000
0000
0000
0000
0000
0000
0000
0000
0010
0000
0000
0000
0000
0000
0000
0000
0000
0000
0000
0000
1000
0000
0000
0000
0000
0000
0000
0100
0000
0000
0000
0000
0010
0000
0000
0000
0000
0000
0000
0000
0001
0000
0000
0000
0000
0000
0000
0000
0100
0000
0000
0000
0000
0000
0000
0000
0000
0000
0000
0000
0000
0000
0000
0000
,
0001
0000
0000
0000
0000
0000
0000
0000
0100
0000
0000
0000
0000
0010
0000
0000
0000
0000
0000
0000
0000
0000
0000
0000
0010
0000
0000
0000
0000
1000
0000
0000
0000
0000
0000
0000
0000
0000
0000
0000
1000
0000
0000
0000
0000
0100
0000
0000
0000
0000
0000
0000
0000
0000
0000
0000
0100
0000
0000
0000
0000
1000
0000
0000
,
0000
0000
0000
0000
0000
1000
0000
0000
0001
0000
0000
0000
0000
0000
0000
0000
0000
0000
0000
0000
0000
0000
0000
0000
0010
0000
0000
0000
0000
0000
0000
0000
0100
0000
0000
0000
0000
0000
0000
0000
0010
0000
0000
0000
0000
0001
0000
0000
0010
0000
0000
0000
0000
0000
0000
0000
0100
0000
0000
0000
0000
1000
0000
0000
,
0000
0000
0000
0000
0000
0000
0000
0000
1000
0000
0000
0000
0000
0001
0000
0000
0000
0000
0000
0000
0000
0000
0000
0000
0001
0000
0000
0000
0000
0100
0000
0000
0000
0000
0000
0000
0000
0000
0000
0000
0100
0000
0000
0000
0000
0010
0000
0000
0000
0000
0000
0000
0000
0000
0000
0000
0010
0000
0000
0000
0000
1000
0000
0000
,
0010
0000
0000
0000
0000
0000
0000
0000
0100
0000
0000
0000
0000
0000
0000
0000
0001
0000
0000
0000
0000
0000
0000
0000
0010
0000
0000
0000
0000
0000
0000
0000
0100
0000
0000
0000
0000
0000
0000
0000
1000
0000
0000
0000
0000
0001
0000
0000
1000
0000
0000
0000
0000
0000
0000
0000
0100
0000
0000
0000
0000
0000
0000
0000
,
0010
0000
0000
0000
0001
0000
1000
0000
0010
0000
0100
0001
0000
0001
0010
0000
,
0100
0000
0010
0000
0001
1000
0001
0000
0100
0000
1000
0000
0100
0000
0010
0000
,
0100
0000
0001
0000
1000
0010
1000
0000
0001
0000
0010
0001
0010
0000
0100
0000
,
0010
0000
0001
0000
0100
0010
0100
0000
0001
0000
0010
0000
0100
0000
0010
0000
,
1000
0000
0010
0000
0100
1000
0100
0000
0010
0000
0001
1000
0000
1000
0010
0000
,
0100
0000
0001
0000
0100
0010
0100
0000
0001
0000
1000
0000
0100
0000
0001
0000
,
0100
0000
0010
0000
0100
1000
0100
0000
0010
0000
0001
1000
0001
0000
0100
0000
,
0010
0000
0000
0000
1001
0110
1001
0110
,
0001
0000
0000
0000
0000
0000
0000
0000
1000
0000
0000
0000
0000
0001
0000
0000
0000
0000
0000
0000
0000
0000
0000
0000
0001
0000
0000
0000
0000
0010
0000
0000
0000
0000
0000
0000
0000
0000
0000
0000
0010
0000
0000
0000
0000
0100
0000
0000
0000
0000
0000
0000
0000
0000
0000
0000
0100
0000
0000
0000
0000
1000
0000
0000
,
0000
0000
0000
0000
0000
1000
0000
0000
0010
0000
0000
0000
0000
0000
0000
0000
0000
0000
0000
0000
0000
0000
0000
0000
0100
0000
0000
0000
0000
0000
0000
0000
0001
0000
0000
0000
0000
0000
0000
0000
0100
0000
0000
0000
0000
0010
0000
0000
0100
0000
0000
0000
0000
0000
0000
0000
0001
0000
0000
0000
0000
1000
0000
0000
,
0000
0000
0000
0000
0000
0000
0000
0000
1000
0000
0000
0000
0000
0100
0000
0000
0000
0000
0000
0000
0000
0000
0000
0000
0100
0000
0000
0000
0000
0010
0000
0000
0000
0000
0000
0000
0000
0000
0000
0000
0010
0000
0000
0000
0000
0001
0000
0000
0000
0000
0000
0000
0000
0000
0000
0000
0001
0000
0000
0000
0000
1000
0000
0000
,
0001
0000
0000
0000
0000
0000
0000
0000
0100
0000
0000
0000
0000
0000
0000
0000
0000
0000
0000
0000
0010
0000
0000
0000
0000
0000
0000
1000
0000
0000
0000
0000
0001
0000
0000
0000
0000
0000
0000
0000
0100
0000
0000
0000
0000
0000
0000
0000
0010
0000
0000
0000
0000
0000
0000
0000
0000
0000
0000
0000
0000
0000
0000
0000
,
0100
0000
0000
0000
0000
0000
0000
0000
0001
0000
0000
0000
0000
1000
0000
0000
0000
0000
0000
0000
0000
0000
0000
0000
1000
0000
0000
0000
0000
0010
0000
0000
0000
0000
0000
0000
0000
0000
0000
0000
0010
0000
0000
0000
0000
0100
0000
0000
0000
0000
0000
0000
0000
0000
0000
0000
0100
0000
0000
0000
0000
0001
0000
0000
,
0000
0000
0000
0000
0000
0001
0000
0000
1000
0000
0000
0000
0000
0000
0000
0000
0000
0000
0000
0000
0000
0000
0000
0000
0100
0000
0000
0000
0000
0000
0000
0000
0010
0000
0000
0000
0000
0000
0000
0000
0100
0000
0000
0000
1000
0000
0000
0000
0100
0000
0000
0000
0000
0000
0000
0000
0010
0000
0000
0000
0000
0100
0000
0000
,
0000
0000
0000
0000
0000
0000
0000
0000
0100
0000
0000
0000
0000
1000
0000
0000
0000
0000
0000
0000
0000
0000
0000
0000
1000
0000
0000
0000
0000
0010
0000
0000
0000
0000
0000
0000
0000
0000
0000
0000
0010
0000
0000
0000
0000
0100
0000
0000
0000
0000
0000
0000
0000
0000
0000
0000
0100
0000
0000
0000
0000
0001
0000
0000
,
0100
0000
0000
0000
0000
0000
0000
0000
0010
0000
0000
0000
0000
0000
0000
0000
0100
0000
0000
0000
0000
0000
0000
0000
0001
0000
0000
0000
0000
1000
0000
0000
0001
0000
0000
0000
0000
0000
0000
0000
0010
0000
0000
0000
0000
0000
0000
0000
0100
0000
0000
0000
0000
0000
0000
0000
0000
0000
0000
0000
0000
0000
0000
0000
,
1000
0010
0100
0001
0100
0010
1000
0100
,
0010
0001
0010
0100
1000
0010
0100
0010
,
0001
0010
0100
0010
1000
0100
0010
0100
,
0001
0100
0010
0100
1000
0010
0100
1000
,
0100
0010
1000
0100
0010
0001
0100
0010
,
0001
0010
0100
0001
0010
0100
1000
0100
,
0010
0001
0010
1000
0010
0100
0010
0001
,
0100
0000
0000
0000
0000
0000
0000
0000
0010
0000
0000
0000
0000
0000
0000
0000
0000
0000
0000
0000
1000
0000
0000
0000
0000
0000
0000
0001
0000
0000
0000
0000
0100
0000
0000
0000
0000
0000
0000
0000
0010
0000
0000
0000
0000
0000
0000
0000
1000
0000
0000
0000
0000
0000
0000
0000
0000
0000
0000
0000
0000
0000
0000
0000
,
0000
0000
0000
0000
2002
0000
0000
0000
0000
0000
0000
0000
0110
3003
0000
0000
,
0000
0000
0000
0000
2200
0000
0000
0000
0000
0000
0000
0000
0011
3300
0000
0000
,
0000
0000
0000
0000
0202
0000
0000
0000
0000
0000
0000
0000
1010
0303
0000
0000
,
0000
0010
1000
0100
,
0010
0000
0000
0000
0000
0000
0000
0000
0001
0000
0000
0000
0000
1000
0000
0000
0001
0000
0000
0000
0000
0000
0000
0000
1000
0000
0000
0000
0000
0001
0000
0000
1000
0000
0000
0000
0000
0000
0000
0000
0001
0000
0000
0000
0000
1000
0000
0000
0001
0000
0000
0000
0000
0000
0000
0000
0100
0000
0000
0000
0000
0010
0000
0000
,
0000
0000
0000
0000
0000
0010
0000
0000
0100
0000
0000
0000
0000
0000
0000
0000
0001
0000
0000
0000
0000
0000
0000
0000
1000
0000
0000
0000
0000
0000
0000
0000
0100
0000
0000
0000
0000
0000
0000
0000
0010
0000
0000
0000
0000
0000
0000
0000
0001
0000
0000
0000
0000
0000
0000
0000
1000
0000
0000
0000
0000
0010
0000
0000
,
0000
0000
0000
0000
0000
0010
0000
0000
0100
0000
0000
0000
0000
0000
0000
0000
0001
0000
0000
0000
0000
0000
0000
0000
0100
0000
0000
0000
0000
0010
0000
0000
0100
0000
0000
0000
0000
0000
0000
0000
0010
0000
0000
0000
0000
0100
0000
0000
0010
0000
0000
0000
0000
0000
0000
0000
1000
0000
0000
0000
0000
0000
0000
0000
,
0001
0000
0000
0000
0000
1000
0000
0000
0000
0000
0000
0000
0000
0001
0000
0000
1000
0000
0000
0000
0000
0000
0000
0000
0000
0001
0000
0000
0000
0000
0000
1000
0000
0000
0000
0000
0000
0000
0001
0000
0000
0000
0000
1000
0000
0000
0000
0000
0001
0000
0000
0000
0000
0000
0000
0000
1000
0000
0000
0000
0000
0000
0000
0000
,
0001
0000
1000
0000
0100
0000
0010
0001
0000
0000
0010
0001
0010
0000
0100
1000
,
0000
0000
0010
0000
0000
0000
0100
0000
0001
0000
1000
0001
1000
0001
0000
0000
,
0000
0000
0010
0000
0100
0000
1000
0001
M000
0001
0000
0001
0100
0000
0010
0000
,
1000
0000
0000
0000
0010
0000
1000
0000
0100
0010
0100
0000
0010
0100
0010
0000
,
0001
0000
1000
0000
0010
0000
0100
0001
0M00
0001
0000
0001
1000
0000
0100
0010
,
0000
0010
0001
0000
0000
0000
1000
0000
0001
0000
1000
0001
1000
0001
0000
0000
,
0000
0000
1000
0000
0001
0000
0100
0010
0000
0010
0000
0010
1000
0000
0001
1000
,
0001
0000
1000
0001
1000
0000
0100
0010
0100
0000
0010
0100
0010
0000
0001
0000
,
1001
0000
0000
0000
0000
0000
0000
0000
0000
0000
0000
0000
0000
0000
0000
0000
1100
0000
0000
0000
0000
0000
0000
0000
0000
0000
0000
0000
0000
0000
0000
0000
0011
0000
0000
0000
0000
0000
0000
0000
0000
0000
0000
0000
0000
0000
0000
0000
0100
0000
0000
0000
0000
0000
0000
0000
0010
0000
0000
0000
0000
1000
0000
0000
,
0000
0000
0000
0000
0000
0100
0000
0000
0000
0000
0000
0000
0000
0000
0000
0000
0000
0000
0000
0000
0000
0000
0000
0000
0010
0000
0000
0000
0000
0000
0000
0000
0001
0000
0000
0000
0000
0000
0000
0000
1000
0000
0000
0000
0000
0000
0000
0000
0010
0000
0000
0000
0000
0000
0000
0000
0100
0000
0000
0000
0000
0000
0000
0000
,
0001
0100
0010
1000
0001
0010
0100
0010
,
1000
0000
0010
0000
0100
0000
0010
0000
0001
0000
0000
0000
1000
0000
0010
0100
,
0000
0001
0000
1000
0000
0100
0010
0100
0010
0000
0001
1000
0001
0000
1000
0001
,
1000
0000
0010
0100
0010
0000
1001
0000
0100
0000
1001
0000
0100
0000
0010
0000
,
1000
0100
0000
0010
0000
0001
0000
0010
0100
0000
1000
0000
0010
0000
0100
0000
,
0001
1000
0100
0000
1001
0110
1000
0001
,
1000
0000
0100
0010
0000
0000
0001
0000
0100
0000
0010
1000
0000
0000
0100
0000
,
0010
0000
0001
0100
0000
0000
0010
0000
0100
0000
0001
0010
0000
0000
1000
0000
,
0010
0000
0001
1000
0000
0000
0010
0000
0100
0000
0001
1000
0000
0000
0100
0000
,
0001
0000
0100
0010
0000
0000
0001
0000
0100
0000
0010
1000
0000
0000
0001
0000
,
0010
0000
0000
1100
0000
0000
0000
0000
0010
0000
0000
0101
0000
0000
0000
0000
,
0010
0000
0000
1100
0000
0000
0000
0000
0001
0000
0000
0110
0000
0000
0000
0000
,
0000
0000
0000
0000
0000
0000
0001
1000
,
0100
0000
0000
0000
0010
0000
0000
0000
0000
0000
0000
0001
0000
0000
0000
0000
1000
0000
0000
0000
0000
0000
0000
0000
0010
0000
0000
0000
0000
0000
0000
0000
0100
0000
0000
0000
0000
0000
0000
0000
0000
0000
0000
0000
0000
0000
0000
0000
2002
0000
0000
0000
0000
0000
0000
0000
0000
0000
0000
0000
0000
0000
0000
0000
,
0000
3003
0000
0000
;

//---------------dance-single - C.Foy----------------
#NOTES:
     dance-single:
     C.Foy:
     Challenge:
     12:
     0.895,0.000,0.236,0.091,0.866,655.000,26.000,10.000,20.000,0.000,0.000:
0000
0000
0000
0000
,
0000
0000
0000
0000
,
0000
0000
0000
0000
,
0000
0000
0000
0000
0000
0000
0000
0000
0000
0000
0000
0000
0010
1000
0100
0010
,
0001
0000
1100
0000
0001
0100
1010
0001
,
0000
0000
0110
0000
0100
0100
1001
0010
,
0010
0000
0000
0000
1100
0101
0000
1001
,
0000
0000
0000
0000
0000
0000
0000
0000
0100
0001
0010
0100
1000
0010
0100
0001
,
0010
0000
0000
0000
0000
0000
0000
0000
0010
0000
0000
0000
0000
0001
0000
0000
0000
0000
0000
0000
0000
0000
0000
0000
1000
0000
0000
0000
0000
0100
0000
0000
0000
0000
0000
0000
0000
0000
0000
0000
0010
0000
0000
0000
0000
0100
0000
0000
0000
0000
0000
0000
0000
0000
0000
0000
1000
0000
0000
0000
0000
0010
0000
0000
,
0000
0000
0000
0000
0000
0100
0000
0000
0010
0000
0000
0000
0000
1000
0000
0000
0000
0000
0000
0000
0000
0000
0000
0000
1000
0000
0000
0000
0000
0000
0000
0000
0000
0000
0000
0000
0000
0000
0000
0000
0001
0000
0000
0000
0000
0100
0000
0000
0000
0000
0000
0000
0000
0000
0000
0000
0100
0000
0000
0000
0000
0010
0000
0000
,
0000
0000
0000
0000
0000
0000
0000
0000
0001
0000
0000
0000
0000
0010
0000
0000
0000
0000
0000
0000
0000
0000
0000
0000
0100
0000
0000
0000
0000
0010
0000
0000
0000
0000
0000
0000
0000
0000
0000
0000
1000
0000
0000
0000
0000
0100
0000
0000
0000
0000
0000
0000
0000
0000
0000
0000
0010
0000
0000
0000
0000
0100
0000
0000
,
1000
0000
0000
0000
0000
0000
0000
0000
0010
0000
0000
0000
0000
0000
0000
0000
0000
0000
0000
0000
0100
0000
0000
0000
0000
0000
0000
0001
0000
0000
0000
0000
0010
0000
0000
0000
0000
0000
0000
0000
0100
0000
0000
0000
0000
0000
0000
0000
0100
0000
0000
0000
0000
0000
0000
0000
0000
0000
0000
0000
0000
0000
0000
0000
,
1000
0000
0000
0000
0000
0000
0000
0000
0001
0000
0000
0000
0000
0100
0000
0000
0010
0000
0000
0000
0000
0000
0000
0000
1000
0000
0000
0000
0000
0001
0000
0000
0100
0000
0000
0000
0000
0000
0000
0000
0010
0000
0000
0000
0000
1000
0000
0000
0100
0000
0000
0000
0000
0000
0000
0000
0010
0000
0000
0000
0000
0001
0000
0000
,
1000
0000
0000
0000
0000
0001
0000
0000
0100
0000
0000
0000
0000
0010
0000
0000
1000
0000
0000
0000
0000
0000
0000
0000
0100
0000
0000
0000
0000
0000
0000
0000
0000
0000
0000
0000
0000
0000
0000
0000
0010
0000
0000
0000
0000
0001
0000
0000
0100
0000
0000
0000
0000
0000
0000
0000
0100
0000
0000
0000
0000
0010
0000
0000
,
1000
0000
0000
0000
0000
0000
0000
0000
0100
0000
0000
0000
0000
0010
0000
0000
0001
0000
0000
0000
0000
0000
0000
0000
1000
0000
0000
0000
0000
0100
0000
0000
0010
0000
0000
0000
0000
0000
0000
0000
0100
0000
0000
0000
0000
1000
0000
0000
0001
0000
0000
0000
0000
0000
0000
0000
0001
0000
0000
0000
0000
1000
0000
0000
,
0001
0000
0000
0000
0000
0000
0000
0000
0110
0000
0000
0000
0000
0000
0000
0000
0010
0000
0000
0000
0000
0000
0000
0000
1000
0000
0000
0000
0000
0001
0000
0000
0100
0000
0000
0000
0000
0000
0000
0000
0100
0000
0000
0000
0000
0010
0000
0000
1000
0000
0000
0000
0000
0000
0000
0000
0100
0000
0000
0000
0000
0000
0000
0000
,
1001
0000
0000
0000
1000
0000
0100
0000
0001
0000
0001
0100
0000
1000
0010
0000
,
1001
0000
0000
0000
0010
1000
0100
0000
0010
0000
1000
0000
0010
0000
0001
0000
,
0010
0000
0100
0000
0001
0100
0010
0000
0100
0000
1000
0100
0010
0000
0010
0000
,
0100
0000
0010
0000
0010
0001
0100
0000
0010
0000
1000
0000
0020
0000
1000
0030
,
1010
0000
1000
0000
0100
1000
0010
0000
0010
0000
0100
0001
0010
0100
0010
0000
,
0100
0000
0001
0000
0100
0010
0001
0000
1010
0000
0100
0000
0011
0000
0001
0000
,
0100
0000
1000
0000
1000
0100
0010
0000
0010
0000
0100
0001
0010
0000
0100
0000
,
0001
0000
0100
0000
0100
0010
0001
0000
0100
0001
0010
0100
1000
0010
1000
0100
,
1000
0000
0000
0000
0000
0000
0000
0000
0010
0000
0000
0000
0000
0100
0000
0000
0001
0000
0000
0000
0000
0000
0000
0000
0100
0000
0000
0000
0000
0010
0000
0000
1000
0000
0000
0000
0000
0000
0000
0000
0100
0000
0000
0000
0000
0010
0000
0000
0100
0000
0000
0000
0000
0000
0000
0000
0010
0000
0000
0000
0000
0001
0000
0000
,
0010
0000
0000
0000
0000
0100
0000
0000
0010
0000
0000
0000
0000
1000
0000
0000
0010
0000
0000
0000
0000
0000
0000
0000
0001
0000
0000
0000
0000
0000
0000
0000
0100
0000
0000
0000
0000
0000
0000
0000
0010
0000
0000
0000
0000
0001
0000
0000
0010
0000
0000
0000
0000
0000
0000
0000
1000
0000
0000
0000
0000
0010
0000
0000
,
0100
0000
0000
0000
0000
0000
0000
0000
0001
0000
0000
0000
0000
0100
0000
0000
0010
0000
0000
0000
0000
0000
0000
0000
1000
0000
0000
0000
0000
0010
0000
0000
0100
0000
0000
0000
0000
0000
0000
0000
0001
0000
0000
0000
0000
0010
0000
0000
0100
0000
0000
0000
0000
0000
0000
0000
1000
0000
0000
0000
0000
0010
0000
0000
,
0100
0000
0000
0000
0000
0000
0000
0000
0001
0000
0000
0000
0000
0000
0000
0000
0000
0000
0000
0000
0001
0000
0000
0000
0000
0000
0000
0010
0000
0000
0000
0000
0001
0000
0000
0000
0000
0000
0000
0000
0100
0000
0000
0000
0000
0000
0000
0000
0100
0000
0000
0000
0000
0000
0000
0000
0000
0000
0000
0000
0000
0000
0000
0000
,
1001
0000
0000
0000
0000
0000
0000
0000
0001
0000
0000
0000
0000
0100
0000
0000
0010
0000
0000
0000
0000
0000
0000
0000
0100
0000
0000
0000
0000
1000
0000
0000
0100
0000
0000
0000
0000
0000
0000
0000
0001
0000
0000
0000
0000
0100
0000
0000
0010
0000
0000
0000
0000
0000
0000
0000
0001
0000
0000
0000
0000
0010
0000
0000
,
0100
0000
0000
0000
0000
0010
0000
0000
0001
0000
0000
0000
0000
0010
0000
0000
0100
0000
0000
0000
0000
0000
0000
0000
0001
0000
0000
0000
0000
0000
0000
0000
0010
0000
0000
0000
0000
0000
0000
0000
0010
0000
0000
0000
0000
0001
0000
0000
0100
0000
0000
0000
0000
0000
0000
0000
0001
0000
0000
0000
0000
0010
0000
0000
,
0100
0000
0000
0000
0000
0000
0000
0000
0100
0000
0000
0000
0000
0010
0000
0000
0001
0000
0000
0000
0000
0000
0000
0000
0010
0000
0000
0000
0000
0100
0000
0000
1000
0000
0000
0000
0000
0000
0000
0000
0100
0000
0000
0000
0000
0001
0000
0000
0100
0000
0000
0000
0000
0000
0000
0000
0010
0000
0000
0000
0000
1000
0000
0000
,
0010
0000
0000
0000
0000
0000
0000
0000
0011
0000
0000
0000
0000
0000
0000
0000
0100
0000
0000
0000
0000
0000
0000
0000
0001
0000
0000
0000
0000
0010
0000
0000
0100
0000
0000
0000
0000
0000
0000
0000
1000
0000
0000
0000
0000
0000
0000
0000
0110
0000
0000
0000
0000
0000
0000
0000
0000
0000
0000
0000
0000
0000
0000
0000
,
1001
0000
1000
0000
0100
0010
0001
0000
0001
0000
0001
0010
0000
0100
1000
0000
,
0100
0000
0001
0000
0001
0100
0010
0000
0001
0000
0100
0000
0100
0000
0010
0000
,
0100
0000
0001
0000
1000
0010
0100
0000
1000
0000
0100
0001
0100
0000
0010
0000
,
0001
0000
0010
0000
1000
0010
0100
0000
0001
0000
0010
0000
1000
0000
0010
0000
,
0001
0000
0010
0000
1000
0010
0100
0000
1000
0000
0100
0010
0000
0100
0001
0000
,
0100
0000
0010
0000
0001
0100
0010
0000
0100
0000
1000
0000
0100
0000
0001
0000
,
0010
0000
1000
0000
0010
0100
0010
0000
0001
0000
0010
0001
0010
0000
0001
0000
,
0100
0000
0000
0000
0000
0000
0000
0000
1000
0000
0000
0000
0000
0000
0000
0000
0000
0000
0000
0000
0100
0000
0000
0000
0000
0000
0000
0010
0000
0000
0000
0000
0001
0000
0000
0000
0000
0000
0000
0000
0010
0000
0000
0000
0000
0000
0000
0000
0100
0000
0000
0000
0000
0000
0000
0000
0000
0000
0000
0000
0000
0000
0000
0000
,
00M1
001M
0011
00M1
001M
00M1
0011
1M00
,
M100
1M00
1100
1M00
M100
1M00
1100
0M01
,
010M
0M01
0101
0M01
010M
0M01
0101
1M00
,
0100
1000
0010
0100
0001
0010
0100
1000
0010
1000
0100
0010
0001
0100
0010
1000
,
0100
0000
0000
0000
0000
0000
0000
0000
0010
0000
0000
0000
0000
0001
0000
0000
0100
0000
0000
0000
0000
0000
0000
0000
0010
0000
0000
0000
0000
1000
0000
0000
0100
0000
0000
0000
0000
0000
0000
0000
0100
0000
0000
0000
0000
1000
0000
0000
0010
0000
0000
0000
0000
0000
0000
0000
0100
0000
0000
0000
0000
0001
0000
0000
,
0010
0000
0000
0000
0000
0000
0000
0000
0010
0000
0000
0000
0000
0001
0000
0000
0100
0000
0000
0000
0000
0000
0000
0000
0010
0000
0000
0000
0000
0000
0000
0000
0001
0000
0000
0000
0000
0000
0000
0000
0010
0000
0000
0000
0000
0100
0000
0000
0010
0000
0000
0000
0000
0000
0000
0000
0001
0000
0000
0000
0000
0010
0000
0000
,
0100
0000
0000
0000
0000
0000
0000
0000
1000
0000
0000
0000
0000
0100
0000
0000
0010
0000
0000
0000
0000
0000
0000
0000
1000
0000
0000
0000
0000
0100
0000
0000
0010
0000
0000
0000
0000
0000
0000
0000
0001
0000
0000
0000
0000
0010
0000
0000
0100
0000
0000
0000
0000
0000
0000
0000
0001
0000
0000
0000
0000
0100
0000
0000
,
0010
0000
0000
0000
0000
0001
0000
0000
0000
0000
0000
0000
0000
0001
0000
0000
0100
0000
0000
0000
0000
0000
0000
0000
0000
1000
0000
0000
0000
0000
0000
0100
0000
0000
0000
0000
0000
0000
0001
0000
0000
0000
0000
0100
0000
0000
0000
0000
0010
0000
0000
0000
0000
0000
0000
0000
0100
0000
0000
0000
0000
0000
0000
0000
,
1MM1
0000
0000
0000
0000
0000
0000
0000
0001
0000
0000
0000
0000
0010
0000
0000
0100
0000
0000
0000
0000
0000
0000
0000
0010
0000
0000
0000
0000
0100
0000
0000
1000
0000
0000
0000
0000
0000
0000
0000
0010
0000
0000
0000
0000
0100
0000
0000
0001
0000
0000
0000
0000
0000
0000
0000
0100
0000
0000
0000
0000
0010
0000
0000
,
0001
0000
0000
0000
0000
0000
0000
0000
0010
0000
0000
0000
0000
1000
0000
0000
0001
0000
0000
0000
0000
0000
0000
0000
0001
0000
0000
0000
0000
0000
0000
0000
0010
0000
0000
0000
0000
0000
0000
0000
0010
0000
0000
0000
0000
0001
0000
0000
0100
0000
0000
0000
0000
0000
0000
0000
0010
0000
0000
0000
0000
1000
0000
0000
,
0001
0000
0000
0000
0000
0000
0000
0000
0001
0000
0000
0000
0000
1000
0000
0000
0100
0000
0000
0000
0000
0000
0000
0000
0100
0000
0000
0000
0000
0010
0000
0000
0100
0000
0000
0000
0000
0000
0000
0000
0100
0000
0000
0000
0000
0010
0000
0000
0001
0000
0000
0000
0000
0000
0000
0000
1000
0000
0000
0000
0000
0010
0000
0000
,
0100
0000
0000
0000
0000
0000
0000
0000
0001
0000
0000
0000
0000
0010
0000
0000
0100
0000
0000
0000
0000
0000
0000
0000
0010
0000
0000
0000
0000
0001
0000
0000
1000
0000
0000
0000
0000
0000
0000
0000
0100
0000
0000
0000
0000
1000
0000
0000
0010
0000
0000
0000
0000
0000
0000
0000
0010
0000
0000
0000
0000
0100
0000
0000
,
0001
0000
0000
0000
0000
0000
0000
0000
0001
0000
0000
0000
0000
0100
0000
0000
0010
0000
0000
0000
0000
0000
0000
0000
0010
0000
0000
0000
0000
1000
0000
0000
0100
0000
0000
0000
0000
0000
0000
0000
0100
0000
0000
0000
0000
0010
0000
0000
0001
0000
0000
0000
0000
0000
0000
0000
0001
0000
0000
0000
0000
0100
0000
0000
,
0010
0000
0000
0000
0000
0000
0000
0000
0001
0000
0000
0000
0000
0010
0000
0000
0100
0000
0000
0000
0000
0000
0000
0000
0001
0000
0000
0000
0000
0000
0000
0000
0010
0000
0000
0000
0000
0000
0000
0000
0100
0000
0000
0000
0000
1000
0000
0000
0100
0000
0000
0000
0000
0000
0000
0000
0001
0000
0000
0000
0000
0100
0000
0000
,
0010
0000
0000
0000
0000
0000
0000
0000
0010
0000
0000
0000
0000
0001
0000
0000
1000
0000
0000
0000
0000
0000
0000
0000
0010
0000
0000
0000
0000
1000
0000
0000
0010
0000
0000
0000
0000
0000
0000
0000
0100
0000
0000
0000
0000
0001
0000
0000
0100
0000
0000
0000
0000
0000
0000
0000
0010
0000
0000
0000
0000
1000
0000
0000
,
0100
0000
0010
0000
0001
0000
0100
0000
0001
0000
0010
0000
0010
0001
0100
0010
,
0200
0000
0000
0300
0020
0000
0000
0030
0002
0000
0000
0003
0020
0000
0000
2030
,
0000
0010
3000
0000
0000
0000
0020
0000
0100
0000
0030
0000
0000
0000
0000
0002
,
0010
0000
0003
0200
1000
0000
0300
0020
1000
0000
0030
0000
1000
0010
0100
0001
,
0010
0000
0000
0010
0001
0100
0010
1000
1001
0000
0010
0100
0001
0100
0010
0100
,
0000
0100
0000
0010
0000
0010
1000
0100
0010
0001
0100
0010
1000
0001
0100
0001
,
0010
0100
1000
0010
0100
0000
1000
0000
0100
0000
0001
0000
0010
0000
1000
0000
,
1000
0010
0000
0010
0000
0001
0000
0001
0100
0000
1000
0000
1000
0100
0010
0000
,
0100
0000
0001
0000
0010
0000
0000
0000
0010
0001
0100
0000
0100
0000
0010
0000
,
0100
0000
0100
0010
0000
0000
1000
0000
0001
0000
0001
0010
0000
0000
0010
0000
,
0100
0000
0100
1000
0000
0000
1000
0000
0010
0000
0010
0100
0000
0000
1000
0000
,
0100
0000
0001
0100
0000
0000
0001
0000
0010
0000
1000
0010
0000
0000
0010
0000
,
0001
0000
0100
0001
0000
0000
0100
0000
1000
0000
1000
0100
0000
0000
0010
0000
,
1000
0000
0100
1000
0000
0000
0100
0000
0010
0000
0001
0100
0000
0000
0010
0000
,
1000
0000
1000
0100
0000
0000
1000
0000
0010
0000
0100
0001
0000
0000
0100
0000
,
0010
0000
0010
1000
0000
0000
1000
0000
0100
0000
0010
0100
0010
0000
0001
0000
,
0000
0000
0000
0000
0100
0000
0000
0000
0000
0000
0000
0000
0000
0100
0000
0000
0010
0000
0000
0000
0000
0000
0000
0000
0010
0000
0000
0000
0000
0000
0000
0000
1000
0000
0000
0000
0000
0000
0000
0000
0000
0000
0000
0000
0000
0000
0000
0000
1001
0000
0000
0000
0000
0000
0000
0000
0000
0000
0000
0000
0000
0000
0000
0000
;

//---------------dance-double - M.Emirzian----------------
#NOTES:
     dance-double:
     M.Emirzian:
     Easy:
     4:
     0.218,0.000,0.154,0.036,0.000,147.000,17.000,4.000,0.000,0.000,0.000:
00000000
00000000
00000000
00000000
,
00000000
00000000
00000000
00000000
,
00000000
00000000
00000000
00000000
,
00000000
00000000
00000000
00000000
,
00100000
00000000
00000000
00000000
00000000
00000000
00000000
00100000
,
00000000
00000000
00100000
00000000
,
20020000
00000000
00000000
00000000
,
00000000
00000000
00000000
30030000
,
10000000
00010000
10000000
00010000
,
10000000
00000000
01001000
00000000
,
00001000
00010000
00001000
00010000
,
00000100
00000000
00001100
00000000
,
00000001
00000100
00000001
00000100
,
00000001
00000000
00001100
00000000
,
00000010
00010000
00000010
00010000
,
00000010
00000000
00011000
00000000
,
00010000
00000000
00000000
00000000
,
00000000
00000000
00000000
00000000
,
00000000
00000000
00000000
00000000
,
00000000
00000000
00000000
00000000
,
00001000
00000000
00000000
00000000
,
00000000
00000000
00000000
00000000
,
00010000
00000000
00000000
00000000
,
00000000
00000000
00000000
00000000
,
00000001
00001000
00000001
00001000
,
00000001
00000000
00001100
00000000
,
00000100
00010000
00000100
00010000
,
00000100
00000000
00011000
00000000
,
01000000
00001000
01000000
00001000
,
01000000
00000000
01010000
00000000
,
00100000
01000000
00100000
01000000
,
00100000
00000000
10010000
00000000
,
00001000
01000000
00001000
00010000
,
00000100
00000000
00000000
00000000
,
00001000
00000001
00001000
00000100
,
00001000
00000000
00000000
00000000
,
00000010
00010000
00000010
00001000
,
00000010
00000000
00000000
00000000
,
00010000
00001000
01000000
00001000
,
00022000
00000000
00000000
00033000
,
00010000
00000000
00000000
00000000
,
00000000
00000000
00000000
00000000
,
01000000
00000000
00000000
00000000
,
00000000
00000000
00000000
00000000
,
10000000
00000000
01000000
00000000
,
00100000
00000000
00010000
00000000
,
00100000
00000000
00001000
00000000
,
00010000
00000000
00000100
00000000
,
00010000
00000010
00001000
00000100
,
00000010
00000000
00000011
00000000
,
00001000
00000100
00001000
00000100
,
00001000
00000000
00011000
00000000
,
00010000
00001000
00010000
00001000
,
00010000
00000000
01001000
00000000
,
00100000
00001000
00100000
00001000
,
00100000
00000000
00000000
00000000
,
10000000
00010000
01000000
00000000
,
11000000
00000000
10000000
00010000
,
01000000
00001000
00010000
00000000
,
00011000
00000000
00010000
00000100
,
00001000
00000100
00010000
00000000
,
00001010
00000000
00000010
00010000
,
00000010
00001000
00000010
00000000
,
00000101
00000000
00000000
00000000
,
00001000
00000100
00010000
00000000
,
00001000
01000000
00010000
00000000
,
01000000
00010000
10000000
00000000
,
01000000
00100000
00001000
00000000
,
00010000
00000000
00000000
00000000
,
00000100
00000000
00000000
00000000
,
00001000
00000000
00000000
00000000
,
00000001
00000000
00000000
00000000
,
00001000
00000000
00000000
00000000
;

//---------------dance-double - M.Emirzian----------------
#NOTES:
     dance-double:
     M.Emirzian:
     Medium:
     6:
     0.332,0.000,0.100,0.036,0.000,241.000,11.000,4.000,0.000,0.000,0.000:
00000000
00000000
00000000
00000000
,
00000000
00000000
00000000
00000000
,
00000000
00000000
00000000
00000000
,
00000000
00000000
00000000
00000000
,
10000000
00000000
00000000
00010000
10000000
00010000
00000000
01000000
,
00000000
00001000
00000000
00010000
00001000
00000000
00010000
00000000
,
00000100
00000000
00000000
00000000
00000010
00000000
00000000
00001100
,
00000000
00000000
00000011
00001100
,
00000001
00000000
00001000
00000000
00000100
00000000
00001000
00000001
,
00000000
00000000
00010000
00001000
,
00000000
00010000
00000000
00001000
01000000
00000000
00010000
10000000
,
00000000
00000000
01000000
00100000
,
00010000
00000000
10000000
00000000
00100000
00000000
01000000
00010000
,
00000000
00000000
01000000
00001000
,
00000000
00010000
00000000
00001000
00010000
00000000
00000010
00001000
,
00000000
00000000
00000100
00000010
,
00000001
00000000
00000000
00000000
,
00001000
00000000
00000000
00000000
,
00010000
00000000
00000000
00000000
,
10000000
00000000
00010000
10000000
,
01000000
00110000
00000000
01010000
,
00000000
00001100
00000000
00001010
,
00000000
00000101
00000000
00001100
,
00000010
00000000
00000000
00000000
00001000
00000100
00001000
00000001
,
00001000
00000000
00000100
00000000
00010000
00000000
00001000
01000000
,
00000000
00000000
00001000
00010000
,
00000000
01000000
00000000
10000000
00010000
00000000
10000000
01000000
,
00000000
00000000
00100000
00010000
,
01000000
00000000
00001000
00000000
00010000
00000000
00001000
01000000
,
00000000
00000000
00001000
00010000
,
00000000
00000100
00000000
00001000
00000010
00000000
00000100
00000001
,
00000000
00000000
00000010
00000100
,
00001000
00000001
00001000
00000000
00000100
00000000
00001000
00000000
,
00000001
00000100
00001000
00010000
,
00000100
00010000
00000100
00000000
00010000
00000000
00001000
00000000
,
01000000
00010000
10000000
01000000
,
00100000
00010000
00100000
00000000
01000000
00000000
10000000
00000000
,
00010000
01000000
00001000
00010000
,
00000100
00001000
00000100
00000000
00001000
00000000
00000001
00000000
,
00000100
00000010
00001000
00000100
,
00000010
00000001
00000000
00001000
,
00000000
00000100
00000000
00010000
,
00000000
00001000
00000000
01000000
,
00000000
00010000
10000000
01000000
,
00100000
00010000
00100000
00000000
00010000
00100000
00010000
00000000
,
00100000
01000000
10000000
00010000
,
01000000
00100000
01000000
00000000
00100000
01000000
00100000
00000000
,
20020000
00000000
00000000
30030000
,
10000000
00000000
10000000
00010000
10000000
00000000
01000000
00000000
,
00100000
01000000
10000000
01000000
,
00010000
00000000
00001000
00010000
00001000
00000000
00000100
00000000
,
00000001
00001000
00000010
00000100
,
00000001
00000000
00001000
00000100
00001000
00000000
00000001
00000000
,
00000010
00001000
00010000
00000100
,
00010000
00000000
00001000
01000000
00001000
00000000
01000000
00000000
,
00010000
00100000
00010000
01000000
,
00001000
00010000
00100000
10000000
,
01000000
00100000
00000000
00010000
10000000
00000000
01000000
00000000
,
00010000
00001000
00000100
00000001
,
00000010
00000100
00001000
00000001
,
00000100
00000010
00000100
00000000
00000010
00000000
00001000
00000000
,
00000100
00000000
00010000
00001000
01000000
00001000
00010000
00000000
,
00001000
00010000
00100000
10000000
,
00010000
01000000
00010000
00000000
00100000
00000000
10000000
00000000
,
01000000
00000000
00100000
00000000
,
00001000
00000000
00010000
00000000
,
00000100
00000000
00000010
00000000
,
00000001
00000000
00001000
00000000
,
00000010
00000000
00000100
00000000
,
00000001
00000000
00001000
00000000
,
00000000
00000000
00000000
00010000
,
01000000
00100000
10000000
20020000
,
00000000
30030000
00000000
00000000
;

//---------------dance-double - M.Emirzian----------------
#NOTES:
     dance-double:
     M.Emirzian:
     Hard:
     9:
     0.601,0.000,0.499,0.073,0.272,401.000,55.000,8.000,1.000,0.000,0.000:
00000000
00000000
00000000
00000000
,
00000000
00000000
00000000
00000000
,
00000000
00000000
00000000
00000000
,
00000000
00000000
00000000
00000000
,
00001000
00000000
00000000
00010000
00001000
01000000
00000000
00001000
,
00000000
00010000
00000000
00000010
00010000
00000000
00001000
00000000
,
00000100
00000000
00000001
00001000
00000100
00000010
00000000
00002002
,
00000000
00003003
00001100
00000011
,
00000100
00000000
00000000
00000000
00000000
00000000
00000000
00000000
00000010
00000000
00000000
00000000
00000000
00001000
00000000
00000000
00000000
00000000
00000000
00000000
00000000
00000000
00000000
00000000
00001000
00000000
00000000
00000000
00000000
00000100
00000000
00000000
00000000
00000000
00000000
00000000
00000000
00000000
00000000
00000000
00000100
00000000
00000000
00000000
00000000
00010000
00000000
00000000
00000000
00000000
00000000
00000000
00000000
00000000
00000000
00000000
00010000
00000000
00000000
00000000
00000000
00001000
00000000
00000000
,
00000000
00000000
00000000
00000000
00000000
00000000
00000000
00000000
00001000
00000000
00000000
00000000
00000000
01000000
00000000
00000000
00000000
00000000
00000000
00000000
00000000
00000000
00000000
00000000
01000000
00000000
00000000
00000000
00000000
00000000
00000000
00000000
00100000
00000000
00000000
00000000
00000000
00000000
00000000
00000000
01000000
00000000
00000000
00000000
00000000
00000000
00000000
00000000
10000000
00000000
00000000
00000000
00000000
00000000
00000000
00000000
01000000
00000000
00000000
00000000
00000000
00010000
00000000
00000000
,
00000000
00000000
00000000
00000000
00000000
00000000
00000000
00000000
00010000
00000000
00000000
00000000
00000000
10000000
00000000
00000000
00000000
00000000
00000000
00000000
00000000
00000000
00000000
00000000
10000000
00000000
00000000
00000000
00000000
01000000
00000000
00000000
00000000
00000000
00000000
00000000
00000000
00000000
00000000
00000000
01000000
00000000
00000000
00000000
00000000
00100000
00000000
00000000
00000000
00000000
00000000
00000000
00000000
00000000
00000000
00000000
00100000
00000000
00000000
00000000
00000000
00000000
00000000
00000000
,
00010000
01000000
00001000
00010000
00100000
00010000
00001000
00000000
,
00000010
00000000
00000000
00000000
00000000
00000000
00000000
00000000
00000100
00000000
00000000
00000000
00000000
00001000
00000000
00000000
00000000
00000000
00000000
00000000
00000000
00000000
00000000
00000000
00001000
00000000
00000000
00000000
00000000
00000010
00000000
00000000
00000000
00000000
00000000
00000000
00000000
00000000
00000000
00000000
00000010
00000000
00000000
00000000
00000000
00000100
00000000
00000000
00000000
00000000
00000000
00000000
00000000
00000000
00000000
00000000
00000100
00000000
00000000
00000000
00000000
00000001
00000000
00000000
,
00000000
00000000
00000000
00000000
00000000
00000000
00000000
00000000
00000001
00000000
00000000
00000000
00000000
00000010
00000000
00000000
00000000
00000000
00000000
00000000
00000000
00000000
00000000
00000000
00000100
00000000
00000000
00000000
00000000
00000000
00000000
00000000
00000010
00000000
00000000
00000000
00000000
00000000
00000000
00000000
00001000
00000000
00000000
00000000
00000000
00000000
00000000
00000000
00000010
00000000
00000000
00000000
00000000
00000000
00000000
00000000
00000100
00000000
00000000
00000000
00000000
00010000
00000000
00000000
,
00000000
00000000
00000000
00000000
00000000
00000000
00000000
00000000
00001000
00000000
00000000
00000000
00000000
00000100
00000000
00000000
00000000
00000000
00000000
00000000
00000000
00000000
00000000
00000000
00000100
00000000
00000000
00000000
00000000
00001000
00000000
00000000
00000000
00000000
00000000
00000000
00000000
00000000
00000000
00000000
00001000
00000000
00000000
00000000
00000000
00010000
00000000
00000000
00000000
00000000
00000000
00000000
00000000
00000000
00000000
00000000
00010000
00000000
00000000
00000000
00000000
00000000
00000000
00000000
,
00100000
01000000
10000000
01000000
00010000
10000000
01000000
00000000
,
00100000
00000000
00010000
00000000
10000000
00100000
10000000
00000000
,
01000000
00100000
00000100
00001000
,
00000010
00000000
00000100
00000001
00000100
00000000
00000010
00000000
,
01000000
00100000
10000000
00000000
00010000
01000000
00100000
10000000
,
01000000
00000000
01000000
00010000
01000000
00000000
00100000
00000000
,
00000100
00000000
00001000
00000010
00000100
00000001
00001000
00000000
,
00000100
00000000
00000010
00000001
00000010
00000000
00001001
00000000
,
00022000
00000000
00033000
00000000
00000001
00001000
00000001
00001000
,
00000100
00000000
00000000
00000000
00000000
00000000
00000000
00000000
00000010
00000000
00000000
00000000
00000000
00000001
00000000
00000000
00000000
00000000
00000000
00000000
00000000
00000000
00000000
00000000
00000001
00000000
00000000
00000000
00000000
00000100
00000000
00000000
00000000
00000000
00000000
00000000
00000000
00000000
00000000
00000000
00000100
00000000
00000000
00000000
00000000
00000010
00000000
00000000
00000000
00000000
00000000
00000000
00000000
00000000
00000000
00000000
00000010
00000000
00000000
00000000
00000000
00001000
00000000
00000000
,
00000000
00000000
00000000
00000000
00000000
00000000
00000000
00000000
00001000
00000000
00000000
00000000
00000000
00000100
00000000
00000000
00000000
00000000
00000000
00000000
00000000
00000000
00000000
00000000
00000100
00000000
00000000
00000000
00000000
00000000
00000000
00000000
00010000
00000000
00000000
00000000
00000000
00000000
00000000
00000000
00001000
00000000
00000000
00000000
00000000
00000000
00000000
00000000
00000010
00000000
00000000
00000000
00000000
00000000
00000000
00000000
00000100
00000000
00000000
00000000
00000000
00000000
00000000
00000000
,
00010000
00000000
00000000
00000000
00000000
00000000
00000000
00000000
00001000
00000000
00000000
00000000
00000000
00010000
00000000
00000000
00000000
00000000
00000000
00000000
00000000
00000000
00000000
00000000
00010000
00000000
00000000
00000000
00000000
00100000
00000000
00000000
00000000
00000000
00000000
00000000
00000000
00000000
00000000
00000000
00100000
00000000
00000000
00000000
00000000
10000000
00000000
00000000
00000000
00000000
00000000
00000000
00000000
00000000
00000000
00000000
10000000
00000000
00000000
00000000
00000000
00000000
00000000
00000000
,
00100000
01000000
00100000
00010000
00100000
01000000
00010000
00000000
,
10000000
00000000
00000000
00000000
00000000
00000000
00000000
00000000
01000000
00000000
00000000
00000000
00000000
00100000
00000000
00000000
00000000
00000000
00000000
00000000
00000000
00000000
00000000
00000000
00100000
00000000
00000000
00000000
00000000
00010000
00000000
00000000
00000000
00000000
00000000
00000000
00000000
00000000
00000000
00000000
00010000
00000000
00000000
00000000
00000000
01000000
00000000
00000000
00000000
00000000
00000000
00000000
00000000
00000000
00000000
00000000
01000000
00000000
00000000
00000000
00000000
00001000
00000000
00000000
,
00000000
00000000
00000000
00000000
00000000
00000000
00000000
00000000
00001000
00000000
00000000
00000000
00000000
00010000
00000000
00000000
00000000
00000000
00000000
00000000
00000000
00000000
00000000
00000000
00010000
00000000
00000000
00000000
00000000
00000000
00000000
00000000
00000100
00000000
00000000
00000000
00000000
00000000
00000000
00000000
00001000
00000000
00000000
00000000
00000000
00000000
00000000
00000000
00000001
00000000
00000000
00000000
00000000
00000000
00000000
00000000
00000010
00000000
00000000
00000000
00000000
00000100
00000000
00000000
,
00000000
00000000
00000000
00000000
00000000
00000000
00000000
00000000
00001000
00000000
00000000
00000000
00000000
00000001
00000000
00000000
00000000
00000000
00000000
00000000
00000000
00000000
00000000
00000000
00000001
00000000
00000000
00000000
00000000
00000100
00000000
00000000
00000000
00000000
00000000
00000000
00000000
00000000
00000000
00000000
00000100
00000000
00000000
00000000
00000000
00001000
00000000
00000000
00000000
00000000
00000000
00000000
00000000
00000000
00000000
00000000
00001000
00000000
00000000
00000000
00000000
00000000
00000000
00000000
,
00010000
00100000
01000000
00100000
00010000
00100000
10000000
00000000
,
01000000
00100000
01000000
00010000
01000000
00100000
00001000
00000000
,
01000000
00100000
01000000
10000000
01000000
00001000
00010000
00000000
,
00000100
00000010
00001000
00000010
00000100
00010000
00001000
00000000
,
00000100
00000001
00000100
00000010
00000100
00001000
00000100
00000000
,
00000001
00000010
00001000
00010000
00000100
00010000
00100000
00000000
,
00010000
00001000
00100000
10000000
00100000
01000000
10000000
00000000
,
00010000
01000000
00001000
00010000
00000100
00001000
00000001
00000000
,
00000011
00001100
00110000
11000000
,
10010000
01100000
00000000
00011000
,
00000000
00000101
00000000
00011000
,
00000000
10100000
00000000
00011000
,
00000000
01000100
00011000
00100010
,
00011000
00000100
00000110
00001000
,
00011000
00100000
01100000
00010000
,
00001100
00001001
00011000
10010000
,
02200000
00000000
00000000
03300000
,
10000000
00000000
01000000
00000000
00100000
00000000
00010000
01000000
00000000
00000000
10000000
00000000
01000000
00000000
00001000
00000000
,
00010000
00000010
00000100
00001000
00000100
00000010
00001000
00000000
,
00000001
00000000
00000010
00000000
00000100
00000000
00001000
00000001
00000000
00001000
00000000
00000100
00001000
00000000
00000010
00000000
,
00010000
00001000
01000000
00100000
00010000
00001000
00100000
00000000
,
01000000
00000000
10000000
00000000
00100000
00000000
01000000
00010000
00000000
10000000
00000000
01000000
10000000
00000000
00010000
00000000
,
00100000
01000000
00100000
10000000
00100000
00001000
00010000
00000000
,
00000100
00000000
00000010
00000000
00001000
00000000
00000010
00000100
00000000
00001000
00000000
00000001
00000100
00000000
00000010
00000000
,
00001000
00000100
00001000
00000001
00000100
00001000
00000100
00000000
,
00001001
00011000
10010000
01100000
,
10000000
01100000
00000000
00010000
01100000
00000000
10010000
00000000
,
10000000
01000000
00100000
00001000
00010000
00000100
00001000
00000010
,
00000100
00000010
00000001
00000010
00001000
0000000M
00000001
00000100
,
00000010
00000000
00000000
00001000
00000000
00000000
00000100
00000000
00010000
00000000
00001000
00000000
00000100
00000000
00001000
00000000
,
00010000
01000000
00100000
10000000
00100000
01000000
10000000
00010000
,
01000000
00100000
00000000
10000000
00000000
00010000
00000000
00100000
01000000
00000000
00100000
00000000
00010000
00000000
00000000
00000000
,
01100000
00011000
00000110
00000001
,
00001100
00000000
00000000
00010010
00000000
00000000
00000000
00000000
00011000
00000000
00000000
01000100
00000000
00000000
00000000
00000000
,
00011000
00000000
00000000
00100010
00000000
00000000
00000000
00000000
01001000
00000000
00000000
00110000
00000000
00000000
00000000
00000000
,
11000000
00000000
00000000
00110000
00000000
00000000
00000000
00000000
00011000
00000000
00000000
01100000
00000000
00000000
00000000
00000000
,
00011000
00000000
00000000
00000110
00000000
00000000
00000000
00000000
00001001
00000000
00000000
00000110
00000000
00000000
00000000
00000000
,
00000001
00000000
00010000
00000000
,
00001000
00000000
10000000
00000000
,
00000000
00000000
00000000
00000000
00000000
00000000
10000000
00100000
,
00000000
00000000
00000000
00000000
00000000
01000000
00000000
00000000
00000000
00000000
00000000
00010000
00000000
00000000
00000000
00000000
10000000
00000000
00000000
00000000
00000000
00000000
00000000
00000000
01000000
00000000
00000000
00000000
00000000
00000000
00000000
00000000
00100000
00000000
00000000
00000000
00000000
00000000
00000000
00000000
00000000
00000000
00000000
00000000
00000000
00000000
00000000
00000000
20020000
00000000
00000000
00000000
00000000
00000000
00000000
00000000
00000000
00000000
00000000
00000000
00000000
00000000
00000000
00000000
,
00000000
30030000
00000000
00000000
;

//---------------dance-double - M.Emirzian----------------
#NOTES:
     dance-double:
     M.Emirzian:
     Challenge:
     9:
     0.723,0.000,0.254,0.091,0.580,520.000,28.000,10.000,3.000,4.000,0.000:
00000000
00000000
00000000
00000000
,
00000000
00000000
00000000
00000000
,
00000000
00000000
00000000
00000000
,
00000000
00000000
00000000
00000000
,
00000100
00000000
00000000
00010000
00001000
01000000
00000000
00011000
,
00000000
00000110
00000000
00000001
00001100
00000000
00000001
00000000
,
00000100
00000000
00001000
00010000
00100000
01000000
00000000
20020000
,
00000000
00000000
00000000
00000000
00000000
00000000
00000000
00000000
01100000
30030000
00000000
00000000
00000000
00000000
00000000
00000000
,
10000000
00000000
00000000
00000000
00000000
00000000
00000000
00000000
00010000
00000000
00000000
00000000
00000000
10000000
00000000
00000000
00000000
00000000
00000000
00000000
00000000
00000000
00000000
00000000
10000000
00000000
00000000
00000000
00000000
01000000
00000000
00000000
00000000
00000000
00000000
00000000
00000000
00000000
00000000
00000000
01000000
00000000
00000000
00000000
00000000
00100000
00000000
00000000
00000000
00000000
00000000
00000000
00000000
00000000
00000000
00000000
00100000
00000000
00000000
00000000
00000000
00010000
00000000
00000000
,
00000000
00000000
00000000
00000000
00000000
00010000
00000000
00000000
00100000
00000000
00000000
00000000
00000000
00000000
00000000
00000000
00000000
00000000
00000000
00000000
00000000
00000000
00000000
00000000
00001000
00000000
00000000
00000000
00000000
00000000
00000000
00000000
01000000
00000000
00000000
00000000
00000000
00000000
00000000
00000000
00001000
00000000
00000000
00000000
00000000
00010000
00000000
00000000
00001000
00000000
00000000
00000000
00000000
00000000
00000000
00000000
00010000
00000000
00000000
00000000
00000000
00000100
00000000
00000000
,
00000000
00000000
00000000
00000000
00000000
00000000
00000000
00000000
00000100
00000000
00000000
00000000
00000000
00001000
00000000
00000000
00000000
00000000
00000000
00000000
00000000
00000000
00000000
00000000
00001000
00000000
00000000
00000000
00000000
00000010
00000000
00000000
00000000
00000000
00000000
00000000
00000000
00000000
00000000
00000000
00000010
00000000
00000000
00000000
00000000
00000100
00000000
00000000
00000000
00000000
00000000
00000000
00000000
00000000
00000000
00000000
00000100
00000000
00000000
00000000
00000000
00000001
00000000
00000000
,
00000100
00000000
00000000
00000000
00000000
00000000
00000000
00000000
00000010
00000000
00000000
00000000
00000000
00000000
00000000
00000000
00000000
00000000
00000000
00000000
00000000
00001000
00000000
00000000
00000000
00000000
00000000
00000100
00000000
00000000
00000000
00000000
00000010
00000000
00000000
00000000
00000000
00000000
00000000
00000000
00000001
00000000
00000000
00000000
00000000
00000000
00000000
00000000
00001000
00000000
00000000
00000000
00000000
00000000
00000000
00000000
00000000
00000000
00000000
00000000
00000000
00000000
00000000
00000000
,
00000100
00000000
00000000
00000000
00000000
00000000
00000000
00000000
00010000
00000000
00000000
00000000
00000000
00001000
00000000
00000000
00000000
00000000
00000000
00000000
00000000
00000000
00000000
00000000
00001000
00000000
00000000
00000000
00000000
00000100
00000000
00000000
00000000
00000000
00000000
00000000
00000000
00000000
00000000
00000000
00000100
00000000
00000000
00000000
00000000
00001000
00000000
00000000
00000000
00000000
00000000
00000000
00000000
00000000
00000000
00000000
00001000
00000000
00000000
00000000
00000000
00100000
00000000
00000000
,
00000000
00000000
00000000
00000000
00000000
00100000
00000000
00000000
00010000
00000000
00000000
00000000
00000000
00000000
00000000
00000000
00000000
00000000
00000000
00000000
00000000
00000000
00000000
00000000
00100000
00000000
00000000
00000000
00000000
00000000
00000000
00000000
01000000
00000000
00000000
00000000
00000000
00000000
00000000
00000000
10000000
00000000
00000000
00000000
00000000
00010000
00000000
00000000
10000000
00000000
00000000
00000000
00000000
00000000
00000000
00000000
00100000
00000000
00000000
00000000
00000000
01000000
00000000
00000000
,
00000000
00000000
00000000
00000000
00000000
00000000
00000000
00000000
01000000
00000000
00000000
00000000
00000000
00001000
00000000
00000000
00000000
00000000
00000000
00000000
00000000
00000000
00000000
00000000
00001000
00000000
00000000
00000000
00000000
00010000
00000000
00000000
00000000
00000000
00000000
00000000
00000000
00000000
00000000
00000000
00010000
00000000
00000000
00000000
00000000
01000000
00000000
00000000
00000000
00000000
00000000
00000000
00000000
00000000
00000000
00000000
01000000
00000000
00000000
00000000
00000000
00100000
00000000
00000000
,
01000000
00000000
00000000
00000000
00000000
00000000
00000000
00000000
10000000
00000000
00000000
00000000
00000000
00000000
00000000
00000000
00010000
00000000
00000000
00000000
00000000
00000000
00000000
00000000
01000000
00000000
00000000
00000000
00000000
00000000
00000000
00000000
00001000
00000000
00000000
00000000
00000000
00000000
00000000
00000000
00010000
00000000
00000000
00000000
00000000
00000100
00000000
00000000
00010000
00000000
00000000
00000000
00000000
00000000
00000000
00000000
00001000
00000000
00000000
00000000
00000000
00000000
00000000
00000000
,
00000010
00000000
00000000
00000000
00000001
00000000
00001000
00000000
00000010
00000000
00000100
00000001
00000000
00000001
00000010
00000000
,
00000100
00000000
00001000
00000000
00000010
00010000
00000010
00000000
00010000
00000000
00001000
00000000
00000010
00000000
00001000
00000000
,
00010000
00000000
00100000
00000000
10000000
00010000
10000000
00000000
01000000
00000000
00100000
01000000
00100000
00000000
00010000
00000000
,
00100000
00000000
01000000
00000000
10000000
00010000
10000000
00000000
01000000
00000000
00010000
00000000
00001000
00000000
00000010
00000000
,
00000100
00000000
00000010
00000000
00000001
00000010
00000001
00000000
00000100
00000000
00000010
00001000
00000000
00001000
00000100
00000000
,
00000001
00000000
00000100
00000000
00001000
00000100
00010000
00000000
00001000
00000000
01000000
00000000
10000000
00000000
01000000
00000000
,
00100000
00000000
10000000
00000000
01000000
00100000
01000000
00000000
10000000
00000000
00010000
01000000
00010000
00000000
00100000
00000000
,
00001000
00000000
00000000
00000000
00011000
00010100
00011000
00010010
,
00010000
00000000
00000000
00000000
00000000
00000000
00000000
00000000
00001000
00000000
00000000
00000000
00000000
00010000
00000000
00000000
00000000
00000000
00000000
00000000
00000000
00000000
00000000
00000000
00010000
00000000
00000000
00000000
00000000
00000100
00000000
00000000
00000000
00000000
00000000
00000000
00000000
00000000
00000000
00000000
00000100
00000000
00000000
00000000
00000000
00001000
00000000
00000000
00000000
00000000
00000000
00000000
00000000
00000000
00000000
00000000
00001000
00000000
00000000
00000000
00000000
00000010
00000000
00000000
,
00000000
00000000
00000000
00000000
00000000
00000010
00000000
00000000
00000100
00000000
00000000
00000000
00000000
00000000
00000000
00000000
00000000
00000000
00000000
00000000
00000000
00000000
00000000
00000000
00000001
00000000
00000000
00000000
00000000
00000000
00000000
00000000
00000010
00000000
00000000
00000000
00000000
00000000
00000000
00000000
00000100
00000000
00000000
00000000
00000000
00001000
00000000
00000000
00000100
00000000
00000000
00000000
00000000
00000000
00000000
00000000
00000001
00000000
00000000
00000000
00000000
00000100
00000000
00000000
,
00000000
00000000
00000000
00000000
00000000
00000000
00000000
00000000
00000100
00000000
00000000
00000000
00000000
00010000
00000000
00000000
00000000
00000000
00000000
00000000
00000000
00000000
00000000
00000000
00010000
00000000
00000000
00000000
00000000
00100000
00000000
00000000
00000000
00000000
00000000
00000000
00000000
00000000
00000000
00000000
00100000
00000000
00000000
00000000
00000000
10000000
00000000
00000000
00000000
00000000
00000000
00000000
00000000
00000000
00000000
00000000
10000000
00000000
00000000
00000000
00000000
01000000
00000000
00000000
,
10000000
00000000
00000000
00000000
00000000
00000000
00000000
00000000
00010000
00000000
00000000
00000000
00000000
00000000
00000000
00000000
00000000
00000000
00000000
00000000
01000000
00000000
00000000
00000000
00000000
00000000
00000000
00100000
00000000
00000000
00000000
00000000
10000000
00000000
00000000
00000000
00000000
00000000
00000000
00000000
01000000
00000000
00000000
00000000
00000000
00000000
00000000
00000000
00100000
00000000
00000000
00000000
00000000
00000000
00000000
00000000
00000000
00000000
00000000
00000000
00000000
00000000
00000000
00000000
,
00010000
00000000
00000000
00000000
00000000
00000000
00000000
00000000
01000000
00000000
00000000
00000000
00000000
00001000
00000000
00000000
00000000
00000000
00000000
00000000
00000000
00000000
00000000
00000000
00001000
00000000
00000000
00000000
00000000
00000100
00000000
00000000
00000000
00000000
00000000
00000000
00000000
00000000
00000000
00000000
00000100
00000000
00000000
00000000
00000000
00000001
00000000
00000000
00000000
00000000
00000000
00000000
00000000
00000000
00000000
00000000
00000001
00000000
00000000
00000000
00000000
00000010
00000000
00000000
,
00000000
00000000
00000000
00000000
00000000
00000010
00000000
00000000
00000100
00000000
00000000
00000000
00000000
00000000
00000000
00000000
00000000
00000000
00000000
00000000
00000000
00000000
00000000
00000000
00001000
00000000
00000000
00000000
00000000
00000000
00000000
00000000
00000001
00000000
00000000
00000000
00000000
00000000
00000000
00000000
00000100
00000000
00000000
00000000
00000000
00000010
00000000
00000000
00000100
00000000
00000000
00000000
00000000
00000000
00000000
00000000
00001000
00000000
00000000
00000000
00000000
00010000
00000000
00000000
,
00000000
00000000
00000000
00000000
00000000
00000000
00000000
00000000
00010000
00000000
00000000
00000000
00000000
01000000
00000000
00000000
00000000
00000000
00000000
00000000
00000000
00000000
00000000
00000000
01000000
00000000
00000000
00000000
00000000
00010000
00000000
00000000
00000000
00000000
00000000
00000000
00000000
00000000
00000000
00000000
00010000
00000000
00000000
00000000
00000000
00001000
00000000
00000000
00000000
00000000
00000000
00000000
00000000
00000000
00000000
00000000
01000000
00000000
00000000
00000000
00000000
00100000
00000000
00000000
,
01000000
00000000
00000000
00000000
00000000
00000000
00000000
00000000
00010000
00000000
00000000
00000000
00000000
00000000
00000000
00000000
10000000
00000000
00000000
00000000
00000000
00000000
00000000
00000000
01000000
00000000
00000000
00000000
00000000
00100000
00000000
00000000
01000000
00000000
00000000
00000000
00000000
00000000
00000000
00000000
10000000
00000000
00000000
00000000
00000000
00000000
00000000
00000000
00010000
00000000
00000000
00000000
00000000
00000000
00000000
00000000
00000000
00000000
00000000
00000000
00000000
00000000
00000000
00000000
,
10000000
00100000
01000000
00100000
00010000
00100000
01000000
00001000
,
00010000
01000000
00100000
10000000
00100000
01000000
00100000
00001000
,
00010000
00000010
00000100
00001000
00000100
00000010
00001000
00000100
,
00000010
00001000
00000010
00000100
00010000
00001000
00000100
00000001
,
00001000
00000100
00000010
00000001
00000010
00000100
00001000
00000010
,
00010000
00100000
01000000
10000000
01000000
00100000
00010000
00001000
,
00100000
01000000
00010000
01000000
00100000
00001000
00010000
00100000
,
10000000
00000000
00000000
00000000
00000000
00000000
00000000
00000000
01000000
00000000
00000000
00000000
00000000
00000000
00000000
00000000
00100000
00000000
00000000
00000000
00000000
00001000
00000000
00000000
00000000
00000000
00000000
00010000
00000000
00000000
00000000
00000000
00001000
00000000
00000000
00000000
00000000
00000000
00000000
00000000
00000100
00000000
00000000
00000000
00000000
00000000
00000000
00000000
00000001
00000000
00000000
00000000
00000000
00000000
00000000
00000000
00000000
00000000
00000000
00000000
00000000
00000000
00000000
00000000
,
00000000
00000000
00000000
00000000
00002200
00000000
00000000
00000000
00000000
00000000
00000000
00000000
00010010
00003300
00000000
00000000
,
00000000
00000000
00000000
00000000
00022000
00000000
00000000
00000000
00000000
00000000
00000000
00000000
00000110
00033000
00000000
00000000
,
00000000
00000000
00000000
00000000
02002000
00000000
00000000
00000000
00000000
00000000
00000000
00000000
00110000
03003000
00000000
00000000
,
00000000
00100000
10000000
01000000
,
00100000
00000000
00010000
10000000
00010000
00000000
10000000
00010000
10000000
00000000
01000000
00100000
01000000
00000000
00100000
00010000
,
00000000
00010000
00100000
00000000
00001000
00000000
00010000
00000000
00000100
00000000
00001000
00000000
00000010
00000000
00000100
00000001
,
00000000
00000001
00001000
00000000
00000100
00000000
00000010
00000100
00000010
00000000
00000100
00000010
00000100
00000000
00001000
00000000
,
00000001
00000000
00000000
00000000
00000000
00001000
00000000
00000000
00000000
00000000
00000000
00000000
00000000
00000001
00000000
00000000
00000000
00000000
00001000
00000000
00000000
00000000
00000000
00000000
00000000
00000001
00000000
00000000
00000000
00000000
00000000
00001000
00000000
00000000
00000000
00000000
00000000
00000000
00000001
00000000
00000000
00000000
00000000
00001000
00000000
00000000
00000000
00000000
00000001
00000000
00000000
00000000
00000000
00000000
00000000
00000000
00000100
00000000
00000000
00000000
00000000
00000000
00000000
00000000
,
00000001
00000000
00001000
00000000
00000010
00000000
00010000
00001000
00000000
00000000
00000100
00001000
00000100
00000000
00001000
00010000
,
00000000
00000100
00000000
00010000
00001000
01000000
00100000
10000000
,
01000000
00000000
00100000
00000000
00010000
00000000
10000000
01000000
M0000000
01000000
00000000
01000000
00100000
00000000
00001000
00000000
,
00010000
00000000
00000000
00000000
00100000
00000000
00010000
00000000
00001000
00010000
00001000
00000000
00010000
00001000
00010000
00000000
,
00000100
00000000
00000010
00000000
00000100
00000000
00001000
00000001
0000M000
00000001
00000000
00000001
00000100
00000000
00000010
00001000
,
00000000
00001000
00000100
00000000
00000000
00000000
00010000
00000000
00001000
00000000
01000000
00000000
00010000
00000000
00100000
00000000
,
01000000
00000000
10000000
00000000
00010000
00000000
01000000
00100000
0M000000
00100000
00000000
00100000
10000000
00000000
01000000
00000000
,
00100000
00010000
00100000
00000000
00001000
00010000
00001000
00000000
00000010
00000100
00000010
00000000
00000001
00000000
00000000
00000000
,
00001001
00000000
00000000
00000000
00000000
00000000
00000000
00000000
00000000
00000000
00000000
00000000
00000000
00000000
00000000
00000000
00001100
00000000
00000000
00000000
00000000
00000000
00000000
00000000
00000000
00000000
00000000
00000000
00000000
00000000
00000000
00000000
01010000
00000000
00000000
00000000
00000000
00000000
00000000
00000000
00000000
00000000
00000000
00000000
00000000
00000000
00000000
00000000
00100000
00000000
00000000
00000000
00000000
00000000
00000000
00000000
10000000
00000000
00000000
00000000
00000000
01000000
00000000
00000000
,
00000000
00000000
00000000
00000000
00000000
00100000
00000000
00000000
00000000
00000000
00000000
00000000
00000000
00000000
00000000
00000000
00000000
00000000
00000000
00000000
00000000
00000000
00000000
00000000
00010000
00000000
00000000
00000000
00000000
00000000
00000000
00000000
01000000
00000000
00000000
00000000
00000000
00000000
00000000
00000000
00100000
00000000
00000000
00000000
00000000
00000000
00000000
00000000
10000000
00000000
00000000
00000000
00000000
00000000
00000000
00000000
00100000
00000000
00000000
00000000
00000000
00000000
00000000
00000000
,
01000000
00001000
00100000
01000000
00010000
01000000
00100000
00001000
,
00010000
00000000
00000100
00000000
00001000
00000000
00000010
00000000
00000100
00000000
00000000
00000000
00000001
00000000
00001000
00000100
,
00000000
00000010
00000000
00000001
00000000
00000100
00000010
00001000
00000010
00000000
00010000
00001000
01000000
00000000
00001000
00010000
,
00100000
00000000
01000000
00010000
10000000
00000000
01000000
00000000
01100000
00000000
00110000
00000000
00100000
00000000
00010000
00000000
,
10000000
00100000
00000000
01000000
00000000
00001000
00000000
00010000
00000100
00000000
00001000
00000000
00000010
00000000
00000100
00000000
,
00000001
00000000
00000100
00000000
00000010
00000000
00001000
00000001
00001000
00000000
00000100
00000000
00000010
00000000
00000001
00000000
,
00010000
00000000
00000010
00000100
00000000
00000000
00000100
00000000
00000001
00000000
00000010
00000100
00000000
00000000
00000100
00000000
,
00001000
00000000
00000010
00010000
00000000
00000000
00010000
00000000
00001000
00000000
00000100
00001000
00000000
00000000
00001000
00000000
,
00010000
00000000
00100000
01000000
00000000
00000000
01000000
00000000
00010000
00000000
01000000
00100000
00000000
00000000
00100000
00000000
,
10000000
00000000
01000000
00100000
00000000
00000000
00100000
00000000
00010000
00000000
01000000
00001000
00000000
00000000
00001000
00000000
,
00010000
00000000
00000000
01000100
00000000
00000000
00000000
00000000
00011000
00000000
00000000
00100010
00000000
00000000
00000000
00000000
,
00011000
00000000
00000000
01000100
00000000
00000000
00000000
00000000
00001100
00000000
00000000
00010001
00000000
00000000
00000000
00000000
,
00000000
00000000
00000000
00000000
00000000
00000000
00000001
00000100
,
00000010
00000000
00000000
00000000
00000000
00001000
00000000
00000000
00000000
00000000
00000000
00000010
00000000
00000000
00000000
00000000
00010000
00000000
00000000
00000000
00000000
00000000
00000000
00000000
00001000
00000000
00000000
00000000
00000000
00000000
00000000
00000000
01000000
00000000
00000000
00000000
00000000
00000000
00000000
00000000
00000000
00000000
00000000
00000000
00000000
00000000
00000000
00000000
20020000
00000000
00000000
00000000
00000000
00000000
00000000
00000000
00000000
00000000
00000000
00000000
00000000
00000000
00000000
00000000
,
00000000
30030000
00000000
00000000
;

//---------------dance-single - K. Ward----------------
#NOTES:
     dance-single:
     K. Ward:
     Beginner:
     1:
     0.087,0.000,0.000,0.000,0.000,67.000,0.000,0.000,0.000,0.000,0.000:

0000
0000
0000
0000
,
0000
0000
0000
0000
,
0000
0000
0000
0000
,
0000
0000
0000
0000
,
1000
0000
0000
0000
,
0010
0000
0000
0000
,
0100
0000
0000
0000
,
0001
0000
0000
0000
,
1000
0000
0000
0000
,
0001
0000
0000
0000
,
1000
0000
0000
0000
,
0001
0000
0000
0000
,
0010
0000
0000
0000
,
0100
0000
0000
0000
,
0010
0000
0000
0000
,
0001
0000
0000
0000
,
1000
0000
0000
0000
,
0000
0000
0000
0000
,
1000
0000
0000
0000
,
0000
0000
0000
0000
,
0001
0000
0000
0000
,
0000
0000
0000
0000
,
0001
0000
0000
0000
,
0000
0000
0000
0000
,
1000
0000
0000
0000
,
1000
0000
0000
0000
,
0001
0000
0000
0000
,
0001
0000
0000
0000
,
0010
0000
0000
0000
,
0010
0000
0000
0000
,
0001
0000
0000
0000
,
0001
0000
0000
0000
,
1000
0000
0001
0000
,
1000
0000
0000
0000
,
1000
0000
0001
0000
,
1000
0000
0000
0000
,
1000
0000
0001
0000
,
1000
0000
0000
0000
,
1000
0000
0001
0000
,
1000
0000
0000
0000
,
0010
0000
0000
0000
,
0000
0000
0000
0000
,
0010
0000
0000
0000
,
0000
0000
0000
0000
,
0100
0000
0000
0000
,
0100
0000
0000
0000
,
0100
0000
0000
0000
,
0100
0000
0000
0000
,
0001
0000
0000
0000
,
1000
0000
0000
0000
,
0010
0000
0000
0000
,
0100
0000
0000
0000
,
0001
0000
0000
0000
,
1000
0000
0000
0000
,
0010
0000
0000
0000
,
0100
0000
0000
0000
,
0001
0000
0000
0000
,
0001
0000
0000
0000
,
1000
0000
0000
0000
,
1000
0000
0000
1000
,
0000
0000
0000
0001
,
0000
0000
0000
0001
,
0000
0000
0000
0010
,
0000
0001
0000
0001
,
0000
0000
0000
0001
,
0000
0000
0000
1000
,
0000
0000
0000
1000
,
0000
0000
0000
0001
,
0000
0000
0000
0001
,
0000
0000
0000
0100
,
0000
0000
0000
0000
,
0000
0000
0010
0000
;
