#TITLE:Psalm Pilot;
#SUBTITLE:;
#ARTIST:Jason Creasey;
#TITLETRANSLIT:;
#SUBTITLETRANSLIT:;
#ARTISTTRANSLIT:;
#GENRE:Trance;
#CREDIT:;
#BANNER:Psalm Pilot-banner.png;
#BACKGROUND:Psalm Pilot-bg.png;
#LYRICSPATH:;
#CDTITLE:;
#MUSIC:Psalm Pilot.ogg;
#OFFSET:0.017;
#SAMPLESTART:73.820;
#SAMPLELENGTH:11.940;
#SELECTABLE:YES;
#BPMS:0.000=130.000;
#STOPS:;
#BGCHANGES:0.000=Psalm Pilot-bg.png=1.000=0=0=1=====,
16.000=In The Groove 2/800_JumpBack.mpg=1.000=0=0=1=====,
32.000=In The Groove 2/963_JumpBack.mpg=1.000=0=0=1=====,
48.000=-random-=1.000=0=0=1===FadeLeft==,
64.000=In The Groove 2/628_JumpBack_1.mpg=1.000=0=0=1=====,
80.000=-random-=1.000=0=0=1===FadeRight==,
96.000=-random-=1.000=0=0=1===FadeUp==,
112.000=-random-=1.000=0=0=1===FadeDown==,
128.000=In The Groove 2/963_JumpBack.mpg=1.000=0=0=1=SongBgWithMovieViz====,
144.000=In The Groove 2/909_JumpBack.mpg=1.000=1=0=1=SongBgWithMovieViz==CrossFade==,
160.000=In The Groove 2/632_JumpBack.mpg=1.000=0=0=1=====,
176.000=In The Groove 2/632_JumpBack.mpg=0.300=0=0=1=Kaleidoscope2x2====,
192.000=In The Groove 2/800_JumpBack.mpg=1.000=0=0=1=====,
208.000=In The Groove 2/800_JumpBack.mpg=0.300=0=0=1=Kaleidoscope2x2====,
223.000=Psalm Pilot-bg.png=1.000=0=0=1=====,
99999=-nosongbg-=1.000=0=0=0 // don't automatically add -songbackground-
;
#BGCHANGES2:16.000=flash=1.000=0=0=1=====,
32.000=flash=1.000=0=0=1=====,
64.000=flash=1.000=0=0=1=====,
128.000=flash=1.000=0=0=1=====,
160.000=flash=1.000=0=0=1=====,
192.000=flash=1.000=0=0=1=====,
216.000=flash=1.000=0=0=1====1^1^0^1=,
223.000=flash=1.000=0=0=1=====,
;
#KEYSOUNDS:;
// cache tags:
#FIRSTBEAT:16.000;
#LASTBEAT:224.000;
#SONGFILENAME:/Songs/In The Groove 2/Psalm Pilot/Psalm Pilot.sm;
#HASMUSIC:1;
#HASBANNER:1;
#MUSICLENGTH:108.923;
// end cache tags

//---------------dance-single - M. Puls----------------
#NOTES:
     dance-single:
     M. Puls:
     Medium:
     5:
     0.282,0.000,0.138,0.101,0.000,189.000,15.000,11.000,0.000,0.000,0.000:
0000
0000
0000
0000
,
0000
0000
0000
0000
,
0000
0000
0000
0000
,
0000
0000
0000
0000
,
1100
0000
0000
0000
0001
0001
0001
0000
,
0011
0000
0000
0000
0010
0010
0010
0000
,
0110
0000
0000
0000
0100
0100
0100
0000
,
0101
0000
0000
0000
1000
1000
1000
0000
,
1001
0000
0100
0000
0000
1000
0001
0000
,
0001
0000
0001
0000
0000
1000
0001
0000
,
0010
0000
0001
0000
0000
0001
0100
0000
,
0001
0000
0001
0000
0000
0001
1000
0000
,
0001
0000
0001
0000
0000
0100
0001
0000
,
1000
0000
0001
0000
0000
0001
0100
0000
,
0001
0000
0001
0000
0010
0001
0010
0000
,
0001
0000
1000
0000
0100
1000
0100
0000
,
2001
0000
0000
0000
,
3001
0000
0001
0100
,
0001
0000
0001
0010
,
0002
0000
1003
0010
,
2000
0000
3001
0100
,
0010
0000
0001
1000
,
0001
0000
1000
0001
,
1000
0000
0000
1000
0001
0000
0001
0000
,
0001
0000
0000
0001
1000
0000
1000
0000
,
1000
0000
0000
0000
0001
0000
1000
0010
,
0001
0000
0000
0000
1000
0000
0001
0100
,
1000
0000
0001
1000
,
0001
0000
0000
0000
1000
0001
1000
0100
,
1000
0000
0000
0000
0001
1000
0001
0010
,
0001
0000
0010
1001
,
0100
0010
0000
1001
,
2100
0000
0000
0000
,
3200
0000
0320
0000
,
0032
0000
0000
0000
,
0000
0000
0000
0003
,
1100
0000
0000
0000
,
0001
0000
1000
0000
,
0100
0000
0000
0000
0001
0010
0001
0000
,
0001
0000
0000
0000
0001
1000
0001
0000
,
1000
1000
0001
0100
0001
0000
1000
0000
,
0001
0001
1000
0010
1000
0000
0001
0000
,
1000
0000
0010
0000
0100
0010
0100
0000
,
1000
0000
0010
0000
0100
0010
0100
0000
,
2002
0000
0000
0000
,
3003
0000
0000
0000
1000
0100
1000
0000
,
0000
0000
0000
0000
0001
0010
0001
0000
,
0100
0000
0100
0000
1000
0001
1000
0000
,
0010
0000
0010
0000
0001
1000
0001
0000
,
1000
0000
0000
0000
1000
1000
0010
0100
,
0001
0000
0000
0000
0001
0001
0100
0010
,
1000
0010
0100
0110
,
1001
0000
1000
0001
,
1000
0000
1000
0010
1000
0100
1000
0000
,
0001
0000
0001
0100
0001
0010
0001
0000
,
0220
0000
0330
1001
;

//---------------dance-single - M. Puls----------------
#NOTES:
     dance-single:
     M. Puls:
     Beginner:
     1:
     0.076,0.000,0.028,0.000,0.000,55.000,3.000,0.000,0.000,0.000,0.000:

0000
0000
0000
0000
,
0000
0000
0000
0000
,
0000
0000
0000
0000
,
0000
0000
0000
0000
,
0001
0000
0000
0000
,
0000
0000
0000
0000
,
1000
0000
0000
0000
,
0000
0000
0000
0000
,
0001
0000
0000
0000
,
0010
0000
0000
0000
,
0001
0000
0000
0000
,
1000
0000
0000
0000
,
0100
0000
0000
0000
,
1000
0000
0000
0000
,
0100
0000
0000
0000
,
0010
0000
0000
0000
,
0100
0000
0000
0000
,
1000
0000
0000
0000
,
1000
0000
0000
0000
,
1000
0000
0000
0000
,
0001
0000
0000
0000
,
0001
0000
0000
0000
,
0001
0000
0000
0000
,
0100
0000
0000
0000
,
0100
0000
0000
0000
,
0100
0000
0000
0000
,
0010
0000
0000
0000
,
0010
0000
0000
0000
,
0010
0000
0000
0000
,
0000
0000
0000
0000
,
1000
0000
0001
0000
,
1000
0000
0000
0000
,
1001
0000
0000
0000
,
0000
0000
0000
0000
,
0100
0000
0000
0000
,
0000
0000
0000
0000
,
1001
0000
0000
0000
,
0001
0000
0010
0000
,
0100
0000
0000
0000
,
0000
0000
0000
0000
,
1000
0001
1000
0001
,
0000
0000
0001
0001
,
1000
0000
0001
1000
,
0000
0000
1000
1000
,
0000
0000
0000
0000
,
0001
0000
0000
0000
,
0100
0000
0000
0000
,
0010
0000
0000
0000
,
1000
0000
0000
0000
,
0100
0000
0000
0000
,
0010
0000
0000
0000
,
0001
0000
0000
0000
,
0100
0000
0000
0000
,
0010
0000
0000
0000
,
1000
0000
0000
0000
,
0001
0000
0000
1001
;

//---------------dance-single - K.W----------------
#NOTES:
     dance-single:
     K.W:
     Hard:
     8:
     0.391,0.000,0.174,0.266,0.096,250.000,19.000,29.000,33.000,0.000,0.000:
0000
0000
0000
0000
,
0000
0000
0000
0000
,
0000
0000
0000
0000
,
0000
0000
0000
0000
,
1000
0000
0000
0100
0000
0000
0010
0000
0000
0100
0000
0000
1000
0000
0010
0000
,
0001
0000
0000
0010
0000
0000
0100
0000
0000
0001
0000
0000
1000
0000
0000
0000
,
1000
0000
0000
0010
0000
0000
0100
0000
0000
0001
0000
0000
0010
0000
0100
0000
,
0010
0000
0000
0100
0000
0000
0010
0000
1001
0000
0000
0000
0000
0000
0000
0000
,
1000
0000
0100
1000
0100
0000
0000
0000
1000
0000
0000
0000
0010
0000
0000
0000
,
0100
0000
0001
0010
0001
0000
0000
0000
0010
0000
0000
0000
0001
0000
0000
0000
,
1000
0000
0010
0100
0010
0000
0000
0000
0100
0000
0000
0000
0010
0000
0000
0000
,
1000
0000
0100
1000
0100
0000
0000
0000
1000
0000
0000
0000
0001
0000
0000
0000
,
0010
0000
0001
0010
0001
0000
0000
0000
1000
0000
0000
0000
1100
0000
0000
0000
,
0010
0000
0100
0010
0100
0000
0000
0000
0001
0000
0000
0000
0011
0000
0000
0000
,
0100
0010
0100
1000
0100
0001
0010
0001
,
0010
0100
1000
0000
0011
0000
1100
0000
,
M22M
0000
M00M
0000
,
M00M
0000
M00M
0000
,
M33M
0000
0MM0
M00M
0000
0000
0000
0000
,
0002
0000
0000
0000
0020
0000
0003
000M
,
0230
00M0
0000
1000
0000
0000
0010
0000
,
0010
0000
0000
1000
0000
0000
0010
0000
,
0320
0000
0000
0001
0000
0000
0100
0000
,
0130
0010
0001
0010
1000
0010
0001
0010
,
0200
0010
1000
0010
,
0302
1000
0100
0010
,
0023
0000
0100
0000
0001
0000
0100
0100
,
0130
0000
0000
0000
1000
0100
0010
0100
,
2000
0000
0000
0002
3000
M000
2003
000M
,
0002
0000
3000
M023
000M
0M00
0200
0030
,
10M0
1000
M000
0010
0010
00M0
1000
1000
,
M000
0010
0010
00M0
1000
1000
1300
MM0M
,
2002
0000
0000
3000
,
0020
0000
0000
0000
0000
0000
0003
0000
0200
0030
0000
0000
0000
0000
0000
0000
,
0302
0000
0000
0000
,
0000
0000
0000
0003
,
0120
0000
0000
0230
,
0002
0000
0300
0000
0010
0003
0200
0000
,
2000
0000
3000
1300
,
2000
0000
0001
0001
3001
0000
1001
0000
,
1000
0100
0001
0100
1000
0100
0001
0100
,
1000
0010
0001
0010
1000
0010
0001
0010
,
0100
0001
1000
0010
0001
0010
1000
0001
,
0010
0001
1000
0001
2000
0000
3100
0000
,
0001
0010
1000
0010
0001
0010
1000
0100
,
0001
0100
1000
0010
0100
0001
0010
0001
,
1000
0001
1000
0010
0100
0001
0010
0100
,
1000
0100
0010
0100
1000
0000
1100
0000
,
0001
0000
0010
0001
0010
0000
0000
0000
0100
0000
0000
0000
0100
0000
0000
0000
,
1000
0000
0010
0100
0010
0000
0000
0000
0100
0000
0000
0000
0100
0000
0000
0000
,
0001
0000
0010
0001
0010
0000
0000
0000
0001
0000
0000
0000
0001
0000
0000
0000
,
0100
0000
0010
0100
0010
0000
0000
0000
1100
0000
0000
0000
0011
0000
0000
0000
,
1000
0000
0010
0100
0010
0000
1000
0000
0100
0000
1000
0000
0010
0000
0001
0000
,
0010
0000
0100
0001
0010
0000
0100
0000
1000
0000
0100
0000
0010
0000
0100
0000
,
1100
MM00
0110
0MM0
,
1001
0000
0000
0110
0000
0000
0011
0000
0000
0110
0000
0000
2002
0000
0000
0000
,
3003
0000
0000
0000
;

//---------------dance-single - ----------------
#NOTES:
     dance-single:
     :
     Easy:
     3:
     0.224,0.000,0.220,0.046,0.000,142.000,24.000,5.000,0.000,0.000,0.000:
0000
0000
0000
0000
,
0000
0000
0000
0000
,
0000
0000
0000
0000
,
0000
0000
0000
0000
,
1000
0001
0001
1000
,
0000
0001
0001
1000
,
0000
0010
0010
0100
,
0000
0010
0001
0100
,
1000
0100
1000
0100
,
0010
0100
0010
0100
,
1000
0001
1000
0001
,
0010
0001
0010
0001
,
0001
1000
0001
1000
,
0010
1000
0010
1000
,
0001
0100
0001
0100
,
0010
0100
0010
0110
,
0001
0001
0001
0010
,
0001
0001
0001
0100
,
0001
0001
0001
1000
,
1001
0000
1100
0000
,
0010
0010
0010
1000
,
0100
0100
0100
1000
,
0010
0001
0100
1000
,
1000
0000
0001
0000
,
0010
0010
0010
0000
,
0010
0010
0010
0000
,
0010
0010
0010
0000
,
0200
0000
2300
0000
,
3001
0001
0001
0000
,
0001
0001
0001
0000
,
0110
0000
0110
0000
,
1000
0001
0001
1000
,
1001
0000
0000
0000
,
0000
0000
0000
0000
,
2000
0000
0000
0000
,
3000
0000
0000
0000
,
1001
0000
0000
0000
,
0011
0000
1100
0000
,
0110
0000
0000
0000
,
0000
0000
0000
0000
,
1001
0000
0000
0110
,
0110
0000
0000
0110
,
0110
0000
0000
0000
,
0002
0000
0013
0000
,
1001
0000
0000
0110
,
0110
0000
0000
0110
,
0110
0000
0000
0110
,
1001
0000
0000
0000
,
0001
0001
0001
1000
,
0010
0010
0010
1000
,
0001
0001
0001
1000
,
0010
0100
0100
0100
,
0001
0001
0001
0000
,
0001
0001
0001
0000
,
1100
0000
0011
0000
,
2000
0000
0000
3001
;

//---------------dance-single - C. Foy----------------
#NOTES:
     dance-single:
     C. Foy:
     Challenge:
     9:
     0.492,0.000,0.211,0.248,0.202,325.000,23.000,27.000,4.000,0.000,0.000:
0000
0000
0000
0000
,
0000
0000
0000
0000
,
0000
0000
0000
0000
,
0000
0000
0000
0000
,
1000
0000
0001
0100
0001
0000
0100
0010
0100
0000
0010
1000
0010
0000
0001
0010
,
0001
0000
0010
0100
0010
0000
1000
0010
1000
0000
0010
0100
0010
0000
1000
0001
,
1000
0000
0010
0100
0010
0000
0010
1000
0010
0000
0001
0010
0001
0000
0010
0100
,
0010
0000
1000
0010
1000
0000
0010
0100
0010
0000
0100
0000
1000
0000
2001
0000
,
3010
0100
0010
1000
0001
0100
0010
1000
,
0010
0000
0010
0100
0010
0000
0100
0000
0001
0000
0100
0000
0010
0000
1000
0000
,
0001
0000
0001
0100
0001
0000
0100
0000
0010
0000
0100
0000
0010
0000
1000
0000
,
0010
0000
0010
0001
0010
0000
0100
0000
0010
0000
0100
0000
1001
0000
1000
0000
,
0100
0000
0010
0100
0010
0000
1000
0000
0010
0000
0001
0000
0010
0000
0200
0000
,
0010
0310
0010
0100
0010
1000
0010
0100
,
1000
0000
1000
0100
1000
0000
0100
0000
0010
0000
0100
0000
0001
0000
0100
0000
,
0010
0000
0010
0100
0010
0000
0100
0000
1001
0000
1000
0000
0100
0000
0020
0000
,
0031
0000
0001
0100
0000
0010
1000
0000
,
1001
0000
0000
0000
0001
0000
0100
0000
0000
0010
0000
0000
0100
0000
0002
0000
,
1000
0003
0000
0000
1000
0000
0100
0000
0000
0000
0010
0000
0100
0000
0000
0000
,
0010
0000
0000
0000
0001
0000
0100
0000
0000
0010
0000
0000
1001
0000
0000
0000
,
1000
0000
0010
0010
0000
0001
0001
0000
,
0100
0000
0000
0000
1000
0000
1000
0000
0000
0001
0000
0000
0001
0000
2000
0000
,
0001
3000
0000
0000
1000
0000
0010
0000
0000
0000
0010
0000
1000
0000
0000
0000
,
1000
0000
0000
0000
0000
0000
0000
0000
1100
0000
0000
0000
1000
0000
0000
0000
0000
0000
0001
0000
0000
0000
0000
0000
0100
0000
0000
0000
00M0
0M00
00M0
0M00
,
1001
0000
1000
0010
0000
0010
0001
0000
,
0100
0000
0000
0000
0100
0000
1000
0000
0000
1000
0000
0000
0001
0000
2000
0000
,
0001
3000
0000
0000
1000
0000
0010
0000
0000
0000
0010
0000
0001
0000
0000
0000
,
0100
0000
0000
0000
0100
0000
1000
0000
0000
1000
0000
0000
1001
0000
0000
0000
,
1000
0000
0100
0001
0000
0001
0010
0000
,
0010
0000
0000
0000
1000
0000
0100
0000
0000
0100
0000
0000
1000
0000
0000
0000
,
1001
0000
1000
0001
0000
0100
0010
0110
,
0010
0000
0000
0000
1000
0000
0100
0000
1100
1000
0000
0000
1000
0000
0001
0000
,
0202
0000
0000
0000
0000
0000
0000
0003
,
2000
0000
0000
0000
0000
0000
0000
0300
0002
0000
0000
0000
0000
0000
3000
0000
,
0020
0000
0000
0000
,
0000
0000
0000
0000
0000
0000
0000
0000
0003
0000
0000
0000
0000
0000
0000
0030
,
0220
0000
0000
0030
,
0002
0300
0020
0003
,
2000
0000
0000
0000
0000
0000
0000
0030
,
0000
0002
0000
0000
0000
0000
3000
0000
,
0200
0000
0003
0000
0010
0010
0320
0000
,
0002
0000
0030
0000
1000
1000
2003
0000
,
0200
0000
3000
0000
0010
0010
0020
0300
,
0002
0030
0000
0003
0100
0100
0100
0000
,
1001
0000
0010
0100
0010
0000
0100
0000
0001
0000
0100
0000
0010
0000
0000
0000
,
0100
0000
0001
0100
0001
0000
0100
0000
0010
0000
0100
0000
1000
0000
0000
0000
,
0100
0000
0010
0100
0010
0000
0100
0000
0001
0000
0100
0000
0001
0000
0000
0000
,
0100
0000
0001
1000
1001
0000
0001
0000
0100
0000
0010
0000
1000
0000
0000
0000
,
1001
0000
1000
0100
1000
0000
0100
0000
0010
0000
0100
0000
0001
0000
0000
0000
,
0100
0000
0010
0100
0010
0000
0001
0000
1000
0000
0100
0000
0010
0000
0002
0000
,
1000
0003
1000
0100
1000
0000
0100
0000
0010
0000
0100
0000
0001
0000
0000
0000
,
1001
0000
0010
0100
0010
0000
0100
0000
1001
0000
0100
0000
1001
0000
0000
0000
,
0001
0000
0001
0100
0001
0000
0100
0000
0010
0000
0100
0000
1000
0000
0000
0000
,
0100
0000
0010
0100
0010
0000
0100
0000
0001
0000
0100
0000
0010
0000
0000
0000
,
1001
0000
1000
0100
1000
0000
0100
0000
0010
0000
0100
0000
0010
0000
1001
0000
,
0010
0000
0010
0100
0010
0000
0100
0000
1001
0001
0000
0000
2002
0000
0000
0000
,
3003
0000
0000
0000
;

//---------------dance-double - M.Emirzian----------------
#NOTES:
     dance-double:
     M.Emirzian:
     Easy:
     3:
     0.194,0.000,0.064,0.046,0.000,136.000,7.000,5.000,0.000,0.000,0.000:
00000000
00000000
00000000
00000000
,
00000000
00000000
00000000
00000000
,
00000000
00000000
00000000
00000000
,
00000000
00000000
00000000
00000000
,
00010000
00000000
10000000
00010000
,
10000000
00000000
00100000
00010000
,
00100000
00000000
00001000
00010000
,
00011000
00000000
00000100
00001000
,
00000100
00000000
00000010
00000001
,
00000010
00000000
00000100
00001000
,
00001100
00000000
00000001
00000100
,
00000010
00000000
00001000
00000100
,
00010000
00000000
00001000
00010000
,
00011000
00000000
01000000
00010000
,
10010000
00000000
01000000
00100000
,
01000000
00000000
10000000
00010000
,
10000000
00000000
00010000
00000000
,
00100000
00001000
00010000
00001000
,
00001000
00000000
00000100
00000000
,
00000010
00000100
00001000
00000001
,
00000001
00000000
00000100
00000000
,
00000010
00001000
00000100
00010000
,
00010000
00000000
00001000
00000000
,
01000000
00010000
10000000
01000000
,
01000000
00000000
00100000
00000000
,
00010000
01000000
00001000
00010000
,
00010000
00000000
00000010
00000000
,
00001000
00000010
00000100
00000001
,
00000001
00000000
00000010
00000000
,
00000100
00001000
00000001
00000100
,
00000100
00000000
00000010
00000000
,
00001000
00000100
00010000
00001000
,
02002000
00000000
00000000
00000000
,
00000000
00000000
00000000
00000000
,
00000000
00000000
00000000
00000000
,
00000000
00000000
00000000
03003000
,
02020000
00000000
00000000
00000000
,
00000000
00000000
00000000
00000000
,
00000000
00000000
00000000
03030000
,
20000000
00000000
00000000
30000000
,
10000000
00100000
10000000
00000000
,
00010000
01000000
00010000
00000000
,
00100000
00001000
00010000
00000000
,
00000010
00001000
00000010
00000000
,
00000100
00000001
00000100
00000000
,
00000010
00001000
00000010
00000000
,
00001000
00000100
00010000
00000000
,
00001000
01000000
00010000
00000000
,
01000000
00100000
01000000
00000000
,
00010000
10000000
00010000
00000000
,
00100000
00001000
00010000
00000000
,
00000010
00000100
00000010
00000000
,
00001000
00000001
00001000
00000000
,
00000100
00010000
00001000
00000000
,
01000000
00010000
01000000
00000000
,
00100000
10000000
00100000
10010000
;

//---------------dance-double - M.Emirzian----------------
#NOTES:
     dance-double:
     M.Emirzian:
     Medium:
     6:
     0.355,0.000,0.101,0.037,0.000,256.000,11.000,4.000,0.000,0.000,0.000:
00000000
00000000
00000000
00000000
,
00000000
00000000
00000000
00000000
,
00000000
00000000
00000000
00000000
,
00000000
00000000
00000000
00000000
,
10000000
00000000
00000000
00010000
00000000
00000000
10000000
00010000
,
01000000
00000000
00000000
00100000
00000000
00000000
01000000
00010000
,
00100000
00000000
00000000
00001000
00000000
00000000
00010000
00000100
,
00001000
00000000
00000000
00000010
00000000
00000000
00010000
00001000
,
01000000
00000000
00001000
00000000
00010000
00000010
00001000
00000010
,
00001000
00000000
00000100
00000000
00000010
00000001
00000010
00000100
,
00000010
00000000
00000001
00000000
00000100
00000010
00001000
00000010
,
00001000
00000000
00000100
00000000
00010000
00001000
01000000
00010000
,
01000000
00000000
00100000
00000000
01000000
00010000
10000000
01000000
,
00100000
00000000
00010000
00000000
10000000
00100000
01000000
00100000
,
10000000
00000000
00010000
00000000
00100000
00001000
00010000
00000100
,
00001000
00000000
00000001
00000000
00001000
00000100
00000010
00000001
,
00000100
00000000
00000010
00001000
00000000
00001000
00000100
00000000
,
00010000
00000000
00001000
01000000
00000000
01000000
00010000
00000000
,
10000000
00000000
01000000
00100000
00000000
00100000
00010000
00000000
,
01000000
00000000
00010000
10000000
00000000
10000000
01000000
00000000
,
00100000
00000000
00001000
00010000
00000000
00010000
00000100
00000000
,
00001000
00000000
00000010
00000100
00000000
00000100
00000001
00000000
,
00000010
00000000
00000100
00001000
00000000
00001000
00000001
00000000
,
00000100
00000000
00001000
00010000
00000000
00010000
00000100
00000000
,
00010000
00000000
00001000
01000000
00000000
01000000
00010000
00000000
,
00100000
00000000
00010000
10000000
00000000
10000000
00100000
00000000
,
01000000
00000000
00001000
00010000
00000000
00010000
00000010
00000000
,
00001000
00000000
00000100
00000010
00000000
00000010
00000001
00000000
,
00001000
00000000
00000010
00000100
00000000
00000100
00000001
00000000
,
00001000
00000000
00000100
00010000
00000000
00010000
00001000
00000000
,
00011000
00000000
01001000
00000000
,
00010010
00000000
00000000
00001100
,
00020200
00000000
00000000
00000000
,
00000000
00000000
00000000
00000000
,
00000000
00000000
00000000
00000000
,
00000000
00000000
00000000
00030300
,
00001100
00000000
00000000
00000000
,
00001001
00000000
00011000
00000000
,
10010000
00000000
00000000
00000000
,
20020000
00000000
00000000
30030000
,
00100000
10000000
00100000
01000000
00010000
10000000
01000000
00000000
,
10000000
00010000
01000000
00010000
00100000
00001000
00010000
00000000
,
00000100
00001000
00000010
00001000
00000010
00000100
00000001
00000000
,
00000010
00000100
00001000
00000010
00000100
00000001
00000100
00000000
,
00000010
00001000
00000010
00010000
00001000
01000000
00010000
00000000
,
00100000
00010000
10000000
00100000
10000000
00100000
01000000
00000000
,
00100000
00010000
10000000
01000000
00100000
00010000
01000000
00000000
,
00001000
00010000
00000010
00001000
00000010
00000100
00000001
00000000
,
00001000
00000100
00001000
00000001
00000100
00000010
00001000
00000000
,
00000100
00010000
00001000
01000000
00010000
00100000
00010000
00000000
,
10000000
00100000
01000000
00010000
00100000
00001000
00010000
00000000
,
00000100
00010000
00001000
00010000
00000010
00001000
00000010
00000000
,
00000100
00000001
00000010
00000100
00001000
00000001
00000100
00000000
,
00000010
00001000
00000010
00010000
00001000
00100000
00010000
00000000
,
10000000
00100000
01000000
00100000
10000000
00010000
00100000
00000000
,
01000000
00100000
00010000
01000000
00001000
00010000
00011000
00000000
;

//---------------dance-double - M.Emirzian----------------
#NOTES:
     dance-double:
     M.Emirzian:
     Hard:
     8:
     0.502,0.000,0.165,0.037,0.331,361.000,18.000,4.000,14.000,0.000,0.000:
00000000
00000000
00000000
00000000
,
00000000
00000000
00000000
00000000
,
00000000
00000000
00000000
00000000
,
00000000
00000000
00000000
00000000
,
00000100
00000000
00000000
00001000
00000000
00000000
00010000
00000000
00000000
01000000
00000000
00000000
00010000
00000000
00001000
00000000
,
00000010
00000000
00000000
00000100
00000000
00000000
00010000
00000000
00000000
00001000
00000000
00000000
00000100
00000000
00000001
00000000
,
00000010
00000000
00000000
00001000
00000000
00000000
00000010
00000000
00000000
00000001
00000000
00000000
00000100
00000000
00000010
00000000
,
00001000
00000000
00000000
00000100
00000000
00000000
00010000
00000000
00000000
00001000
00000000
00000000
01000000
00000000
00010000
00000000
,
00100000
01000000
10000000
01000000
00010000
00001000
00010000
00100000
,
10000000
00100000
00010000
00001000
01000000
00010000
01000000
00001000
,
00010000
00001000
00000010
00000001
00000010
00001000
00010000
00001000
,
00000100
00000001
00001000
00000100
00000010
00000001
00000100
00001000
,
00010000
00001000
00000100
00001000
00010000
00100000
01000000
00001000
,
00010000
01000000
10000000
01000000
00010000
00001000
00010000
00100000
,
10000000
00100000
00010000
00001000
10000000
00100000
00010000
00001000
,
00000010
00000001
00000100
00000010
00000100
00000001
00000010
00001000
,
00000010
00000000
00000001
00000100
00000000
00000100
00000010
00000000
00000010
00001000
00000000
00001000
00000100
00000000
00001000
00000000
,
00000010
00000000
00010000
00001000
00000000
00001000
01000000
00000000
01000000
00010000
00000000
00010000
10000000
00000000
01000000
00000000
,
00100000
00000000
00010000
01000000
00000000
01000000
00001000
00000000
00001000
00010000
00000000
00010000
00000100
00000000
00001000
00000000
,
00000010
00000000
00000100
00000001
00000000
00000001
00001000
00000000
00001000
00000100
00000000
00000100
00000010
00000000
00000001
00000000
,
00000100
00000000
00000000
00000010
00000000
00000000
00010000
00000000
00000000
00001000
00000000
00000000
00000100
00000000
00001000
00000000
,
00010000
00000000
00000000
00100000
00000000
00000000
00010000
00000000
00000000
00001000
00000000
00000000
00000010
00000000
00001000
00000000
,
00010000
00000000
00000000
00100000
00000000
00000000
10000000
00000000
00000000
01000000
00000000
00000000
00100000
00000000
00010000
00000000
,
01000000
00000000
00000000
00100000
00000000
00000000
10000000
00000000
00000000
01000000
00000000
00000000
00100000
00000000
00010000
00000000
,
01000000
00000000
00001000
00010000
00000000
00010000
00000100
00000000
00000100
00001000
00000000
00001000
00000001
00000000
00000010
00000000
,
00000100
00000000
00001000
00000001
00000000
00000001
00000100
00000000
00000100
00000010
00000000
00000010
00001000
00000000
00000100
00000000
,
00010000
00000000
00001000
00000100
00000000
00000100
00001000
00000000
00001000
00010000
00000000
00010000
00100000
00000000
10000000
00000000
,
01000000
00000000
00100000
00010000
00000000
00010000
01000000
00000000
01000000
00001000
00000000
00001000
00010000
00000000
00000100
00000000
,
00001000
00000000
00000010
00000100
00000000
00000100
00000001
00000000
00000001
00000010
00000000
00000010
00000100
00000000
00001000
00000000
,
00000001
00000000
00000100
00001000
00000000
00001000
00010000
00000000
00010000
01000000
00000000
01000000
10000000
00000000
00010000
00000000
,
10010000
01100000
00011000
00000110
,
00002002
00000000
00003003
00001100
,
00020200
00000000
00000000
00000000
,
00000000
00000000
00000000
00000000
,
00000000
00000000
00000000
00000000
,
00000000
00000000
00000000
00030300
,
00011000
000MM000
00000000
00000000
,
00000110
00000MM0
01100000
0MM00000
,
00000110
00000MM0
00000000
00000000
,
10010000
00000000
00000000
00000000
M00M0000
00000000
00000000
00000000
00010100
00000000
00000000
00000000
00001000
00000000
00000000
00000100
,
00001000
00000000
00000010
00000100
00000010
00000000
00001000
00000000
00000100
00000000
00000010
00000000
00000001
00000000
00000100
00000000
,
00000010
00000000
00001000
00000100
00001000
00000000
00000010
00000000
00010000
00000000
00001000
00000000
00000100
00000000
00001000
00000000
,
00010000
00000000
00001000
01000000
00001000
00000000
00010000
00000000
00100000
00000000
10000000
00000000
00100000
00000000
00010000
00000000
,
00001000
00000000
01000000
00010000
01000000
00000000
00001000
00000000
00010000
00000000
01000000
00000000
10000000
00000000
01000000
00000000
,
00010000
00000000
00001000
00010000
00001000
00000000
00000010
00000000
00000001
00000000
00000010
00000000
00000100
00000000
00001000
00000000
,
00000010
00000000
00000100
00000001
00000100
00000000
00000010
00000000
00001000
00000000
00000100
00000000
00010000
00000000
00001000
00000000
,
01000000
00000000
00010000
00100000
00010000
00000000
10000000
00000000
01000000
00000000
00010000
00000000
00001000
00000000
00010000
00000000
,
00100000
00000000
01000000
00010000
01000000
00000000
00100000
00000000
10000000
00000000
01000000
00000000
00010000
00000000
00001000
00000000
,
00000010
00000000
00000001
00001000
00000001
00000000
00000100
00000000
00000010
00000000
00000100
00000000
00000001
00000000
00000010
00000000
,
00001000
00000000
00010000
00001000
00010000
00000000
01000000
00000000
10000000
00000000
01000000
00000000
00010000
00000000
00001000
00000000
,
00010000
00000000
00100000
01000000
00100000
00000000
10000000
00000000
00010000
00000000
00100000
00000000
01000000
00000000
10000000
00000000
,
00010000
00000000
01000000
00001000
01000000
00000000
00010000
00000000
00100000
00000000
00001000
00000000
00010000
00000000
00000010
00000000
,
00001000
00000000
00000100
00000010
00000100
00000000
00001000
00000000
00000001
00000000
00000100
00000000
00001000
00000000
00010000
00000000
,
00100000
00000000
00010000
00100000
00010000
00000000
00001000
00000000
00000010
00000000
00001000
00000000
00010000
00000000
01000000
00000000
,
00110000
00MM0000
00000110
00000MM0
,
00001001
00000000
00000000
00000101
00000000
00000000
00000010
00000000
00010000
00000000
00001000
00000000
00011000
00000000
00000000
00000000
;

//---------------dance-double - M.Emirzian----------------
#NOTES:
     dance-double:
     M.Emirzian:
     Challenge:
     9:
     0.577,0.000,0.248,0.037,0.450,409.000,27.000,4.000,8.000,1.000,0.000:
00000000
00000000
00000000
00000000
,
00000000
00000000
00000000
00000000
,
00000000
00000000
00000000
00000000
,
00000000
00000000
00000000
00000000
,
00100000
00000000
00000000
00010000
00000000
00000000
01000000
00000000
00000000
00011000
00000000
00000000
00000010
00000000
00001000
00000000
,
00010000
00000000
00000000
00001000
00000000
00000000
00000100
00000000
00000000
00001001
00000000
00000000
00000010
00000000
00000001
00000000
,
00000100
00000000
00000000
00001000
00000000
00000000
00010000
00000000
00000000
00101000
00000000
00000000
01000000
00000000
00100000
00000000
,
10000000
00000000
00000000
01000000
00000000
00000000
00100000
00000000
00000000
00011000
00000000
00000000
00000010
00000000
00000001
00000000
,
00000100
00001000
00010000
00000100
00000010
00001000
01000000
10000000
,
00010000
00100000
10000000
00100000
00010000
00001000
01000000
10000000
,
01000000
00001000
00100000
01000000
00010000
00000100
00000001
00000100
,
00010000
00000010
00000001
00000010
00010000
00001000
01000000
10000000
,
01000000
00001000
00100000
10000000
00100000
00001000
00010000
00000100
,
00001000
00000001
00000100
00001000
00000100
00000001
00000010
00001000
,
00010000
00001000
00000100
00001000
00010000
00100000
00010000
00001000
,
00010000
01000000
10000000
00100000
10000000
00010000
01000000
00100000
,
01000000
00000000
00010000
10000000
01000000
10000000
00010000
00000000
00100000
00010000
00100000
00010000
00100000
00000000
00001000
00010000
,
00001000
00000000
00010000
00000100
00010000
00000100
00010000
00000000
00000010
00001000
00000010
00000100
00000001
00000000
00000010
00000100
,
00001000
00000000
00000001
00001000
00000100
00001000
00000001
00000000
00000100
00000010
00000000
00000010
00010000
00000000
00001000
01000000
,
00010000
00000000
00100000
00010000
10000000
00010000
01000000
00000000
00100000
01000000
00010000
10000000
01000000
00000000
00100000
00010000
,
01000000
00000000
00001000
00010000
00000000
00010000
00000100
00000000
00001000
00000001
00000000
00000001
00000010
00000000
00000100
00001000
,
00000010
00000000
00010000
00001000
00000000
00001000
00000010
00000000
00000010
00001000
00000000
00001000
00010000
00000000
00010000
00100000
,
10000000
00000000
10000000
01000000
00000000
01000000
00010000
00000000
00010000
00001000
00000000
00001000
00000100
00000000
00000100
00000001
,
00001000
00000000
00000100
00000010
00000000
00000010
00000001
00000000
00000100
00000010
00001000
00000100
00001000
00000000
00000001
00000100
,
00001000
00000000
00010000
00001000
00000000
00001000
00000100
00000000
00000100
00001000
00000000
00001000
00010000
00000000
00010000
00100000
,
10000000
00000000
00010000
01000000
00000000
01000000
00100000
00000000
10000000
00010000
10000000
01000000
00100000
00000000
00010000
01000000
,
00001000
00000000
00010000
00001000
00000000
00001000
00000100
00000000
00000100
00000001
00000000
00000001
00001000
00000000
00000100
00000010
,
00000001
00000000
00000010
00000100
00001000
00000001
00000100
00000000
00000010
00001000
00000010
00000100
00000001
00000000
00001000
00000100
,
00010000
00000000
00001000
00000010
00000000
00000010
00001000
00000000
00001000
00010000
00000000
00010000
00100000
00000000
00100000
10000000
,
00010000
00000000
10000000
01000000
00000000
01000000
00100000
00000000
00100000
00001000
00000000
00000000
00011000
00000000
00010000
00000100
,
00002200
00000000
00000000
00000000
00000000
00000000
00000000
00000000
00010010
00003300
00000000
00000000
00000000
00000000
00000000
00000000
,
00001001
00000000
00000000
00001100
00000000
00000000
00010100
00000000
00000000
01000100
00000000
00000000
00010000
00000000
00001000
00000000
,
00202000
00000000
00000000
00000000
,
00000000
00000000
00000000
00000000
,
00000000
00000000
00000000
00000000
,
00000000
00000000
00000000
00303000
,
11000000
00000000
00000000
00000000
,
10010000
M00M0000
00000110
00000MM0
,
00110000
00000000
00000000
10000000
00000000
00000000
01000000
00000000
00000000
00110000
00000000
00000000
01000000
00000000
00001000
00000000
,
00010000
00000000
00000000
00010100
00000000
00000000
00001000
00000000
00010010
00000000
00000000
00000000
00001100
00000000
00000000
00000000
,
00100000
00000000
01000000
00010000
10000000
00000000
00010000
00000000
01000000
00000000
00100000
00000000
10000000
00000000
01000000
00000000
,
00010000
00000000
01000000
10000000
01000000
00000000
00100000
00000000
00010000
00000000
01000000
00000000
00100000
00000000
00010000
00000000
,
00001000
00000000
00000010
00001000
00000010
00000000
00001000
00000000
00010000
00000000
00100000
00000000
00010000
00000000
00001000
00000000
,
00000010
00000000
00000100
00001000
00000100
00000000
00010000
00000000
00001000
00000000
00000100
00000000
00000001
00000000
00000010
00000000
,
00001000
00000000
00010000
00001000
00010000
00000000
01000000
00000000
10000000
00000000
01000000
00000000
00010000
00000000
00001000
00000000
,
00010000
00000000
00100000
01000000
00100000
00000000
10000000
00000000
01000000
00000000
00010000
00000000
00001000
00000000
00100000
00000000
,
00010000
00000000
01000000
00100000
01000000
00000000
00010000
00000000
00100000
00000000
01000000
00000000
00010000
00000000
00001000
00000000
,
00000100
00000000
00001000
00000100
00001000
00000000
00010000
00000000
01000000
00000000
00010000
00000000
00001000
00000000
00000010
00000000
,
00000100
00000000
00001000
00000100
00010000
00000000
01000000
00000000
10000000
00000000
01000000
00000000
00010000
00000000
00001000
00000000
,
00010000
00000000
00100000
10000000
01000000
00000000
00100000
00000000
00010000
00000000
01000000
00000000
00001000
00000000
00010000
00000000
,
00000100
00000000
00001000
00000010
00000100
00000000
00000001
00000000
00000010
00000000
00001000
00000000
00000010
00000000
00000001
00000000
,
00000100
00000000
00000010
00001000
00000100
00000000
00010000
00000000
00001000
00000000
00000010
00000000
00001000
00000000
00010000
00000000
,
00100000
00000000
10000000
00010000
01000000
00000000
00100000
00000000
10000000
00000000
01000000
00000000
00100000
00000000
00010000
00000000
,
01000000
00000000
00001000
00010000
00001000
00000000
00000100
00000000
00000001
00000000
00000010
00000000
00000100
00000000
00001000
00000000
,
00001001
0000M00M
01010000
0M0M0000
,
10010000
00000000
00000000
00110000
00000000
00000000
01001000
00000000
00000000
00001000
00011000
00000000
00010010
00000000
00000000
00000000
;
