#TITLE:Bloodrush;
#SUBTITLE:;
#ARTIST:Tekno Dred;
#TITLETRANSLIT:;
#SUBTITLETRANSLIT:;
#ARTISTTRANSLIT:;
#GENRE:Trance;
#CREDIT:;
#BANNER:Bloodrush-banner.png;
#BACKGROUND:Bloodrush-bg.png;
#LYRICSPATH:;
#CDTITLE:;
#MUSIC:Bloodrush.ogg;
#OFFSET:0.016;
#SAMPLESTART:54.680;
#SAMPLELENGTH:11.920;
#SELECTABLE:YES;
#BPMS:0.000=158.000,77.000=79.000,109.000=158.000;
#STOPS:12.000=1.140
;
#BGCHANGES:0.000=Bloodrush-bg.png=1.000=0=0=1=====,
12.000=In The Groove 2/628_JumpBack.mpg=0.000=0=0=1===FadeRight==,
13.000=In The Groove 2/628_JumpBack.mpg=1.000=0=0=1=====,
29.000=-random-=1.000=0=0=1=====,
45.000=-random-=1.000=0=0=1=====,
61.000=In The Groove 2/963_JumpBack.mpg=1.000=0=0=1=====,
73.000=Bloodrush-bg.png=1.000=0=0=1=====,
77.000=In The Groove 2/865_JumpBack.mpg=1.000=1=0=1===CrossFade==,
93.000=In The Groove 2/632_JumpBack.mpg=1.000=1=0=1===CrossFade==,
107.000=Bloodrush-bg.png=1.000=0=0=1=====,
109.000=In The Groove 2/953_JumpBack.mpg=1.000=0=0=1=====,
125.000=-random-=1.000=0=0=1=====,
141.000=-random-=1.000=0=0=1=====,
157.000=-random-=1.000=0=0=1=====,
169.000=Bloodrush-bg.png=1.000=0=0=1=====,
173.000=-random-=1.000=0=0=1=====,
189.000=-random-=1.000=0=0=1=====,
205.000=-random-=1.000=0=0=1=====,
221.000=In The Groove 2/953_JumpBack.mpg=1.000=0=0=1=====,
237.000=In The Groove 2/953_JumpBack.mpg=1.000=0=0=1=SongBgWithMovieViz====,
238.500=Bloodrush-bg.png=1.000=0=0=1=====,
99999=-nosongbg-=1.000=0=0=0 // don't automatically add -songbackground-
;
#BGCHANGES2:45.000=white flash=1.000=0=0=1=====,
61.000=white flash=1.000=0=0=1=====,
73.000=white flash=1.000=0=0=1=====,
107.000=white flash=1.000=0=0=1=====,
109.000=white flash=1.000=0=0=1=====,
169.000=white flash=1.000=0=0=1=====,
173.000=white flash=1.000=0=0=1=====,
237.000=white flash=1.000=0=0=1=====,
238.500=white flash=1.000=0=0=1=====,
;
#KEYSOUNDS:;
// cache tags:
#FIRSTBEAT:12.000;
#LASTBEAT:238.500;
#SONGFILENAME:/Songs/In The Groove 2/Bloodrush/Bloodrush.sm;
#HASMUSIC:1;
#HASBANNER:1;
#MUSICLENGTH:106.329;
// end cache tags

//---------------dance-single - C. Foy----------------
#NOTES:
     dance-single:
     C. Foy:
     Easy:
     4:
     0.232,0.000,0.038,0.075,0.000,161.000,4.000,8.000,5.000,0.000,0.000:
0000
0000
0000
0000
,
0000
0000
0000
0000
,
0000
0000
0000
0000
,
2002
3003
0000
1000
,
0000
0100
0000
0001
,
0000
0100
0000
1000
,
0000
0010
0000
0001
,
0000
0010
0000
1000
,
0000
0100
0000
0001
,
0000
0100
0000
1000
,
0000
0010
0000
0001
,
0000
0020
0000
0100
,
0000
1000
0000
0100
,
0000
0100
0000
0001
,
0000
0001
0000
0130
,
0000
0001
1000
0001
,
1000
0010
0100
0010
,
0100
0010
1000
0010
,
1000
2020
0000
0000
,
3030
0000
2002
0000
0000
3003
0001
0100
,
1000
0000
1000
0100
0001
0000
0001
0010
,
1000
0000
1000
0010
0001
0000
0001
0100
,
1000
0000
1000
0100
0001
0000
0001
1000
,
0001
1000
0100
0010
,
1000
0010
0001
0010
,
0100
1000
0100
0001
,
0100
0010
0001
1000
,
0000
1000
0100
1000
,
0100
0010
0100
0010
,
0100
0001
0100
0001
,
0100
1000
0100
1000
,
0100
1000
0010
1000
,
0010
0001
0010
0001
,
0010
1000
0100
1000
,
0100
0001
0100
0001
,
0100
1000
0100
1000
,
0000
1000
0100
0001
,
0000
0001
0100
1000
,
0000
1000
0010
0001
,
0000
0001
0010
1000
,
0000
1000
0100
0001
,
0000
0001
0100
1000
,
0000
0000
0020
0000
0000
MM0M
0000
0000
,
0030
1000
0000
0100
,
0000
0001
0000
0100
,
0000
1000
0000
0010
,
0000
0100
0000
1000
,
0000
0100
0000
1000
,
0000
0100
0000
0001
,
0000
0010
0000
1000
,
0000
0010
0000
0100
,
0000
0001
0000
0100
,
0000
1000
0000
0100
,
0000
0001
0000
0100
,
0000
0010
0000
0001
,
0000
0010
0000
1000
,
0000
0010
0000
0100
,
0000
0001
0000
0100
,
0000
1000
0000
0100
,
0000
0000
1001
0000
0000
M00M
0000
0000
;

//---------------dance-single - C. Foy----------------
#NOTES:
     dance-single:
     C. Foy:
     Medium:
     8:
     0.494,0.000,0.047,0.263,0.066,335.000,5.000,28.000,6.000,0.000,0.000:
0000
0000
0000
0000
,
0000
0000
0000
0000
,
0000
0000
0000
0000
,
2002
3003
1000
0000
0100
0000
0001
0000
,
0100
1000
0100
0001
,
0100
1000
0010
0001
,
0010
1000
0010
0001
,
0010
1000
0100
0001
,
0100
1000
0010
0001
,
0010
1000
0100
0001
,
0100
1000
0010
0001
,
0010
0200
0000
0010
,
0000
0001
0000
0010
,
0000
1000
0000
0010
,
0000
1000
0000
0010
,
0300
0000
0010
0100
0010
0100
0001
0100
,
0001
0100
0010
0100
0010
0100
1000
0100
,
1000
0100
0010
0100
0010
0100
0001
0100
,
0001
0100
0001
0000
0000
0000
0000
0000
,
0000
0000
0000
0000
2002
0000
0000
0000
0000
0000
3003
0000
0001
0100
1000
0000
,
1000
0100
0001
0000
0001
0010
1000
0000
1000
0010
0001
0000
0001
0010
1000
0000
,
1000
0010
0001
0000
0001
0100
1000
0000
1000
0100
0001
0000
0001
0100
1000
0000
,
1000
0100
0001
0000
0001
0010
1000
0000
1000
0010
0001
0000
0001
0100
1000
0000
,
1000
0100
0001
0000
2000
0000
3100
0000
0001
0000
0100
0000
1000
0000
0100
0000
,
0001
0100
2000
3100
0010
1000
0010
0100
,
1000
0010
0002
0013
1000
0010
0001
0010
,
0100
0010
0002
0013
1000
0100
2200
0000
,
0000
3300
1000
0100
0010
0000
0100
0010
,
1000
0000
0010
0100
1000
0000
0010
0100
,
1000
0000
0100
0010
1000
0000
0100
0010
,
1000
0000
0010
1000
0010
0000
1000
0010
,
0100
0000
0010
0100
1000
0000
0010
1000
,
0100
0000
1000
0010
0100
0000
0010
0100
,
1000
0000
0100
0010
1000
0000
0100
0010
,
1000
0000
0010
0100
1000
0000
0010
0100
,
1000
0000
0100
0010
1000
0000
0100
1000
,
0100
0000
0200
0000
1300
0000
0010
0100
,
1000
0000
0200
0000
0310
0000
1000
0100
,
0001
0000
0200
0000
0310
0000
0001
0100
,
1000
0000
0200
0000
0310
0000
0100
0001
,
0010
0000
0200
0000
0301
0000
0001
0100
,
1000
0000
0020
0000
0130
0000
1000
0100
,
0001
2002
3003
M00M
,
M00M
0000
0001
0010
0100
0000
0010
0001
,
0100
0000
0010
0001
0010
0000
0100
0001
,
0010
0000
0100
0001
0200
0000
0310
0001
,
0100
0000
0010
0001
0020
0000
0130
0001
,
0010
0000
0100
0010
0002
0000
0013
0100
,
0002
0000
0103
0010
0002
0000
0103
0010
,
0002
0000
0013
0100
0002
0000
0013
0100
,
0002
0000
0103
0010
0002
0000
0103
0010
,
1000
0000
1000
0100
1000
0100
0010
0100
,
0010
0100
0001
0100
0001
0100
0010
0100
,
0010
0100
1000
0001
1000
0001
0100
0010
,
0100
0010
0100
1000
0100
1000
0100
0001
,
0100
0001
0010
0001
0010
0001
0010
1000
,
0010
1000
0010
0001
0010
0001
0100
1000
,
0100
1000
0100
0001
0100
0001
0010
1000
,
0010
1000
0010
0001
0010
0001
1000
0001
,
1000
0000
1001
0000
0000
M00M
0000
0000
;

//---------------dance-single - C. Foy----------------
#NOTES:
     dance-single:
     C. Foy:
     Hard:
     9:
     0.626,0.000,0.075,0.395,0.381,416.000,8.000,42.000,8.000,0.000,0.000:
0000
0000
0000
0000
,
0000
0000
0000
0000
,
0000
0000
0000
0000
,
2002
3003
0001
0000
1000
0000
0000
0000
0001
0000
0100
0000
2000
0000
0000
0000
,
3100
0000
0001
0000
0010
1000
0020
0000
,
0130
0000
0010
0000
0001
0100
2000
0000
,
3100
0000
0010
0000
1000
0010
0002
0000
,
0013
0000
1000
0000
0100
0001
0200
0000
,
0301
0000
0100
0000
1000
0010
0002
0000
,
0013
0000
0100
0000
0010
0001
0020
0000
,
1030
0000
0100
0000
0001
0100
2000
0000
,
3010
0200
0010
0010
,
0001
0001
0010
0010
,
1000
1000
0010
1000
,
0010
0001
0010
1000
,
0310
0000
1000
0100
0001
0100
1000
0100
,
0001
0100
1000
0010
0001
0010
1000
0010
,
0001
0010
1000
0100
0001
0100
1000
0001
,
0100
0001
0100
0001
0100
0000
0000
0000
0000
0000
0000
0000
0000
0000
0000
0000
,
0000
0000
0000
0000
2002
0000
0000
0000
0000
0000
3003
0000
1000
0100
0001
0100
,
1000
0100
0001
0100
1000
0010
0001
0010
1000
0010
0001
0010
1000
0100
0001
0100
,
0010
1000
0010
1000
0010
0100
0001
0100
1000
0100
0001
0100
0010
0001
0010
1000
,
0010
0001
0010
1000
0010
0100
1000
0010
0001
0010
0100
0001
0010
1000
0010
0001
,
0100
0000
0010
0000
1000
0000
0000
0000
2100
0000
0000
0000
3002
0000
0000
0003
0001
0000
0100
0000
1000
0000
0100
0000
0001
0000
0010
0000
0100
0000
0010
0000
,
1000
0010
0001
1000
2100
0000
3002
0000
0103
1000
0100
0001
0010
0100
0001
0100
,
1000
0000
0010
0000
2000
0000
0000
3000
1002
0000
0000
0000
0023
0000
0000
0000
0031
0000
0010
0000
0100
0000
1000
0000
0010
0000
0100
0000
1000
0000
0100
0000
,
0001
0000
0010
0000
0200
0000
0000
0300
1002
0000
0000
0000
0023
0000
0000
0000
0031
0000
0010
0000
0100
0000
1000
0000
2200
0000
0000
0000
0000
0000
0000
0000
,
0000
0000
3300
0000
2000
0000
0000
3100
0010
0000
0000
0000
0200
0000
0000
0301
,
0100
0000
0000
0000
0020
0000
0000
0031
0100
0000
0000
0000
0020
0000
0000
0130
,
1000
0000
0000
0000
0200
0000
0000
0310
1000
0000
0000
0000
0200
0000
0000
0310
,
0100
0000
0000
0000
0002
0000
0000
0103
0010
0000
0000
0000
0002
0000
0000
0103
,
1000
0000
0000
0000
0200
0000
0000
0310
0001
0000
0000
0000
0020
0000
0000
0130
,
1000
0000
0000
0000
0200
0000
0000
0301
0010
0000
0000
0000
0002
0000
0000
0103
,
1000
0000
0000
0000
0200
0000
0000
0301
0010
0000
0000
0000
2000
0000
0000
3010
,
0001
0000
0000
0000
0200
0000
0000
0310
0001
0000
0000
0000
0020
0000
0000
1030
,
0100
0000
1000
0100
0001
0100
1000
0100
,
0001
0100
0010
1000
0010
0001
0010
1000
,
0010
0100
0001
0100
0010
0001
0100
0010
,
1000
0010
0100
1000
0100
0010
1000
0100
,
0001
0100
0010
0001
0100
1000
0100
0001
,
0010
1000
0010
0001
0100
0010
1000
0100
,
0001
0100
0010
0001
1000
0010
1000
0100
,
1000
0100
1000
0100
2000
0000
0000
0000
3000
0000
0000
0000
MM00
0000
0000
0000
,
MMMM
0000
0000
0000
0001
0000
0000
0000
0100
0000
0000
0000
1000
0100
0010
0000
,
0001
0000
0000
0000
0010
0000
0000
0000
1000
0000
0000
0000
0100
0010
0100
0000
,
0001
0000
0000
0000
0100
0000
0000
0000
1000
0000
0000
0000
0010
0100
0010
0000
,
0001
0000
0000
0000
0010
0000
0000
0000
0100
0000
0000
0000
0010
1000
0100
0000
,
0001
0000
0000
0000
0100
0000
0000
0000
1000
0000
0000
0000
0010
0100
0010
0000
,
0001
0000
0000
0000
0010
0000
0000
0000
0100
0000
0000
0000
0010
0100
1000
0000
,
0100
0000
0000
0000
0001
0000
0000
0000
0010
0000
0000
0000
0100
0010
0001
0000
,
0010
0000
0000
0000
1000
0000
0000
0000
0010
0000
0000
0000
0001
0100
0010
0000
,
0001
0000
0000
0000
0010
0000
0100
0000
0010
0000
1000
0000
0100
0010
0100
0000
,
0001
0000
0100
0000
0010
0000
0100
0000
1000
0000
0010
0000
0100
0010
0100
0000
,
1000
0000
0100
0000
0010
0000
1000
0000
0001
0000
0010
0000
0100
0010
0100
0000
,
0001
0000
0100
0000
0010
0000
0100
0000
1000
0000
0010
0000
0100
0010
0100
0000
,
1000
0000
0100
0000
0010
0000
0001
0000
0010
0000
1000
0000
0010
1000
0010
0000
,
1000
0000
0100
0000
0001
0000
0100
0000
0010
0000
0100
0000
1000
0001
1000
0000
,
0010
0000
0100
0000
1000
0000
0100
0000
0001
0000
0010
0000
0100
0010
0100
0000
,
0010
0000
1000
0000
0010
0000
0001
0000
0100
0000
0010
0000
1000
0001
1000
0000
,
0100
0010
1001
0000
0000
M00M
0000
0000
;

//---------------dance-single - C. Foy----------------
#NOTES:
     dance-single:
     C. Foy:
     Challenge:
     12:
     1.000,0.000,0.310,0.743,1.000,724.000,33.000,79.000,9.000,4.000,0.000:
0000
0000
0000
0000
,
0000
0000
0000
0000
,
0000
0000
0000
0000
,
1002
0003
M001
0000
1000
0000
0001
0100
0010
1000
0100
0010
0001
0100
0010
0000
,
1000
0001
0100
0001
0010
0000
0001
0100
0001
0010
0100
1000
0010
0100
0001
0000
,
1000
0010
1000
0100
0010
0000
0001
0010
0001
0100
0010
1000
0100
0010
0001
0000
,
1000
0100
0010
0100
0010
0000
0100
1000
0100
0010
0100
0010
0100
0001
0100
0000
,
0010
0100
1000
0100
1000
0000
0001
1000
0010
1000
0010
0100
0010
0001
0010
0000
,
0100
0010
1000
0100
0010
0000
0100
0001
0100
0010
0100
1000
0100
1000
0010
0000
,
0100
0010
0001
0010
0100
0000
0010
1000
0100
0010
0100
0001
0100
0010
0100
0000
,
1000
0010
0100
0010
0001
0000
0010
1000
0100
0010
0100
0001
0100
0010
0100
0000
,
1000
0010
0100
0010
0200
0000
0000
0000
0010
0000
0000
0000
1000
0000
0000
0000
,
0001
0001
0001
0000
0010
0000
1000
0000
,
0010
0010
0010
0000
0001
0000
1000
0000
,
0010
0010
0002
0000
M000
0000
1000
0300
,
0103
0000
0001
0000
1000
0100
1000
0100
0010
0100
0010
0100
0001
0100
0001
0100
,
0010
0100
0010
0100
1000
0100
1000
0100
1000
0001
1000
0001
0100
0001
0100
0001
,
0100
0010
0100
0010
0100
1000
0100
1000
0100
0010
0100
0010
0100
0001
0100
0001
,
0010
0100
1000
0001
0202
0000
0000
0000
0000
0000
0000
0000
0303
0000
0000
0000
,
MMMM
0000
2200
000M
0000
0010
0000
0001
,
0300
0000
0000
0000
3100
0000
0000
0000
2000
0000
0020
3000
0002
0030
0020
0003
0002
0030
2000
0003
0002
3000
0020
0003
2000
0030
0200
3000
0002
0300
2000
0003
,
0002
3000
2000
0003
0020
3000
0200
0030
2000
0300
0020
3000
0002
0030
2000
0003
0002
3000
0020
0003
2000
0030
0200
3000
0002
0300
2000
0003
0002
3000
2000
0003
,
0020
3000
0002
0030
0200
0003
2000
0300
0002
3000
0020
0003
2000
0030
0020
3000
0002
0030
2000
0003
0002
3000
2000
0003
0200
3000
0002
0300
0020
0003
2000
0030
,
0002
3000
2000
0003
0010
3000
0000
0000
0022
0000
0003
0031
1000
0001
1000
0001
0100
0001
0100
0010
0100
0010
0100
1000
0100
1000
0100
0010
0100
0010
0100
0001
,
0010
0001
0010
0100
0010
0100
0010
0100
0001
0100
0001
0100
0010
0100
0010
0100
1000
0100
1000
0001
1000
0001
1000
0001
0100
0001
0100
0010
0100
0010
0100
1000
,
0100
1000
0100
0010
0100
0001
0100
0010
0100
1000
0100
0010
0100
0001
0100
0001
0010
0001
0010
0100
0010
0100
0001
0100
0010
0100
0001
0100
0010
0100
1000
0100
,
1000
0100
0010
0100
0001
0100
0010
0100
1000
0001
0100
0010
0100
1000
0100
0010
1000
0001
0010
0100
0001
0100
0010
0000
0022
0000
0000
0000
0000
0000
0000
0000
,
0000
0033
0000
0001
1000
0000
1100
0000
2010
0000
0000
0000
3001
0000
0000
0000
2001
0000
0000
0000
0010
0000
0000
0000
0001
0000
0000
0000
3010
0000
0000
0000
,
0210
0010
1000
0310
0210
1000
0010
0301
,
0021
0001
0100
0031
0021
0100
1000
0130
,
1200
0010
0001
0310
0120
0001
0100
0031
,
0201
0010
1000
0310
0120
0001
0100
1030
,
1200
0010
0001
0310
0210
1000
0010
0301
,
0201
0010
1000
0310
0120
1000
0100
0130
,
0120
0001
0100
0031
1200
0010
0001
0310
,
2001
0000
0010
0000
0001
0000
3100
0000
0110
0000
0100
0000
0001
0100
1000
0000
,
1200
0000
0010
0000
0001
0000
0310
0000
1010
0000
0100
0000
1000
0100
0001
0000
,
0201
0000
0010
0000
1000
0000
1300
0000
1100
0000
0010
0000
1000
0010
0001
0000
,
0021
0000
0001
0000
0100
0000
1030
0000
1001
0000
0100
0000
1000
0001
0100
0000
,
0101
0000
0001
0000
1000
0100
1000
0100
0010
0100
0001
0100
0010
0100
0001
0100
,
0010
0100
1000
0001
1000
0010
0100
1000
0100
0010
0100
1000
0100
0010
0100
0001
,
0010
0001
0010
0100
0010
1000
0010
0100
0010
1000
0010
0100
0010
0001
0010
0100
,
1000
0010
0100
0002
0200
0000
0000
0000
0000
0000
0000
0000
1000
0000
0000
0303
,
0001
0000
1000
0000
0001
0000
1000
0010
0100
0010
0001
0010
0100
0010
1000
0000
,
0001
0010
0100
0010
1000
0000
0010
0100
1000
0001
0100
0010
0001
0010
0100
0000
,
0010
1000
0001
0010
0100
0000
0010
0001
1000
0010
0100
0010
0001
0010
0100
0000
,
0010
0100
1000
0100
0010
0000
1000
0010
1000
0001
1000
0100
0010
0100
0010
0000
,
0100
0001
0100
0010
0100
0000
0010
0001
1000
0010
0100
0010
0100
1000
0100
0000
,
0010
1000
0001
0010
0100
0000
0010
0001
1000
0001
0100
0010
0100
1000
0100
0000
,
0010
0100
0010
1000
0001
0000
0010
0100
1000
0100
0010
0001
0010
0100
1000
0000
,
0100
1000
0100
0010
0100
0000
0010
0001
0010
0100
0010
1000
0010
0100
0010
0000
,
0001
0100
0010
0100
1000
0000
0100
0010
1000
0001
0010
0100
1000
0100
0010
0000
,
0100
0010
0100
1000
0001
0000
0100
0010
1000
0100
0010
0001
1000
0010
0100
0000
,
0010
1000
0010
0100
1000
0000
0100
0010
1000
0100
0010
0100
0010
1000
0010
0000
,
0100
0010
0001
1000
0010
0000
0100
0010
0100
1000
0100
0010
0100
0001
0100
0000
,
0010
0100
0010
1000
0010
0000
0100
0010
1000
0010
0100
0010
0001
0010
0100
0000
,
0001
0100
0010
0100
1000
0000
0100
0010
1000
0001
0010
0100
0010
0100
1000
0000
,
0100
0010
0001
1000
0010
0000
1000
0100
1000
0001
0100
0001
0010
0100
0010
0000
,
0001
1000
0001
0010
0100
0000
0010
0100
0010
0001
1000
0010
0100
0010
0100
0000
,
0001
1000
0010
1000
1010
0000
0000
0000
M0M0
0000
0011
0000
0000
0000
0000
0000
;

//---------------dance-double - M.Emirzian----------------
#NOTES:
     dance-double:
     M.Emirzian:
     Easy:
     4:
     0.255,0.000,0.348,0.056,0.000,147.000,37.000,6.000,0.000,0.000,0.000:
00000000
00000000
00000000
00000000
,
00000000
00000000
00000000
00000000
,
00000000
00000000
00000000
00000000
,
00000000
00011000
00010100
00000000
,
00000000
00001001
00001100
00000000
,
00000000
00001100
00010100
00000000
,
00000000
00011000
01001000
00000000
,
00000000
10010000
11000000
00000000
,
00000000
10010000
01010000
00000000
,
00000000
00011000
01001000
00000000
,
00000000
00010100
00011000
00000000
,
00000000
00010000
00000100
00001000
,
00000100
00000001
00000000
00000000
,
00000010
00001000
00000100
00001000
,
00000001
00000100
00000000
00000000
,
00000010
00010000
00001000
00010000
,
00001000
01000000
00000000
00000000
,
00100000
10000000
01000000
00010000
,
00100000
22000000
00000000
00000000
,
33000000
00010000
00000000
00000000
,
00000000
01000000
00000000
00000000
,
00000000
00001000
00000000
00000000
,
00000000
00000000
00000000
00000000
,
00000000
00000010
00000000
00000000
,
00000000
00000100
00000000
00001000
,
00000000
00010000
00000000
00000001
,
00000100
00000000
00000010
00001000
00000100
00010000
00022000
00000000
,
00000000
00033000
00010000
00000000
00011000
00000000
01000000
00000000
,
00000000
00010000
00110000
10000000
,
00000000
00100000
01010000
00001000
,
00000000
00010000
00011000
00000010
,
00000000
00000100
00001001
00000010
,
00000000
00000100
00001100
00000001
,
00000000
00000010
00010100
00001000
,
00000000
00010000
00011000
01000000
,
00000000
00010000
01000000
00010000
,
10000000
01000000
00000000
00000000
,
00000000
00100000
00010000
01000000
,
00001000
00010000
00000000
00000000
,
00000000
00000100
00001000
00000010
,
00001000
00000100
00000000
00000000
,
00000000
00000001
00000100
00000010
,
00001000
00002002
00000000
00000000
,
00003003
00000100
00001000
00011000
,
00000000
00000100
00010000
00011000
,
00000000
01000000
00100000
10010000
,
00000000
00010000
01000000
01001000
,
00000000
00001000
00010000
00011000
,
00000000
00000100
00000010
00001001
,
00000000
00000010
00001000
00001100
,
00000000
00000100
00010000
00011000
,
00000000
00001000
01000000
10000000
,
01000000
00010000
00000000
00000000
,
10000000
01000000
00100000
01000000
,
00100000
00001000
00000000
00000000
,
00010000
00001000
00010000
00000100
,
00010000
00001000
00000000
00000000
,
00010000
00000100
00001000
00000010
,
00000100
00000001
00000000
00000000
,
00000010
00000000
00000110
00000000
00000000
00001001
00000000
00000000
;

//---------------dance-double - M.Emirzian----------------
#NOTES:
     dance-double:
     M.Emirzian:
     Medium:
     6:
     0.419,0.000,0.263,0.075,0.009,276.000,28.000,8.000,0.000,0.000,0.000:
00000000
00000000
00000000
00000000
,
00000000
00000000
00000000
00000000
,
00000000
00000000
00000000
00000000
,
00000000
00010000
10000000
01000000
,
00100000
00000000
00001000
00000000
01000000
00000000
00100000
01000000
,
00010000
10000000
01000000
00010000
,
00001000
00000000
00000010
00000000
00001000
00000000
00010000
00000100
,
00001000
00000100
00000001
00000100
,
00001000
00000000
00000010
00000000
00000001
00000000
00000010
00001000
,
00000010
00000100
00001000
00010000
,
00000100
00000000
00010000
00000000
00001000
00000000
01000000
00010000
,
00100000
00000000
01000000
10000000
00000000
00100000
00000000
01000000
,
00000000
00110000
00000000
00001000
00000000
01000000
00000000
00100000
,
00000000
10010000
00000000
01000000
00000000
00100000
00000000
00001000
,
00000000
00011000
00000000
00000100
00000000
00000010
00000000
00000001
,
00000000
00001100
00000000
00000001
00000000
00000100
00000000
00000010
,
00000000
00001100
00000000
00000001
00000000
00001000
00000000
00000100
,
00000000
00010000
00001000
01000000
00001000
00010000
00001000
00100000
,
00010000
00100000
20020000
00000000
00000000
00000000
00000000
00000000
,
00000000
30030000
11000000
00000000
00000000
00000000
00000000
00000000
,
10000000
01000000
00010000
00000000
00000000
00001000
00000000
00000000
,
00001000
00000010
00000001
00000000
00000010
00000100
00000000
00000000
,
00010000
00001000
01000000
00000000
00000000
00000000
00010000
00000000
,
00000000
00000000
02200000
00000000
00000000
00000000
00000000
03300000
,
10000000
01000000
00100000
00000000
00000000
00010000
00000000
00000000
,
10000000
00100000
01000000
00001000
00010000
01000000
00100000
01000000
,
00010000
00000000
00001000
00000000
00010000
00000100
00001000
00000000
00000010
00000100
00000001
00000000
00002002
00000000
00000000
00000000
,
00000000
00003003
00000100
00000010
00000000
00001000
00000001
00001000
,
00000000
00000100
00001000
00000100
00000000
00010000
00001000
00010000
,
00000000
00000000
00001000
00000000
00010000
00000000
00001000
01000000
,
00010000
00000000
00100000
00000000
01000000
00000000
10000000
00010000
,
01000000
00000000
00100000
10000000
00000000
01000000
00100000
01000000
,
00000000
10000000
00010000
10000000
00000000
01000000
00100000
01000000
,
00000000
00000000
00010000
00000000
00100000
00000000
00001000
00010000
,
00000100
00000000
00010000
00000000
00001000
00000000
00010000
00000010
,
00001000
00000000
00000100
00000010
00000000
00000001
00001000
00000001
,
00000000
00000100
00000010
00000100
00000000
00001000
00010000
00001000
,
00000000
00000000
00000100
00000000
00010000
00000000
00001000
01000000
,
00010000
00000000
01000000
00000000
00010000
00000000
10000000
01000000
,
00100000
00000000
00010000
01000000
00000000
00100000
01000000
00100000
,
00000000
00010000
00001000
00010000
00000000
00000100
00001000
00000100
,
00000000
00000000
00000010
00000000
00000001
00000000
00000100
00000010
,
00001000
00002002
00000000
00000000
,
00003003
00000000
00001000
00000001
00001000
00000000
00001000
00000100
,
00001000
00000000
00010000
00001000
00010000
00000000
00011000
00000000
,
01001000
00000000
00001000
01000000
00001000
00000000
01000000
00010000
,
01000000
00000000
10000000
00010000
10000000
00000000
11000000
00000000
,
10010000
00000000
00100000
01000000
00100000
00000000
00010000
00100000
,
00010000
00000000
00001000
00010000
00001000
00000000
00011000
00000000
,
00010100
00000000
00010000
00000100
00010000
00000000
00010000
00001000
,
00010000
00000000
00010000
00000010
00010000
00000000
00010010
00000000
,
00001010
00000000
00000001
00000100
00000001
00000000
00001000
00000100
,
00001000
00000000
00000010
00000001
00000010
00000000
00001100
00000000
,
00001001
00000000
00000100
00010000
00000100
00000000
00010000
00001000
,
00010000
00000000
01000000
00010000
01000000
00000000
01010000
00000000
,
10010000
00000000
01000000
10000000
01000000
00000000
00010000
10000000
,
00010000
00000000
01000000
00100000
01000000
00000000
00110000
00000000
,
00101000
00000000
00010000
00001000
00010000
00000000
00010000
00000100
,
00010000
00000000
00001000
00000100
00001000
00000000
00001010
00000000
,
00001100
00000000
00001001
00000000
00000000
00011000
00000000
00000000
;

//---------------dance-double - M.Emirzian----------------
#NOTES:
     dance-double:
     M.Emirzian:
     Hard:
     9:
     0.691,0.000,0.310,0.047,0.400,476.000,33.000,5.000,2.000,0.000,0.000:
00000000
00000000
00000000
00000000
,
00000000
00000000
00000000
00000000
,
00000000
00000000
00000000
00000000
,
00000000
00000000
00000000
00000000
10000000
00000000
00010000
10000000
00010000
00000000
10000000
00100000
10000000
00000000
00010000
00000000
,
01000000
00001000
01000000
00000000
00001000
00000000
00010000
00001000
00010000
00000000
00000100
00001000
00000100
00000000
00000010
00000000
,
00000100
00001000
00000100
00000000
00001000
00000000
00000001
00000100
00000001
00000000
00001000
00000010
00001000
00000000
00000100
00000000
,
00010000
00000100
00010000
00000000
00001000
00000000
00010000
00001000
00010000
00000000
00100000
01000000
00100000
00000000
10000000
00000000
,
01000000
00100000
01000000
00000000
10000000
00000000
00010000
01000000
00010000
00000000
10000000
01000000
10000000
00000000
00010000
00000000
,
01000000
00001000
01000000
00000000
00001000
00000000
00010000
00000100
00010000
00000000
00001000
00010000
00001000
00000000
00000100
00000000
,
00000010
00001000
00000010
00000000
00000001
00000000
00000010
00000100
00000010
00000000
00001000
00000100
00001000
00000000
00000001
00000000
,
00000100
00000010
00000100
00000000
00000001
00000000
00001000
00000000
00000100
00000000
00000010
00000000
00000100
00000000
00010000
00000000
,
00001000
00000000
01000000
00011000
00000000
00100000
00000000
10010000
,
00000000
00000000
00100000
00000000
00000000
00000000
01010000
00000000
00000000
00000000
00100000
00000000
01000000
10000000
00010000
00000000
,
00000000
01000000
00001000
00010000
00000000
00100010
00000000
00101000
,
00000000
00000000
00010000
00000000
00000000
00000000
00000100
00000000
00000000
00000000
00001000
00000000
00000010
00000100
00000001
00000000
,
00000000
00000010
00000100
00001000
00000000
00001001
00000000
00001100
,
00000000
00000000
00010100
00000000
00000000
00000000
01000100
00000000
00000000
00000000
00001000
00000000
00010000
00001000
00010000
00000000
,
00000000
00000000
01000000
00000000
00100000
00010000
00100000
00010000
10000000
00100000
01000000
00010000
00100000
01000000
10000000
00100000
,
01000000
00010000
00100000
00000000
20020000
00000000
00000000
00000000
00000000
00000000
00000000
00000000
00000000
00000000
00000000
00000000
,
00000000
00000000
30030000
00000000
10000000
01000000
00000000
00100000
00010000
00100000
00000000
00000100
00001000
00000100
00000000
01000000
,
00010000
01000000
00000000
00000010
00001000
00000010
00000000
00000100
00000001
00000100
00000000
00010000
01000000
00010000
00000000
00000010
,
00001000
00000010
00000000
00000100
00010000
00000000
00001000
00000000
00011000
00000000
01001000
00000000
01000000
00000000
01010000
00000000
,
10000000
11000000
00110000
00001000
00010100
00001010
01001000
00011000
,
00001001
00000000
00000001
00000010
00000100
00001000
00000000
00000001
00000010
00000001
00000000
00010000
00001000
00010000
00000000
01000000
,
10000000
01000000
00000000
00001000
00000010
00001000
00000000
00000100
00010000
00000100
00000000
01000000
00010000
01000000
00000000
00001000
,
00010000
00001000
00000000
00010000
00000100
00000000
00000010
00000000
00001100
00000000
00001001
00000000
00010000
00000000
10010000
00000000
,
01000000
00000000
00110000
00000000
01000000
00100000
10000000
01000000
00100000
00010000
01000000
00001000
00012000
00000000
00000000
00000000
,
00000000
00013000
00001000
00010000
00100000
10000000
00010000
01000000
,
10000000
01000000
00010000
00100000
01000000
00010000
00001000
01000000
,
00100000
00010000
00001000
00010000
00000100
00000010
00001000
00000010
,
00000001
00001000
00000100
00000001
00000100
00001000
00000010
00000100
,
00001000
00000100
00000010
00010000
00000100
00001000
00000010
00010000
,
00000100
00010000
00001000
01000000
00010000
00100000
10000000
00010000
,
01000000
10000000
01000000
00010000
00001000
00000100
00000001
00001000
,
00000010
00000001
00000010
00000100
00000001
00001000
00000100
00010000
,
00100000
10000000
01000000
00100000
00000000
00010000
01000000
10010000
,
00000000
00001000
01000000
00011000
00000000
01000000
00010000
01100000
,
00000000
00001000
00010000
00011000
00000000
00000010
00001000
00000100
,
00000000
00000010
00000001
00000100
00000000
00000010
00010000
00001000
,
00000000
00000010
00000001
00000100
00000010
00001000
00000100
00000001
,
00000100
00010000
00001000
01000000
00100000
00010000
00100000
01000000
,
00001000
00010000
01000000
00100000
00010000
01000000
00100000
10000000
,
00010000
01000000
20020000
00000000
00000000
00000000
00000000
00000000
,
30030000
00000000
M00M0000
00000000
01000000
00000000
00100000
00010000
00100000
00000000
01000000
10000000
01000000
00000000
10000000
00000000
,
00010000
01000000
00010000
00000000
00100000
00000000
00001000
00010000
00001000
00000000
01000000
00000000
00010000
01000000
00010000
00000000
,
00100000
00000000
00001000
00000000
00010000
00000000
00000100
00001000
00000100
00000000
00010000
00001000
00010000
00000000
00000010
00000000
,
00001000
00000100
00001000
00000000
00000001
00000000
00000010
00000100
00000010
00000000
00000001
00000000
00001000
00000010
00001000
00000000
,
00000001
00000000
00000100
00000000
00000010
00000000
00001000
00000001
00001000
00000000
00000100
00010000
00000100
00000000
00010000
00000000
,
00001000
00010000
00001000
00000000
01000000
00000000
00010000
00100000
00010000
00000000
10000000
00000000
01000000
00100000
01000000
00000000
,
10000000
00000000
00010000
00000000
01000000
00000000
00100000
10000000
00100000
00000000
01000000
00000000
00010000
01000000
00010000
00000000
,
00100000
01000000
10000000
00010000
00100000
01000000
10000000
01000000
,
00010000
00000000
00010000
00001000
00000100
00000001
00001000
00000010
,
00000001
00000100
00000001
00000010
00000100
00001000
00000100
00010000
,
00001000
01000000
10000000
00010000
00100000
10000000
01000000
00100000
,
00010000
10000000
00100000
01000000
00010000
01000000
00001000
01000000
,
00010000
00100000
01000000
00010000
00001000
01000000
00100000
00010000
,
00001000
00010000
00000100
00000010
00001000
00010000
00001000
00000010
,
00000100
00000001
00000100
00001000
00000001
00000010
00001000
00000100
,
00001000
00000001
00000010
00001000
00010000
00100000
10000000
00010000
,
01000000
10000000
11000000
00000000
01010000
10010000
00000000
00000000
;

//---------------dance-double - M.Emirzian----------------
#NOTES:
     dance-double:
     M.Emirzian:
     Challenge:
     11:
     0.864,0.000,0.508,0.056,0.861,583.000,54.000,6.000,0.000,3.000,0.000:
00000000
00000000
00000000
00000000
,
00000000
00000000
00000000
00000000
,
00000000
00000000
00000000
00000000
,
00000000
00000000
00000000
00000000
00100000
00000000
10000000
00010000
10000000
00000000
01000000
00100000
01000000
00100000
00010000
00000000
,
10000000
00100000
01000000
00010000
01000000
00000000
00010000
10000000
00010000
00000000
00100000
00001000
00010000
00001000
00010000
00000000
,
00000100
00000010
00000100
00001000
00000001
00000000
00000100
00000010
00001000
00000000
00000100
00000010
00000001
00000100
00000010
00000000
,
00001000
00000100
00001000
00000001
00000100
00000000
00001000
00010000
00001000
00000000
00010000
00001000
01000000
00010000
01000000
00000000
,
00100000
10000000
01000000
10000000
01000000
00000000
00100000
00010000
00100000
00000000
01000000
10000000
00010000
10000000
00010000
00000000
,
01000000
00001000
00010000
00001000
01000000
00000000
00001000
00010000
00001000
00000000
00010000
00000100
00000010
00000100
00000010
00000000
,
00000001
00001000
00000010
00000100
00000001
00000000
00000100
00000010
00000100
00000000
00000001
00001000
00000100
00010000
00001000
00000000
,
00010000
00000100
00010000
00001000
01000000
00000000
00010000
10000000
00010000
00000000
00100000
01000000
10000000
00100000
01000000
00000000
,
00010000
01000000
00100000
10000000
01000000
00000000
10010000
00000000
00000000
00000000
00011000
00000000
00000000
00000000
01000100
00000000
,
00000000
00000000
00011000
00000000
00000000
00000000
00010001
00000000
00000000
00000000
00001010
00000000
00001000
00000001
00000100
00000000
,
00000000
00001100
00000000
00010100
00000000
01000100
00000000
00011000
,
00000000
00000000
10001000
00000000
00000000
00000000
10010000
00000000
00000000
00000000
00110000
00000000
01000000
00001000
00010000
00000000
,
00000000
10010000
00000000
00011000
00000000
01000100
00000000
00011000
,
00000000
00000000
00001001
00000000
00000000
00000000
00010001
00000000
00000000
00000000
00001100
00000000
00001000
00000010
00000100
00000000
,
00000000
00000000
00000101
00000000
00001000
00000100
00001000
00000100
00000010
00000001
00000010
00000100
00001000
00000010
00010000
00001000
,
00010000
00001000
01000000
00010000
20020000
00000000
00000000
00000000
00000000
00000000
00000000
00000000
00000000
00000000
00000000
00000000
,
30030000
00000000
00000000
00000000
10000000
01000000
00000000
00000100
00010000
00000100
00000000
00010000
00000001
00010000
00000000
00001000
,
00000001
00001000
00000000
00100000
01000000
00100000
00000000
10000000
00001000
10000000
00000000
00010000
01000000
00000100
00000000
00010000
,
00001000
00000010
00000000
00000001
00000101
00000000
00010010
00000000
00011000
00000000
01000100
00000000
00011000
00000000
00100010
00000000
,
00011000
10001000
00011000
00010001
00001001
00001100
00110000
00001010
,
01010000
00000000
00001100
00000000
00000100
00000010
00000000
00000001
00001000
00000100
00000000
01000000
00100000
01000000
00000000
00000100
,
00001000
00000100
00000000
01000000
00100000
01000000
00000000
00000010
00001000
00000010
00000000
00010000
00000001
00010000
00000000
01000000
,
00000100
01000000
00000000
00001000
00011000
00000000
01001000
00000000
10001000
00000000
00011000
00000000
00010010
00000000
00010001
00000000
,
00011000
00000000
00000000
00000000
01001000
00000000
00000000
00000000
00001000
01000000
00001000
01000000
00100000
10000000
01000000
10000000
01000000
00100000
00010000
10000000
00010000
00100000
00001000
00010000
00022000
00000000
00000000
00000000
00000000
00000000
00000000
00000000
,
00000000
00000000
00000000
00000000
01000100
00033000
00000000
00000000
00010000
00000000
00000000
00000000
00001000
00000000
00000000
00000000
01000000
00000000
00000000
00000000
10000000
00000000
00000000
00000000
00010000
00000000
00000000
00000000
00100000
00000000
00000000
00000000
,
10000000
01000000
10000000
00100000
00010000
00000010
00001000
00000100
,
00000001
00000100
00010000
00001000
00000100
00000001
00001000
00000010
,
00000001
00000010
00010000
01000000
00100000
10000000
00100000
00010000
,
10000000
01000000
00010000
00001000
00010000
00000010
00000001
00001000
,
00000100
00000001
00000100
00000010
00010000
00000100
00000001
00001000
,
00010000
00000100
00010000
00001000
00100000
10000000
00100000
00010000
,
01000000
00010000
00100000
00001000
01000000
10000000
00010000
00100000
,
10000000
00000000
10000000
01000000
00100000
00010000
00100000
01000000
,
00100000
00001000
00010000
00000100
00001000
00000100
00000010
00000100
,
00000001
00000100
00010000
00000100
00001000
00000100
00010000
00001000
,
01000000
00010000
10000000
00100000
00010000
00100000
01000000
00001000
,
00010000
00100000
10000000
00010000
01000000
10000000
01000000
00010000
,
00100000
00000100
00000010
00001000
00000010
00000001
00000100
00001000
,
00000100
00000000
00000001
00000000
00000010
00000001
00000010
00000100
00001000
00000010
00001000
00000100
00010000
00001000
00010000
00001000
,
01000000
00010000
01000000
00010000
20020000
00000000
00000000
00000000
00000000
00000000
00000000
00000000
01100000
00000000
00000000
00000000
,
00101000
30030000
00000000
00000000
10000000
00000000
01000000
00100000
00010000
00000000
01000000
00100000
10000000
00100000
01000000
00000000
,
00010000
00100000
00010000
01000000
00001000
00000000
00010000
00000100
00010000
00000000
00001000
00010000
00000100
00001000
00000001
00000000
,
00000010
00000100
00001000
00000100
00001000
00000000
00000001
00000100
00000010
00000000
00001000
00000100
00001000
00000010
00010000
00000000
,
00001000
00010000
00000100
00010000
00001000
00000000
00010000
00000100
00010000
00000000
00001000
01000000
00010000
00100000
01000000
00000000
,
10000000
00010000
01000000
00100000
10000000
00000000
00010000
00100000
00010000
00000000
01000000
00001000
00010000
00001000
01000000
00000000
,
00001000
00010000
01000000
00100000
00010000
00000000
01000000
00001000
01000000
00000000
00000010
00001000
00000100
00001000
00000100
00000000
,
00000010
00000001
00001000
00000010
00000100
00000000
00000001
00000100
00001000
00000000
00010000
00000100
00010000
00001000
00010000
00000000
,
00000100
00001000
00000010
00001000
00000010
00000000
00000100
00001000
00010000
00000000
00000100
00010000
00001000
00010000
00001000
00000000
,
01000000
00010000
01000000
00100000
10000000
00000000
01000000
10000000
00100000
00000000
01000000
00001000
01000000
00010000
01000000
00000000
,
10000000
01000000
00010000
01000000
00100000
00000000
10000000
01000000
00100000
00000000
00001000
00010000
00001000
00000010
00000100
00000000
,
00001000
00000001
00000100
00000010
00001000
00000000
00000001
00000100
00001000
00000000
00000100
00000001
00001000
00000100
00010000
00000000
,
00001000
00010000
00100000
01000000
00100000
00000000
01000000
00010000
00100000
00000000
01000000
10000000
01000000
00010000
00001000
00000000
,
01000000
00010000
01000000
00010000
10000000
00000000
00100000
01000000
00010000
00000000
01000000
00100000
10000000
00100000
10000000
00000000
,
01000000
00100000
00001000
00010000
00001000
00000000
00010000
00000100
00010000
00000000
00001000
00010000
00000100
00001000
00000010
00000000
,
00000100
00000001
00000010
00000100
00001000
00000000
00000001
00000010
00001000
00000000
00000010
00000001
00001000
00000010
00001000
00000000
,
00000100
00010000
00001000
01000000
00001000
00000000
00010000
00100000
10000000
00000000
00100000
01000000
00001000
00010000
00000100
00000000
,
00010000
00001000
01000000
00001000
00011000
00000000
00000000
00000000
01000100
00000000
00011000
00000000
00000000
00000000
00000000
00000000
;

//---------------dance-single - K. Ward----------------
#NOTES:
     dance-single:
     K. Ward:
     Beginner:
     1:
     0.083,0.000,0.038,0.000,0.000,58.000,4.000,0.000,0.000,0.000,0.000:

0000
0000
0000
0000
,
0000
0000
0000
0000
,
0000
0000
0000
0000
,
0000
1000
0000
0000
,
0000
1000
0000
0000
,
0000
1000
0000
0000
,
0000
1000
0000
0000
,
0000
0001
0000
0000
,
0000
0001
0000
0000
,
0000
0001
0000
0000
,
0000
0001
0000
0000
,
0000
1000
0000
0000
,
0000
0001
0000
0000
,
0000
0100
0000
0000
,
0000
0001
0000
0000
,
0000
0010
0000
0000
,
0000
0001
0000
0000
,
0000
1000
0000
0000
,
0000
1001
0000
0000
,
0000
1000
0000
0000
,
0000
0010
0000
0000
,
0000
0100
0000
0000
,
0000
0001
0000
0000
,
0000
0010
0000
0000
,
0000
0001
0000
0000
,
0000
0100
0000
0000
,
0000
1000
0000
1001
,
0000
0001
0000
0000
,
0000
1000
0000
0000
,
0000
0001
0000
0000
,
0000
0001
0000
0000
,
0000
0010
0000
0000
,
0000
0010
0000
0000
,
0000
0001
0000
0000
,
0000
1000
0000
0000
,
0000
0100
0000
0000
,
0000
1000
0000
0000
,
0000
0010
0000
0000
,
0000
0001
0000
0000
,
0000
0010
0000
0000
,
0000
0010
0000
0000
,
0000
0100
0000
0000
,
0000
1001
0000
0000
,
0000
1000
0000
0000
,
0000
1000
0000
0000
,
0000
1000
0000
0000
,
0000
1000
0000
0000
,
0000
0001
0000
0000
,
0000
0001
0000
0000
,
0000
0001
0000
0000
,
0000
0001
0000
0000
,
0000
0010
0000
0000
,
0000
0010
0000
0000
,
0000
0010
0000
0000
,
0000
0001
0000
0000
,
0000
1000
0000
0000
,
0000
1000
0000
0000
,
0000
0010
0000
0000
,
0000
0100
0000
0000
,
0000
1001
0000
0000
;
