#TITLE:Ize Pie;
#SUBTITLE:;
#ARTIST:Headtwist & Pump;
#TITLETRANSLIT:;
#SUBTITLETRANSLIT:;
#ARTISTTRANSLIT:;
#GENRE:Hip Hop;
#CREDIT:;
#BANNER:Ize Pie-banner.png;
#BACKGROUND:Ize Pie-bg.png;
#LYRICSPATH:;
#CDTITLE:;
#MUSIC:Ize Pie.ogg;
#OFFSET:-0.014;
#SAMPLESTART:21.140;
#SAMPLELENGTH:11.960;
#SELECTABLE:YES;
#BPMS:0.000=136.000,112.000=68.000,144.000=136.000;
#STOPS:;
#BGCHANGES:0.000=Ize Pie-bg.png=1.000=0=0=1=====,
16.000=In The Groove 2/913_JumpBack.mpg=1.000=0=0=1===FadeLeft==,
32.000=In The Groove 2/944_JumpBack.mpg=1.000=0=0=1===FadeRight==,
44.000=In The Groove 2/944_JumpBack.mpg=1.000=0=0=1=====,
46.000=In The Groove 2/944_JumpBack.mpg=1.000=0=0=1=SongBgWithMovieViz====,
48.000=-random-=1.000=0=0=1=====,
64.000=-random-=1.000=0=0=1===SlideLeft==,
80.000=-random-=1.000=0=0=1=====,
96.000=-random-=1.000=0=0=1===SlideRight==,
112.000=In The Groove 2/931_JumpBack.mpg=1.000=0=0=1=SongBgWithMovieViz====,
120.000=In The Groove 2/919_JumpBack.mpg=1.000=1=0=1=SongBgWithMovieViz==CrossFade==0.5^0.5^0.5^1,
128.000=In The Groove 2/942_JumpBack.mpg=0.300=0=0=1=Kaleidoscope2x2====,
136.000=In The Groove 2/911_JumpBack.mpg=0.300=0=0=1=Kaleidoscope2x2====,
144.000=In The Groove 2/937_JumpBack.mpg=1.000=0=0=1=====,
160.000=-random-=1.000=0=0=1===SlideLeft==,
176.000=-random-=1.000=0=0=1===SlideRight==,
192.000=-random-=1.000=0=0=1===SlideDown==,
208.000=Ize Pie-bg.png=0.600=0=0=1====1^0^0^1=,
208.500=Ize Pie-bg.png=1.000=0=0=1===FadeRight==,
99999=-nosongbg-=1.000=0=0=0 // don't automatically add -songbackground-
;
#BGCHANGES2:44.000=yellow flash=1.000=0=0=1=====,
48.000=white flash=1.000=0=0=1=====,
76.000=yellow flash=1.000=0=0=1=====,
80.000=white flash=1.000=0=0=1=====,
108.000=yellow flash=1.000=0=0=1=====,
112.000=white flash=1.000=0=0=1=====,
128.000=white flash=1.000=0=0=1=====,
140.000=yellow flash=1.000=0=0=1=====,
144.000=white flash=1.000=0=0=1=====,
208.000=white flash=1.000=0=0=1=====,
;
#KEYSOUNDS:;
// cache tags:
#FIRSTBEAT:16.000;
#LASTBEAT:211.500;
#SONGFILENAME:/Songs/In The Groove 2/Ize Pie/Ize Pie.sm;
#HASMUSIC:1;
#HASBANNER:1;
#MUSICLENGTH:109.411;
// end cache tags

//---------------dance-single - ----------------
#NOTES:
     dance-single:
     :
     Medium:
     5:
     0.311,0.000,0.338,0.055,0.000,195.000,37.000,6.000,0.000,0.000,0.000:
0000
0000
0000
0000
,
0000
0000
0000
0000
,
0000
0000
0000
0000
,
0000
0000
0000
0000
,
1000
0000
0100
0000
0010
0010
0010
0000
,
0100
1000
0101
0101
,
0001
0000
0100
0000
0010
0010
0010
0000
,
0100
0001
1100
1100
,
0100
0000
0010
0000
1000
0001
1000
0000
,
0010
0100
0110
1001
,
1000
0100
0001
0010
,
2002
0000
0000
0000
0000
3003
0000
1000
,
1001
0000
0100
0000
0010
0100
0000
1000
,
0001
1000
0011
0000
,
1100
0000
1000
0000
0010
0100
0000
0001
,
0001
1000
1010
0000
,
0101
0000
0100
0000
0010
0010
0000
0100
,
1000
0001
0110
0000
,
1001
0000
0010
0000
0001
0100
0000
0010
,
1000
0100
0011
0000
,
1000
1010
1000
1100
,
0001
0101
0001
0011
,
0100
1010
0010
1010
,
0100
0011
0100
0011
,
1000
0110
0001
0110
,
1000
0110
0001
0110
,
0100
1100
0100
0101
,
2002
0000
3003
1001
,
1000
0100
0001
0010
,
1000
0001
0010
0100
,
1000
0010
0100
0001
,
1000
0000
0100
0000
1000
0000
0001
0100
,
0001
0010
0100
1000
,
0010
1000
0001
0010
,
0001
0100
0001
1000
,
0100
0000
0010
0000
0001
0000
0100
0010
,
0100
0000
0010
1000
0000
0100
0010
0000
,
0001
0001
0000
1000
,
0010
0000
0100
0100
0000
0001
0001
0000
,
1000
0100
0000
0010
,
0001
0000
0100
0010
0000
0100
0010
0000
,
1000
1000
0000
0001
,
0010
0000
0100
1000
0000
0100
1000
0000
,
0010
0100
0000
0001
,
1000
0000
0100
0000
0010
0000
0001
0100
,
0001
1100
0010
0000
,
1000
0000
0001
0000
1000
0000
0010
0100
,
0010
1001
0100
0000
,
0100
0000
0010
0000
1000
0000
0001
0010
,
0001
1010
0001
0000
,
0010
0000
0100
0000
1000
0000
0010
1000
,
0010
0011
0100
1001
,
2002
0000
0000
3003
;

//---------------dance-single - K.W----------------
#NOTES:
     dance-single:
     K.W:
     Hard:
     7:
     0.433,0.000,0.165,0.302,0.197,281.000,18.000,33.000,4.000,0.000,0.000:
0000
0000
0000
0000
,
0000
0000
0000
0000
,
0000
0000
0000
0000
,
0000
0000
0000
0000
,
2000
0000
0000
3100
0020
0000
0000
0130
,
2000
0000
0000
3010
0002
0000
0000
0013
,
2000
0000
0000
3100
0020
0000
0000
0130
,
2000
0000
0000
3001
0100
1000
0000
1000
,
0200
0000
0000
0301
0010
0000
0110
0000
,
2000
0000
0000
3100
0010
0011
0000
1000
,
1000
0010
0001
0010
0100
0001
0010
0000
,
1001
0000
0000
0000
,
1000
0000
0100
0000
0010
0000
0100
1000
0000
1000
0010
0000
0000
0000
0100
0000
,
0110
0000
0000
0001
0011
0000
0000
0100
,
1000
0000
0100
0000
0010
0000
0100
0001
0000
0001
0010
0000
0000
0000
0100
0000
,
1010
0000
0000
0100
0020
0000
0130
0000
,
1000
0000
0100
0000
1000
0000
0010
0100
0000
0100
0001
0000
0000
0000
0010
0000
,
0002
0000
0000
0013
0100
0000
1100
0000
,
1000
0000
0010
0000
1000
0000
0100
0010
0000
0010
0100
0000
0000
0000
1000
0000
,
1010
0000
0000
0100
0011
0000
0000
0000
,
0100
0010
0100
1000
0100
0010
0100
1000
,
0100
0001
0010
0200
0000
0010
0300
1000
,
0100
0010
0100
1000
0010
0100
0001
0010
,
0100
1000
0100
0020
0000
0100
0000
0031
,
1000
0001
1000
0010
0100
0001
1000
0100
,
0010
0100
1000
0020
0000
0001
0000
0130
,
0001
0010
0100
1000
0100
0010
0100
1000
,
0020
0000
0000
0200
0030
0000
0301
0000
,
0000
1000
0010
0002
0000
0000
0000
0000
0000
0000
0000
0000
0000
0000
0013
0000
,
1000
0100
0010
0100
0000
0000
0000
0000
0000
0000
0000
0000
1000
0010
0100
0001
,
0020
0000
0000
0000
0000
0130
0000
0000
0000
0000
0000
0000
0000
0000
1100
0000
,
0001
0010
0100
0010
0000
0000
0000
0000
0000
0000
0000
0000
0100
1000
0010
0100
,
0001
0010
0001
0000
0011
0000
0000
0000
0100
1000
0100
1100
0000
0000
0000
0000
,
0010
0100
0001
0000
0011
0000
0000
0000
0010
0100
1000
1100
0000
0000
0000
0000
,
0001
0100
1000
0000
1100
0000
0000
0000
1000
0100
0001
0011
0000
0000
0000
0000
,
0200
0000
0000
0000
0010
0000
0000
0000
1000
0000
0000
0000
0310
0000
0000
0000
0001
0000
0010
0000
0001
0000
0010
0000
0100
1000
0100
1000
0100
0000
0000
0000
,
2000
0000
0000
0000
0000
0000
3100
0020
0000
0000
0100
0000
0000
0000
0130
0000
,
2000
0000
0000
0000
0000
0000
3010
0002
0000
0000
0010
0000
0000
0000
0013
0000
,
2000
0000
0000
0000
0000
0000
3100
0020
0000
0000
0100
0000
0000
0000
0130
0000
,
2000
0000
0000
0000
0000
0000
3010
0001
0000
0000
0010
0000
0100
0000
0001
0000
,
0020
0000
0000
0000
0000
0000
0130
1000
0000
0000
0010
0000
0000
0000
0001
0000
,
0020
0000
0000
0000
0000
0000
0130
0001
0000
0000
0010
0000
0000
0000
0001
0000
,
0020
0000
0000
0100
0000
0001
0030
0010
,
0200
1000
0310
MMMM
,
1000
0000
0000
1000
0000
0000
0100
0000
0000
0000
0010
0000
0100
0000
1000
0000
,
0020
0000
0030
0100
0001
0001
1000
1000
,
0010
0000
0000
0010
0000
0000
0100
0000
0000
0000
0001
0000
0010
0000
0100
0000
,
0010
0000
0000
0100
1000
1000
0010
0010
,
0100
0000
0000
0100
0000
0000
0010
0000
0000
0000
0100
0000
0001
0000
0010
0000
,
0011
0000
0000
0001
0010
0010
0100
0100
,
1000
0000
0000
1000
0000
0000
0010
0000
0000
0000
0100
0000
0001
0000
0010
0000
,
0001
0000
0000
0001
0100
1000
0100
0001
,
0022
0000
0000
0000
0000
0000
0000
0033
;

//---------------dance-single - K.W----------------
#NOTES:
     dance-single:
     K.W:
     Easy:
     2:
     0.193,0.000,0.064,0.046,0.000,136.000,7.000,5.000,0.000,0.000,0.000:
0000
0000
0000
0000
,
0000
0000
0000
0000
,
0000
0000
0000
0000
,
0000
0000
0000
0000
,
1000
0000
0100
0000
,
0010
0000
0100
0100
,
1000
0000
0001
0000
,
0010
0000
0001
0001
,
1000
0000
0001
0000
,
0100
0000
0010
0010
,
1000
1000
0001
0010
,
1001
0000
0000
0000
,
0001
0001
0001
0001
,
1000
1000
1000
1000
,
0010
0010
0010
0010
,
0100
0100
0100
0100
,
0001
0010
0001
0010
,
0100
1000
0100
1000
,
0001
1000
0001
0000
,
1010
0000
0101
0000
,
0001
1000
0001
0000
,
0010
0100
0010
0000
,
1000
0001
1000
0000
,
0100
0010
0100
0000
,
0001
1000
0001
0000
,
0010
0100
0010
0000
,
1000
0001
1000
0001
,
1000
0000
0110
0000
,
0002
0000
0000
0003
0000
0000
0000
0000
0000
0000
0000
0000
0000
0000
0000
0000
,
0020
0000
0000
0030
0000
0000
0000
0000
0000
0000
0000
0000
0100
0000
0000
0000
,
2000
0000
0000
3000
0000
0000
0000
0000
0000
0000
0000
0000
0000
0000
0100
0000
,
0020
0000
0000
0030
0000
0000
0000
0000
0000
0000
0000
0000
0002
0000
0000
0003
,
0100
1000
0010
0001
,
0100
1000
0010
0001
,
0010
0010
0010
0000
0001
0001
0001
0000
,
1000
1000
1000
0000
1001
0000
0000
0000
,
1000
0000
0000
0000
,
0100
0000
0000
0000
,
0010
0000
0000
0000
,
0001
0000
0000
0010
,
0001
0000
0000
0000
,
1000
0000
0000
0000
,
0001
0100
1000
0000
,
1000
0100
0001
0000
,
0001
1000
0001
0001
,
0100
0000
0010
0000
,
1000
0001
0100
0010
,
0100
0000
0001
0001
,
0010
0001
0100
1000
,
1100
0000
0000
0000
,
0001
0000
0010
0010
,
0100
0000
1000
0001
,
0110
0000
0000
0000
;

//---------------dance-single - K. Ward----------------
#NOTES:
     dance-single:
     K. Ward:
     Beginner:
     1:
     0.085,0.000,0.018,0.000,0.000,63.000,2.000,0.000,0.000,0.000,0.000:

0000
0000
0000
0000
,
0000
0000
0000
0000
,
0000
0000
0000
0000
,
0000
0000
0000
0000
,
0001
0000
0000
0000
,
1000
0000
0000
0000
,
0010
0000
0000
0000
,
0100
0000
0000
0000
,
0001
0000
0000
0000
,
1000
0000
0000
0000
,
0001
0000
0000
0000
,
1001
0000
0000
0000
,
1000
0000
0000
0000
,
0100
0000
0000
0000
,
0010
0000
0000
0000
,
0100
0000
0000
0000
,
1000
0000
0000
0000
,
0001
0000
0000
0000
,
0010
0000
0000
0000
,
0001
0000
0000
0000
,
1000
0000
1000
0000
,
1000
0000
0000
0000
,
0100
0000
0100
0000
,
0100
0000
0000
0000
,
0010
0000
0010
0000
,
0010
0000
0000
0000
,
0001
0000
0001
0000
,
0001
0000
0000
0000
,
1000
0000
0000
0000
,
1000
0000
0000
0000
,
0001
0000
0000
0000
,
0001
0000
0000
0000
,
1000
1000
0100
0000
,
0100
0100
0010
0000
,
0010
0010
0001
0000
,
1000
0001
1000
0000
,
1000
0000
0000
0000
,
0001
0000
0000
0000
,
0010
0000
0000
0000
,
0001
0000
0000
0000
,
1000
0000
0000
0000
,
0100
0000
0000
0000
,
1000
0000
0000
0000
,
0001
0000
1000
0000
,
0001
0000
0000
0000
,
1000
0000
0000
0000
,
0001
0000
0000
0000
,
1000
0000
0000
0000
,
0010
0000
0000
0000
,
0100
0000
0000
0000
,
0001
0000
0000
0000
,
1000
0000
0001
0000
,
1001
0000
0000
0000
;

//---------------dance-single - K. Ward----------------
#NOTES:
     dance-single:
     K. Ward:
     Challenge:
     9:
     0.527,0.000,0.420,0.265,0.256,329.000,46.000,29.000,34.000,0.000,0.000:
0000
0000
0000
0000
,
0000
0000
0000
0000
,
0000
0000
0000
0000
,
0000
0000
0000
0000
,
1001
0000
0100
0000
0010
0000
0100
0001
0000
0001
0010
0000
0000
0000
0001
0000
,
0100
1000
1000
0100
0020
0000
0130
0000
,
0001
0000
0010
0000
0100
0000
0010
0001
0000
0001
0100
0000
0000
0000
1000
0000
,
0100
0002
0010
1003
,
0010
0000
0100
0000
1000
0000
0100
0010
0000
0010
0100
0000
0000
0000
0001
0000
,
0020
0000
0130
0000
0010
0001
0100
1000
,
1100
0100
0001
0010
0110
0100
0010
0100
,
1001
0000
1100
0000
,
0001
0100
1000
0100
0001
1000
0010
1000
,
0100
0001
0100
1000
0002
0000
0013
0000
,
0100
0010
0001
0010
0100
1000
0100
0010
,
0020
0000
0130
0000
0002
1000
1003
0000
,
0100
0000
0010
0000
0001
0000
1000
0100
0000
0100
1000
0000
0100
0000
0010
0000
,
0001
0100
1000
0100
0200
0000
0301
0000
,
1000
0000
0100
0000
0010
0000
0100
0010
0000
0010
0100
0000
0010
0000
0001
0000
,
0022
0000
0033
M00M
2002
0000
3003
M00M
,
0100
1000
0100
0010
0100
0001
0010
0100
,
1000
0100
0010
0001
1000
0000
1100
0000
,
0010
0100
0001
0010
0100
0010
0001
0010
,
0110
0000
1100
0000
0011
0100
0110
0000
,
0100
0001
0100
1000
0100
0001
0010
0100
,
0010
0010
0001
0001
0100
1000
0200
0000
,
0310
1000
0010
0100
0001
0010
0100
1000
,
1001
0011
2200
3300
,
0000
0001
0100
2200
0000
0000
0000
0000
0000
0000
0000
0000
3300
0000
MM11
0000
,
0010
0100
0010
1001
0000
0000
0000
0000
M00M
0000
0000
0000
1100
0000
0000
0000
,
0100
0010
0001
1001
0000
0022
0000
0000
0000
0000
0000
0000
0033
0000
1100
0000
,
0100
0010
0001
0011
0000
0000
0000
0000
0000
0000
0000
0000
1100
0000
0000
0000
,
0010
0001
0010
0100
1001
0000
MMMM
0000
0100
0010
0100
1001
0000
0000
MMMM
0000
,
0100
0010
1000
0100
1100
0000
MMMM
0000
0100
0010
0100
0110
0000
0000
MMMM
0000
,
1000
0100
0010
0001
0011
0000
MMMM
0000
0100
0010
0100
1001
0000
0000
MMMM
0000
,
1100
0000
0000
0000
0011
0000
0000
0000
0110
0000
0000
0000
1001
0000
0000
0000
1000
0000
0100
0000
0010
0000
0100
0000
0010
0001
0010
0001
0010
0001
0010
0001
,
0100
0000
0010
0000
0001
0000
0010
0100
0000
0000
1100
0000
0000
0000
0001
0000
,
0010
0000
0001
0000
0100
0000
1000
0100
0000
0000
0010
0000
0100
0000
0001
0000
,
1100
0000
0100
0000
0010
0000
0001
0010
0000
0000
0110
0000
0000
0000
0100
0000
,
2000
0000
3100
0000
0010
0001
0101
0000
,
1000
0000
0100
0000
0001
0000
0100
1000
0000
0000
1100
0000
0000
0000
0100
0000
,
0020
0000
0001
0000
0130
1000
0100
0001
,
0020
0000
0130
0000
0002
0010
0013
0000
,
1000
0001
0000
1000
0001
0000
1000
0001
0000
1000
0001
0000
0100
0010
0100
0010
,
0100
0000
0000
0001
0010
0000
0001
0000
0100
0000
1000
0000
0100
0000
0001
0000
,
0020
0000
0031
0000
0100
0100
0110
0000
,
1100
0000
0000
0010
0100
0000
0010
0000
0001
0000
0010
0000
0100
0000
1000
0000
,
0200
0000
0301
0000
0020
0001
0031
0000
,
0000
0000
0100
1000
0100
0000
0010
0100
0001
0000
0010
0001
0100
0000
0010
1000
,
0200
0000
0310
0000
0100
1000
1100
0000
,
0011
0000
0000
0110
0000
0000
1001
0000
0000
0000
0000
0000
0010
0000
0100
0000
,
0020
0000
0100
0000
0001
0001
0031
0000
,
2200
0000
0000
0000
0000
0000
3300
MM00
;

//---------------dance-double - M.Emirzian----------------
#NOTES:
     dance-double:
     M.Emirzian:
     Easy:
     3:
     0.175,0.000,0.027,0.055,0.000,125.000,3.000,6.000,0.000,0.000,0.000:
00000000
00000000
00000000
00000000
,
00000000
00000000
00000000
00000000
,
00000000
00000000
00000000
00000000
,
00000000
00000000
00000000
00000000
,
00010000
00000000
10000000
00100000
,
01000000
00000000
00010000
00000000
,
10000000
00000000
01000000
00100000
,
00010000
00000000
00100000
00000000
,
00001000
00000000
00010000
00001000
,
00000100
00000000
00000001
00000000
,
00001000
00000000
00000010
00000001
,
00000010
00000000
00000100
00000000
,
00001000
00000010
00001000
00000000
,
00000001
00000100
00001000
00000000
,
00010000
00000100
00010000
00000000
,
00001000
00010000
00100000
00000000
,
01000000
00010000
01000000
00000000
,
00100000
00000000
10000000
00010000
,
00100000
00000000
01000000
00000000
,
10000000
00100000
00010000
00000000
,
00001000
00010000
01000000
00000000
,
00010000
00000000
00001000
00000100
,
00000001
00000000
00001000
00000000
,
00000100
00000010
00000001
00000000
,
00001000
00000100
00000010
00000000
,
00000001
00000100
00001000
00000000
,
00010000
00100000
10000000
00000000
,
22000000
00000000
00000000
33000000
,
00010000
00000000
00000000
00000000
,
00000000
00000000
00000000
00000000
,
00001000
00000000
00000000
00000000
,
00000000
00000000
00000000
00000000
,
00000001
00001000
00000100
00000000
,
00000010
00000100
00001000
00000000
,
10000000
00100000
01000000
00000000
,
00000100
00000000
00001000
00000000
00000010
00001000
00000010
00000000
,
00000100
00000000
00000001
00001000
,
00000100
00000000
00000010
00000000
,
00000001
00000000
00000100
00001000
,
00010000
00000000
00000100
00000000
,
00010000
00000000
00001000
01000000
,
00001000
00000000
01000000
00000000
,
00010000
00000000
01000000
00100000
,
20020000
00000000
00000000
30030000
,
01000000
00100000
00010000
00100000
,
00000000
00001000
00010000
01000000
,
00000000
00010000
00001000
00000010
,
00000000
00001000
00010000
01000000
,
00000000
00010000
00001000
00000100
,
00000000
00000001
00001000
00000100
,
00000000
00000010
00000001
00000100
,
00000000
00001000
00010000
01000000
,
20020000
00000000
00000000
00000000
00000000
00000000
00000000
30030000
;

//---------------dance-double - M.Emirzian----------------
#NOTES:
     dance-double:
     M.Emirzian:
     Medium:
     6:
     0.325,0.000,0.082,0.018,0.041,238.000,9.000,2.000,0.000,0.000,0.000:
00000000
00000000
00000000
00000000
,
00000000
00000000
00000000
00000000
,
00000000
00000000
00000000
00000000
,
00000000
00000000
00000000
00000000
,
01100000
00000000
00000000
10000000
00010000
01000000
00000000
00100000
,
10000000
00000000
00000000
01000000
00100000
00010000
00000000
10000000
,
00100000
00000000
00000000
01000000
00001000
00010000
00000000
00001000
,
00000100
00000000
00000000
00000010
00001000
00000010
00000000
00000100
,
00000001
00000000
00000000
00000010
00000100
00001000
00000000
00000100
,
00000010
00000000
00000000
00000001
00000100
00001000
00000000
00000100
,
00000010
00000000
00000000
00000100
00000001
00001000
00000000
00000100
,
00010000
00000000
00000000
00000000
00001000
01000000
00000000
00001000
,
00010000
00001000
01000000
00010000
00000000
00000000
01000000
00000000
,
00100000
00000000
10000000
00000000
01000000
00100000
00010000
00000000
,
00100000
01000000
10000000
01000000
00000000
00000000
00010000
00000000
,
00001000
00000000
00000100
00000000
00000001
00001000
00000100
00000000
,
00001000
00000001
00000100
00001000
00000000
00000000
00000100
00000000
,
00000001
00000000
00001000
00000000
00000100
00010000
00001000
00000000
,
00010000
00001000
01000000
00010000
00000000
00000000
00100000
00000000
,
00010000
00000000
01000000
00000000
00100000
10000000
00100000
00000000
,
01000000
00010000
00100000
00010000
00000000
00000000
10000000
00000000
,
00100000
00000000
00010000
00000000
00001000
01000000
00010000
00000000
,
00100000
00001000
00010000
00001000
00000000
00000000
00010000
00000000
,
00001000
00000000
00000010
00000000
00000001
00001000
00000010
00000000
,
00001000
00000001
00000100
00000010
00000000
00000000
00000100
00000000
,
00000001
00000000
00000010
00000000
00000100
00001000
00000100
00000000
,
00010000
00001000
01000000
00010000
00000000
00000000
01000000
00000000
,
00100000
00000000
10000000
00000000
01000000
00100000
00000000
00100000
,
00010000
00000000
00000000
10010000
00000000
00000000
00000000
00000000
00000000
00000000
00000000
00000000
00000000
00000000
00000000
00000000
,
01000000
00000000
00000000
00110000
00000000
00000000
00000000
00000000
00000000
00000000
00000000
00000000
00000000
00000000
00000000
00000000
,
00001000
00000000
00000000
00011000
00000000
00000000
00000000
00000000
00000000
00000000
00000000
00000000
00000000
00000000
00000000
00000000
,
00000010
00000000
00000000
00010010
00000000
00000000
00000000
00000000
00000000
00000000
00000000
00000000
00000000
00000000
00000000
00000000
,
00001000
00000000
00000100
00000000
00000010
00000000
00000000
00000000
00000001
00000000
00000000
00000110
00000000
00000000
00000000
00000000
,
00000001
00000000
00000100
00000000
00001000
00000000
00000000
00000000
00010000
00000000
00000000
00010100
00000000
00000000
00000000
00000000
,
00010000
00000000
01000000
00000000
10000000
00000000
00000000
00000000
00100000
00000000
00000000
01010000
00000000
00000000
00000000
00000000
,
10000000
00000000
00100000
00000000
01000000
00000000
00010000
00000000
00100000
00000000
00001000
00000000
00010000
00001000
00010000
00001000
,
00010000
00000000
00000100
00000000
00000010
00000001
00000000
00001000
,
00000100
00000000
00000010
00000000
00000001
00000100
00001000
00000000
,
00000100
00000000
00000010
00000000
00010000
00001000
00000000
00100000
,
00010000
00000000
10000000
00000000
00100000
01000000
00010000
00000000
,
10000000
00000000
01000000
00000000
00100000
00010000
00000000
01000000
,
00001000
00000000
00010000
00000000
00000100
00001000
00000001
00000000
,
00000010
00000000
00000100
00000000
00001000
00000001
00000000
00000100
,
00001000
00000000
00000100
00000000
00000010
00001000
00000100
00000000
,
00000010
00000000
00000100
00010000
00000000
00001000
00010000
00001000
,
01000000
00000000
00010000
00000000
01000000
00100000
10000000
00000000
,
01000000
00000000
00100000
00010000
00000000
10000000
01000000
00100000
,
00010000
00000000
01000000
00000000
00001000
00010000
00000100
00000000
,
00010000
00000000
00001000
01000000
00000000
00001000
00010000
00000100
,
00001000
00000000
00000010
00000000
00000100
00000001
00001000
00000000
,
00000100
00000000
00000010
00000001
00000000
00000100
00001000
00000100
,
00000001
00000000
00001000
00000000
00000100
00010000
00001000
01000000
,
02020000
00000000
00000000
00000000
00000000
00000000
00000000
03030000
;

//---------------dance-double - M.Emirzian----------------
#NOTES:
     dance-double:
     M.Emirzian:
     Hard:
     7:
     0.423,0.000,0.110,0.009,0.338,311.000,12.000,1.000,4.000,0.000,0.000:
00000000
00000000
00000000
00000000
,
00000000
00000000
00000000
00000000
,
00000000
00000000
00000000
00000000
,
00000000
00000000
00000000
00000000
,
00000100
00000000
00000000
00000000
00000000
00000000
00001000
00000001
00000000
00000000
00000010
00000000
00000000
00000000
00000100
00000000
,
00001000
00000000
00000000
00000000
00000000
00000000
00000001
00000100
00000000
00000000
00000010
00000000
00000000
00000000
00001000
00000000
,
00000100
00000000
00000000
00000000
00000000
00000000
00010000
00001000
00000000
00000000
00010000
00000000
00000000
00000000
01000000
00000000
,
10000000
00000000
00000000
00000000
00000000
00000000
00010000
01000000
00000000
00000000
00100000
00000000
00000000
00000000
10000000
00000000
,
00010000
00000000
00000000
00000000
00000000
00000000
00100000
01000000
00000000
00000000
10000000
00000000
00000000
00000000
00010000
00000000
,
01000000
00000000
00000000
00000000
00000000
00000000
00001000
00010000
00000000
00000000
01000000
00000000
00000000
00000000
00010000
00000000
,
00001000
00000000
00000000
00000000
00000000
00000000
00000010
00000100
00000000
00000000
00001000
00000000
00000000
00000000
00000001
00000000
,
00000100
00000000
00000000
00000000
00000000
00000000
00000010
00001000
00000010
00000000
00000100
00000000
00000000
00000000
00000001
00000000
,
00001000
00000000
00000100
00000000
00000010
00000000
00000001
00000100
00000000
00000000
00000010
00000000
00000000
00000000
00001000
00000000
,
00000100
00000000
00000000
00000000
00000000
00000000
00010000
00001000
00010000
00000000
01000000
00000000
00000000
00000000
00100000
00000000
,
00010000
00000000
00100000
00000000
10000000
00000000
00100000
01000000
00000000
00000000
10000000
00000000
00000000
00000000
00010000
00000000
,
01000000
00000000
00000000
00000000
00000000
00000000
00100000
10000000
00100000
00000000
01000000
00000000
00000000
00000000
00010000
00000000
,
10000000
00000000
01000000
00000000
00010000
00000000
00001000
00010000
00000000
00000000
00100000
00000000
00000000
00000000
00010000
00000000
,
00001000
00000000
00000000
00000000
00000000
00000000
00000010
00000100
00000010
00000000
00000001
00000000
00000000
00000000
00000010
00000000
,
00001000
00000000
00000010
00000000
00000100
00000000
00001000
00000001
00000000
00000000
00000100
00000000
00000000
00000000
00000010
00000000
,
00001000
00000000
00000000
00000000
00000000
00000000
00000100
00010000
00000100
00000000
00001000
00000000
00000000
00000000
00000010
00000000
,
00010000
00000000
00001000
00000000
01000000
00000000
00001000
00010000
00000000
00000000
01000000
00000000
00000000
00000000
00100000
00000000
,
00010000
00000000
00000000
00000000
00000000
00000000
01000000
00100000
01000000
00000000
00010000
00000000
00000000
00000000
10000000
00000000
,
00100000
00000000
01000000
00000000
10000000
00000000
01000000
00010000
00000000
00000000
10000000
00000000
00000000
00000000
01000000
00000000
,
00100000
00000000
00000000
00000000
00000000
00000000
00010000
01000000
00010000
00000000
00100000
00000000
00000000
00000000
00001000
00000000
,
00010000
00000000
00001000
00000000
00000010
00000000
00000100
00001000
00000000
00000000
00000001
00000000
00000000
00000000
00000100
00000000
,
00000010
00000000
00000000
00000000
00000000
00000000
00001000
00000100
00001000
00000000
00000001
00000000
00000000
00000000
00000100
00000000
,
00001000
00000000
00010000
00000000
00100000
00000000
01000000
00010000
00000000
00000000
10000000
00000000
00000000
00000000
01000000
00000000
,
00100000
00000000
00000000
00000000
00000000
00000000
00010000
10000000
00010000
00000000
01000000
00000000
00000000
00000000
00100000
00000000
,
10010000
00010000
10000000
01000000
00000000
00000000
00000000
00000000
00000000
00000000
00000000
00000000
00000000
00000000
00100000
00000000
,
00010000
01000000
00100000
10000000
00000000
00000000
00000000
00000000
00000000
00000000
000MM000
00000000
00011000
00000000
00000000
00000000
,
00000010
00001000
00000001
00000010
00000000
00000000
00000000
00000000
00000000
00000000
00000000
00000000
00000000
00000000
01010000
00000000
,
00100000
00010000
10000000
01000000
00000000
00000000
00000000
00000000
00000000
00000000
0000M00M
00000000
00001001
00000000
00000000
00000000
,
00000010
00000100
00000010
00001000
00000000
00000100
00000000
00000010
00000001
00000000
00000000
00001000
00000000
00000010
00000000
00000001
,
00000010
00000100
00000010
00001000
00000000
00000100
00000000
00010000
00001000
00000000
00000000
00010000
00000000
01000000
00000000
10000000
,
00100000
01000000
00100000
00010000
00000000
00100000
00000000
01000000
00010000
00000000
00000000
10000000
00000000
01000000
00000000
00100000
,
00010000
00100000
10000000
00100000
00000000
01000000
00000000
10000000
00100000
01000000
00010000
10000000
01000000
00010000
00001000
00000100
,
00000001
00001000
00000100
00000010
00000000
00000001
00000000
00001000
,
00000010
00000000
00000000
00000000
00000000
00000000
00000100
00000001
00000000
00000000
00000100
00000000
00000000
00000000
00001000
00000000
,
00000100
00000010
00010000
00001000
00000000
00010000
00000000
01000000
,
10000000
00000000
00000000
00000000
00000000
00000000
00010000
01000000
00000000
00000000
00100000
00000000
00000000
00000000
10000000
00000000
,
01000000
00100000
00010000
01000000
00000000
00100000
00000000
00010000
,
00001000
00000000
00000000
00000000
00000000
00000000
00010000
00000100
00000000
00000000
00001000
00000000
00000000
00000000
00000100
00000000
,
00000010
00000100
00001000
00000100
00000000
00000001
00000000
00000100
,
00001000
00000000
00000000
00000010
00000100
00000000
00000001
00000000
00001000
00000000
00000100
00000000
00000010
00000001
00000010
00000001
,
00000010
00000000
00000000
00001100
00000000
00000000
00001001
00000000
00000000
00000000
00000010
00000000
00001000
00000000
00000100
00000000
,
00001000
00000000
00000000
00000010
00010000
00001000
00000100
00001000
,
00010000
00000000
00000000
01001000
00000000
00000000
01010000
00000000
00000000
00000000
00100000
00000000
10000000
00000000
01000000
00000000
,
00100000
00000000
00000000
00010000
00100000
10000000
00100000
01000000
,
10000000
00000000
00000000
10100000
00000000
00000000
10010000
00000000
00000000
00000000
01000000
00000000
00100000
00000000
10000000
00000000
,
01000000
00000000
00000000
00100000
00010000
01000000
00001000
00010000
,
00000100
00000000
00000000
00001100
00000000
00000000
00000110
00000000
00000000
00000000
00000001
00000000
00000100
00000000
00000010
00000000
,
00001000
00000000
00000100
00000000
00010000
00000000
00000000
00001000
00010000
00000000
00100000
00000000
01000000
00100000
01000000
00100000
,
20000000
00000000
00000000
00000000
00000000
00000000
00000000
30000000
;

//---------------dance-double - M.Emirzian----------------
#NOTES:
     dance-double:
     M.Emirzian:
     Challenge:
     9:
     0.547,0.000,0.274,0.037,0.494,385.000,30.000,4.000,0.000,2.000,0.000:
00000000
00000000
00000000
00000000
,
00000000
00000000
00000000
00000000
,
00000000
00000000
00000000
00000000
,
00000000
00000000
00000000
00000000
,
00000001
00000000
00000100
00000000
00001000
00000000
00000100
00000010
00000000
00000010
00001000
00000000
00000000
00000000
00000100
00000000
,
00000010
00000000
00000001
00000000
00000010
00000000
00000000
00001000
00000010
00000000
00000001
00000000
00000000
00000000
00000100
00000000
,
00001000
00000000
00010000
00000000
01000000
00000000
00100000
00010000
00000000
00010000
00100000
00000000
00000000
00000000
10000000
00000000
,
00100000
00000000
00010000
00000000
00100000
00000000
00000000
01000000
10000000
00000000
00010000
00000000
00000000
00000000
01000000
00000000
,
00100000
00000000
10000000
00000000
01000000
00000000
00100000
00010000
00000000
00010000
00100000
00000000
00000000
00000000
01000000
00000000
,
00010000
00000000
00001000
00000000
00000100
00000000
00000000
00000010
00001000
00000000
00000010
00000000
00000000
00000000
00000100
00000000
,
00000001
00000000
00000010
00000000
00000100
00000000
00001000
00000001
00000000
00000001
00000100
00000000
00000000
00000100
00000000
00000010
,
00002002
00000000
00000000
00000000
00000000
00000000
00000000
00000000
00000100
00000000
00000010
00003003
00000000
00000000
00000100
00000000
,
00001000
00000000
00000001
00000000
00000100
00000000
00000010
00001000
00000000
00001000
00000100
00000000
00010000
00000000
00001000
00000000
,
00000100
00000000
00001000
00000000
00010000
00000000
01000000
00100000
00000000
00000000
10010000
00000000
00000000
00000000
00100000
00000000
,
10000000
00000000
00100000
00000000
01000000
00000000
10000000
00010000
00000000
00010000
01000000
00000000
00100000
00000000
10000000
00000000
,
01000000
00000000
00010000
00000000
00001000
00000000
00010000
00000100
00000000
00000000
00001100
00000000
00000000
00000000
00000001
00000000
,
00000100
00000000
00000010
00000000
00001000
00000000
00000100
00000010
00000000
00000010
00000001
00000000
00000100
00000000
00001000
00000000
,
00010000
00000000
00001000
00000000
00000100
00000000
00000001
00001000
00000001
00000000
00001100
00000000
00000000
00000000
00010000
00000000
,
00001000
00000000
01000000
00000000
10000000
00000000
01000000
00010000
00000000
00010000
00100000
00000000
00000000
01000000
10000000
00000000
,
00100000
00000000
10000000
00000000
01000000
00000000
00100000
00010000
00000000
00000000
01001000
00000000
00000000
00000000
00010000
00000000
,
00001000
00000000
00000010
00000000
00001000
00000000
00010000
00000100
00000000
00000100
00001000
00000000
00000001
00000000
00000100
00000000
,
00001000
00000000
00000100
00000000
00000010
00000000
00000100
00000001
00000000
00000000
00000011
00000000
00000000
00000000
00000100
00000000
,
00001000
00000000
00000010
00000000
00001000
00000000
00000100
00000010
00000000
00000010
00000001
00000000
00000010
00000000
00001000
00000000
,
00010000
00000000
00100000
00000000
01000000
00000000
00010000
01000000
00010000
00000000
10100000
00000000
00000000
00000000
01000000
00000000
,
00100000
00000000
00010000
00000000
00100000
00000000
01000000
10000000
00000000
10000000
00010000
00000000
01000000
00000000
10000000
00000000
,
01000000
00000000
00001000
00000000
00010000
00000000
00000100
00001000
00000000
00000000
00001010
00000000
00000000
00000000
00000001
00000000
,
00000100
00000000
00000010
00000000
00001000
00000000
00000100
00000010
00000000
00000010
00000001
00000000
00000000
00000010
00000100
00000000
,
00001000
00000000
00000000
00000000
00000000
00000000
00000001
00000100
00000000
00000000
00000110
00000000
00000000
00000000
00001000
00000000
,
00000010
00001000
00000100
00010000
00000000
00000000
00000000
00000000
00000000
00000000
00000000
00000000
00000000
00000000
10010000
00000000
,
01000000
00100000
00000010
00000100
00000000
00000000
00000000
00000000
00000000
00000000
00000000
00000000
10010000
00000000
00000000
00000000
,
00100000
01000000
00000100
00000010
00000000
00000000
00000000
00000000
00000000
00000000
00000000
00000000
00000000
00000000
01100000
00000000
,
10000000
00001000
00010000
00000001
00000000
00000000
00000000
00000000
00000000
00000000
00000000
00000000
00001100
00000000
00000000
00000000
,
00000001
00010000
00001000
10000000
00000000
01000000
00000000
00100000
00000100
00000000
00000000
00000010
00000000
00000001
00000000
00000100
,
00000001
00010000
00001000
10000000
00000000
00100000
00000000
01000000
00001000
00000000
00000000
00000100
00000000
00000010
00000000
00001000
,
00000100
00000010
01000000
00100000
00000000
00010000
00000000
01000000
00100000
00000000
00000000
10000000
00000000
01000000
00000000
00100000
,
00010000
00000000
10000000
00000000
00001000
00000000
00010000
00000000
00000000
00000000
00000001
00000000
00000000
00000000
00000100
00000000
00000010
00000000
01000000
00000000
00100000
00000000
10000000
00000000
01000000
00100000
00010000
00100000
01000000
00010000
00001000
00010000
,
00000100
00000000
00000010
00000000
00000001
00000000
00000100
00000010
00000000
00000000
00001010
00000000
00000000
00000000
00000100
00000000
,
00000001
00000000
00000100
00000000
00001000
00000000
00000100
00000010
00000000
00000010
00001000
00000000
00000100
00000000
00010000
00000000
,
00001000
00000000
01000000
00000000
00100000
00000000
10000000
01000000
00000000
00000000
00110000
00000000
00000000
00000000
01000000
00000000
,
10000000
00000000
01000000
00000000
00010000
00000000
01000000
00100000
00000000
00100000
00010000
00000000
01000000
00000000
10000000
00000000
,
01000000
00000000
00001000
00000000
00010000
00000000
00000100
00001000
00000000
00000000
00001001
00000000
00000000
00000000
00000001
00000000
,
00000010
00000000
00001000
00000000
00000010
00000000
00000100
00001000
00000000
00001000
00000001
00000000
00000100
00000000
00001000
00000000
,
00010000
00000000
00001000
00000000
00000010
00000000
00000001
00000100
00000000
00000000
00000011
00000000
00000000
00000000
00000010
00000000
,
00001000
00000000
00000000
00000100
00010000
00000000
00001000
01000000
00000000
01000000
00010000
00000000
00100000
10000000
01000000
00100000
,
10010000
00000000
00000000
11000000
00000000
00000000
00110000
00000000
00000000
00010000
10000000
00000000
00100000
00000000
00010000
00000000
,
00100000
01000000
00010000
01000000
10000000
01000000
00001000
00010000
,
00011000
00000000
00000000
00010010
00000000
00000000
00001010
00000000
00000000
00000100
00001000
00000000
00000100
00000000
00000010
00000000
,
00001000
00010000
00000100
00000010
00000001
00000100
00001000
00000100
,
00001010
00000000
00000000
00001001
00000000
00000000
00001100
00000000
00000000
00000100
00000001
00000000
00000100
00000000
00001000
00000000
,
00010000
01000000
00100000
01000000
10000000
01000000
00010000
01000000
,
11000000
00000000
00000000
00110000
00000000
00000000
10010000
00000000
00000000
10000000
01000000
00000000
00100000
00000000
00010000
00000000
,
10000000
00000000
01000000
00000000
00100000
00000000
00000000
00010000
01000000
00001000
00010000
00000010
00001000
00000100
00000010
00000001
,
00002002
00000000
00000000
00000000
00000000
00000000
00000000
00003003
;
